osu file format v14

[General]
AudioFilename: audio.ogg
AudioLeadIn: 0
PreviewTime: 205383
Countdown: 0
SampleSet: Soft
StackLeniency: 0.7
Mode: 0
LetterboxInBreaks: 0
WidescreenStoryboard: 0

[Editor]
Bookmarks: 172655,174061,180717,241936
DistanceSpacing: 0.91
BeatDivisor: 4
GridSize: 16
TimelineZoom: 1

[Metadata]
Title:Hatenaki Kaze no Kiseki sae ~Ha~
TitleUnicode:果てなき風の軌跡さえ~破~
Artist:Yuuhei Satellite
ArtistUnicode:幽閉サテライト
Creator:Dailycare
Version:Continuous
Source:東方風神録 ~ Mountain of Faith.
Tags:Enon GimBab senya Marcia Iceon ZUN 東方Project Touhou Project MoF Fuujinroku TH10 Team Shanghai Alice 信仰は儚き人間の為に Shinkou wa hakanaki ningen no tame ni Faith Is for the Transient People Japanese Video Game
BeatmapID:3739386
BeatmapSetID:1822334

[Difficulty]
HPDrainRate:5.2
CircleSize:4
OverallDifficulty:8
ApproachRate:8.5
SliderMultiplier:1.94
SliderTickRate:1

[Events]
//Background and Video events
0,0,"2=).jpg",0,0
//Break Periods
2,130677,135052
2,192177,196739
//Storyboard Layer 0 (Background)
//Storyboard Layer 1 (Fail)
//Storyboard Layer 2 (Pass)
//Storyboard Layer 3 (Foreground)
//Storyboard Layer 4 (Overlay)
//Storyboard Sound Samples

[TimingPoints]
-23,375,4,2,1,40,1,0
8977,-100,4,2,1,50,0,0
16477,-100,4,2,1,5,0,0
17039,-100,4,2,1,60,0,0
17602,-66.6666666666667,4,2,1,80,0,0
17977,-100,4,2,1,80,0,1
18070,-100,4,2,1,80,0,0
29977,-133.333333333333,4,2,1,50,0,0
50977,-133.333333333333,4,2,0,50,0,0
52570,-133.333333333333,4,3,0,56,0,0
53227,-133.333333333333,4,3,0,62,0,0
53602,-100,4,2,1,70,0,0
53977,-100,4,2,1,80,0,1
54070,-100,4,2,1,80,0,0
66164,-100,4,2,1,20,0,0
66258,-100,4,2,1,80,0,0
66445,-100,4,2,1,20,0,0
66539,-100,4,2,1,80,0,0
66633,-100,4,2,1,20,0,0
66727,-100,4,2,1,80,0,0
67477,-100,4,2,1,85,0,1
79477,-100,4,2,1,47,0,0
79758,-100,4,2,1,52,0,0
80227,-100,4,2,1,57,0,0
80508,-100,4,2,1,62,0,0
80977,-100,4,2,1,85,0,1
91477,-100,4,2,1,70,0,0
92977,-100,4,2,1,50,0,0
93539,-100,4,2,1,70,0,0
94102,-66.6666666666667,4,2,1,80,0,0
94477,-100,4,2,1,80,0,1
94570,-100,4,2,1,80,0,0
106477,-111.111111111111,4,2,1,70,0,1
106570,-111.111111111111,4,2,1,70,0,0
116977,-111.111111111111,4,3,0,70,0,0
118477,-111.111111111111,4,2,1,75,0,1
118570,-111.111111111111,4,2,1,75,0,0
128227,-111.111111111111,4,2,1,80,0,0
128977,-111.111111111111,4,3,0,80,0,0
135727,-133.333333333333,4,2,1,50,0,0
136102,-133.333333333333,4,2,1,80,0,0
136477,-100,4,2,1,80,0,1
136570,-100,4,2,1,80,0,0
142664,-100,4,2,1,20,0,0
142758,-100,4,2,1,80,0,0
142945,-100,4,2,1,20,0,0
143039,-100,4,2,1,80,0,0
143133,-100,4,2,1,20,0,0
143227,-100,4,2,1,80,0,0
143977,-100,4,2,1,85,0,1
155977,-100,4,2,1,70,0,0
156164,-100,4,3,0,52,0,0
156352,-100,4,3,0,54,0,0
156539,-100,4,3,0,56,0,0
156727,-100,4,3,0,58,0,0
156914,-100,4,3,0,60,0,0
157102,-100,4,3,0,62,0,0
157289,-100,4,3,0,64,0,0
157477,-100,4,2,1,85,0,1
167883,-100,4,2,1,85,0,0
167977,-100,4,2,1,85,0,1
179883,-100,4,2,1,85,0,0
179977,-100,4,2,1,85,0,1
191977,-100,4,2,1,60,0,0
197602,-133.333333333333,4,2,1,70,0,0
197977,-133.333333333333,4,2,1,75,0,1
198070,-133.333333333333,4,2,1,75,0,0
199477,-133.333333333333,4,2,1,75,0,1
199570,-133.333333333333,4,2,1,75,0,0
200977,-133.333333333333,4,2,1,75,0,1
201070,-133.333333333333,4,2,1,75,0,0
202477,-100,4,2,1,80,0,1
203883,-100,4,2,1,80,0,0
205477,-100,4,2,1,60,0,0
206602,-100,4,2,1,70,0,1
206695,-100,4,2,1,70,0,0
206977,-100,4,2,1,85,0,1
217477,-133.333333333333,4,3,0,75,0,0
217852,-100,4,2,1,85,0,1
229383,-100,4,2,1,85,0,0
229477,-100,4,2,1,85,0,1
241477,-100,4,2,1,70,0,0
244383,-100,4,2,1,30,0,1
244477,-100,4,2,1,30,0,0

[Colours]
Combo1 : 156,220,198
Combo2 : 154,211,112

[HitObjects]
3,184,2977,5,6,0:0:0:0:
197,273,3727,5,2,0:0:0:0:
335,109,4477,5,2,0:0:0:0:
291,42,4852,1,2,0:0:0:0:
213,63,5227,1,2,0:0:0:0:
209,143,5602,1,2,0:0:0:0:
284,171,5977,1,6,0:0:0:0:
493,143,6727,5,2,0:0:0:0:
512,223,7102,1,2,0:0:0:0:
441,265,7477,1,2,0:0:0:0:
378,211,7852,1,2,0:0:0:0:
411,135,8227,1,2,0:0:0:0:
504,335,8602,5,2,0:0:0:0:
502,341,8695,1,0,0:0:0:0:
501,348,8789,1,0,0:0:0:0:
500,354,8883,1,2,0:0:0:0:
499,361,8977,1,4,0:1:0:0:
281,301,9727,5,2,0:0:0:0:
63,241,10477,5,2,0:0:0:0:
125,184,10852,1,2,0:0:0:0:
16,123,11227,1,2,0:0:0:0:
154,54,11602,1,2,0:0:0:0:
89,16,11789,1,2,0:0:0:0:
85,87,11977,1,4,0:1:0:0:
259,22,12352,5,2,0:0:0:0:
402,140,12727,5,2,0:0:0:0:
368,319,13102,5,2,0:0:0:0:
194,384,13477,5,2,0:0:0:0:
51,266,13852,5,2,0:0:0:0:
154,54,14227,5,2,0:0:0:0:
396,216,14508,1,2,0:0:0:0:
130,340,14789,1,2,0:0:0:0:
231,202,14977,5,4,0:0:0:0:
256,192,15070,12,0,16477,0:0:0:0:
231,202,17039,5,4,0:3:0:0:
229,192,17132,1,4,0:3:0:0:
228,182,17226,1,8,0:3:0:0:
226,172,17320,1,4,0:3:0:0:
225,162,17414,1,4,0:3:0:0:
224,152,17507,1,0,0:0:0:0:
222,142,17602,2,0,P|175:166|211:276,1,145.500005550385,6|0,0:0|0:0,0:0:0:0:
188,268,17883,1,2,0:0:0:0:
188,268,17977,6,0,L|319:288,1,97,4|0,3:2|0:0,0:0:0:0:
472,263,18352,1,8,0:0:0:0:
340,377,18539,1,2,0:0:0:0:
340,377,18633,1,2,0:0:0:0:
340,377,18727,1,0,3:0:0:0:
307,194,18914,1,2,0:0:0:0:
507,345,19102,2,0,P|448:350|404:319,1,97,8|2,3:2|0:0,0:0:0:0:
292,98,19477,6,0,L|312:229,1,97,2|0,3:0|0:0,0:0:0:0:
244,360,19852,1,8,0:0:0:0:
388,249,20039,1,2,0:0:0:0:
388,249,20133,1,2,0:0:0:0:
388,249,20227,1,0,3:0:0:0:
217,180,20414,1,2,0:0:0:0:
481,102,20602,2,0,L|461:233,1,97,8|2,3:2|0:3,0:0:0:0:
466,197,20883,1,0,0:0:0:0:
466,197,20977,6,0,P|431:163|385:154,1,97,2|0,3:0|0:0,0:0:0:0:
232,263,21352,1,8,0:0:0:0:
292,98,21539,1,2,0:0:0:0:
292,98,21633,1,2,0:0:0:0:
292,98,21727,1,0,3:0:0:0:
133,189,21914,1,2,0:0:0:0:
321,289,22102,2,0,L|301:158,1,97,8|2,3:2|0:0,0:0:0:0:
163,4,22477,6,0,P|116:13|82:46,1,97,2|0,3:0|0:0,0:0:0:0:
49,227,22852,1,8,0:0:0:0:
170,103,23039,1,2,0:0:0:0:
170,103,23133,1,2,0:0:0:0:
170,103,23227,1,0,3:0:0:0:
0,77,23414,1,2,0:0:0:0:
134,292,23602,5,8,0:0:0:0:
144,288,23695,1,2,0:0:0:0:
156,286,23789,1,10,0:3:0:0:
167,283,23883,1,8,0:3:0:0:
178,281,23977,6,0,L|198:150,1,97,4|0,3:2|0:0,0:0:0:0:
117,36,24352,1,8,0:0:0:0:
264,124,24539,1,2,0:0:0:0:
264,124,24633,1,2,0:0:0:0:
264,124,24727,1,0,3:0:0:0:
108,211,24914,1,2,0:0:0:0:
277,32,25102,2,0,P|321:49|349:88,1,97,8|2,3:2|0:0,0:0:0:0:
440,343,25477,6,0,L|420:212,1,97,2|0,3:0|0:0,0:0:0:0:
501,98,25852,1,8,0:0:0:0:
354,186,26039,1,2,0:0:0:0:
354,186,26133,1,2,0:0:0:0:
354,186,26227,1,0,3:0:0:0:
510,273,26414,1,2,0:0:0:0:
349,88,26602,2,0,P|302:97|268:130,1,97,8|2,3:2|0:0,0:0:0:0:
49,281,26977,6,0,L|251:313,1,194,4|8,3:2|0:0,0:0:0:0:
354,186,27539,1,2,0:0:0:0:
354,186,27633,1,0,0:0:0:0:
354,186,27727,5,2,1:3:0:0:
334,207,27820,1,0,0:0:0:0:
310,223,27914,1,2,0:0:0:0:
281,229,28008,1,10,0:3:0:0:
251,229,28102,1,0,1:0:0:0:
222,224,28195,1,0,1:0:0:0:
197,207,28289,1,2,1:3:0:0:
178,184,28383,1,0,1:0:0:0:
171,155,28477,5,10,1:0:0:0:
341,87,28758,1,10,1:0:0:0:
512,17,29039,1,6,1:0:0:0:
427,186,29320,5,12,0:3:0:0:
398,180,29414,1,4,0:3:0:0:
369,174,29508,1,8,0:3:0:0:
340,169,29602,1,8,1:0:0:0:
209,74,29789,1,8,0:0:0:0:
108,227,29977,6,0,P|151:274|132:377,1,145.500005550385,6|0,0:0|0:0,0:0:0:0:
19,242,30727,2,0,L|44:120,2,109.125004162789,2|0|0,0:0|0:0|0:0,0:0:0:0:
108,227,31477,6,0,P|173:238|228:181,1,145.500005550385,2|0,0:0|0:0,0:0:0:0:
103,35,32227,2,0,L|128:157,2,109.125004162789,2|2|2,0:0|0:0|0:0,0:0:0:0:
188,3,32977,6,0,B|270:-10|242:60|336:43,1,145.500005550385,2|0,0:0|0:0,0:0:0:0:
449,92,33539,2,0,B|367:79|395:149|301:132,1,145.500005550385,2|0,0:0|0:0,0:0:0:0:
254,257,34102,2,0,L|226:107,1,145.500005550385,2|2,0:0|0:0,0:0:0:0:
347,243,34664,5,2,0:0:0:0:
347,243,34852,2,0,P|345:285|328:316,1,72.7500027751924
133,384,35227,2,0,P|160:349|261:349,1,145.500005550385,2|0,0:0|0:0,0:0:0:0:
415,134,35977,6,0,P|345:142|293:94,1,145.500005550385,2|0,0:0|0:0,0:0:0:0:
492,70,36727,2,0,L|514:193,2,109.125004162789,2|0|0,0:0|0:0|0:0,0:0:0:0:
415,134,37477,6,0,P|367:171|373:271,1,145.500005550385,2|0,0:0|0:0,0:0:0:0:
512,288,38039,1,2,0:0:0:0:
512,288,38227,2,0,P|500:252|415:224,2,109.125004162789,2|2|2,0:0|0:0|0:0,0:0:0:0:
437,338,38977,6,0,L|297:377,1,145.500005550385,2|0,0:0|0:0,0:0:0:0:
93,225,39727,2,0,L|228:260,2,109.125004162789,2|2|2,0:0|0:0|0:0,0:0:0:0:
11,254,40477,6,0,P|-24:207|14:124,1,145.500005550385,2|0,0:0|0:0,0:0:0:0:
145,38,41039,1,2,0:0:0:0:
55,6,41227,2,0,L|87:155,1,145.500005550385,6|2,0:0|0:3,0:0:0:0:
89,157,41977,6,0,P|123:134|172:139,1,72.7500027751924,4|0,1:0|0:0,0:0:0:0:
228,80,42352,1,2,0:0:0:0:
228,80,42539,1,0,0:0:0:0:
322,194,42727,2,0,L|445:228,2,109.125004162789,0|0|0,1:0|0:0|0:0,0:0:0:0:
250,241,43477,6,0,L|232:149,1,72.7500027751924,2|0,0:0|0:0,0:0:0:0:
308,122,43852,2,0,L|326:214,1,72.7500027751924,2|0,0:0|0:0,0:0:0:0:
249,329,44227,2,0,P|213:325|184:304,1,72.7500027751924,0|0,1:0|0:0,0:0:0:0:
184,304,44508,1,2,0:0:0:0:
184,304,44602,1,0,0:0:0:0:
144,232,44789,1,2,0:0:0:0:
18,287,44977,6,0,L|-14:135,1,145.500005550385,2|2,0:0|0:0,0:0:0:0:
51,83,45539,1,2,0:0:0:0:
144,232,45727,1,0,1:0:0:0:
160,145,45914,2,0,P|110:148|54:229,1,145.500005550385,2|0,0:0|0:0,0:0:0:0:
203,370,46477,6,0,L|222:289,1,72.7500027751924,2|0,0:0|0:0,0:0:0:0:
144,232,46852,2,0,L|127:302,1,72.7500027751924,2|0,0:0|0:0,0:0:0:0:
291,196,47227,2,0,L|274:125,1,72.7500027751924,2|0,1:2|0:0,0:0:0:0:
207,71,47602,1,2,0:0:0:0:
207,71,47789,1,0,0:0:0:0:
354,1,47977,6,0,P|418:-3|467:83,1,145.500005550385,2|0,0:0|0:0,0:0:0:0:
512,130,48539,1,2,0:0:0:0:
350,174,48727,2,0,L|327:291,2,109.125004162789,0|0|0,1:0|0:0|0:0,0:0:0:0:
427,134,49477,6,0,L|449:222,1,72.7500027751924,2|0,0:0|0:0,0:0:0:0:
332,103,49852,2,0,L|350:174,1,72.7500027751924,2|0,0:0|0:0,0:0:0:0:
325,366,50227,2,0,P|276:349|255:319,1,72.7500027751924,0|0,1:0|0:0,0:0:0:0:
262,334,50508,1,2,0:0:0:0:
262,334,50602,1,0,0:0:0:0:
399,252,50789,1,2,0:0:0:0:
270,161,50977,5,2,3:2:0:0:
249,155,51070,1,0,0:0:0:0:
227,158,51164,1,0,0:0:0:0:
210,172,51258,1,0,0:0:0:0:
203,192,51352,1,2,3:2:0:0:
206,213,51445,1,0,0:0:0:0:
216,231,51539,1,0,0:0:0:0:
220,252,51633,1,0,0:0:0:0:
213,272,51727,1,2,3:2:0:0:
196,285,51820,1,0,0:0:0:0:
174,289,51914,1,0,0:0:0:0:
153,280,52008,1,2,3:2:0:0:
141,261,52102,1,0,0:0:0:0:
123,248,52195,1,0,0:0:0:0:
101,244,52289,1,2,3:2:0:0:
79,249,52383,1,0,0:0:0:0:
65,266,52477,5,2,1:2:0:0:
66,233,52570,1,0,0:0:0:0:
48,205,52664,1,0,0:0:0:0:
18,190,52758,1,0,0:0:0:0:
1,161,52852,1,0,0:0:0:0:
0,127,52945,1,0,0:0:0:0:
19,100,53039,1,0,0:0:0:0:
49,87,53133,1,0,0:0:0:0:
53,54,53227,5,0,1:0:0:0:
81,81,53320,1,0,0:0:0:0:
120,86,53414,1,0,0:0:0:0:
155,67,53508,1,0,0:0:0:0:
175,32,53602,2,0,L|162:138,1,97,6|8,1:2|0:3,0:0:0:0:
228,181,53883,5,4,0:3:0:0:
228,181,53977,2,0,P|254:147|326:139,1,97,6|0,0:0|0:0,0:0:0:0:
190,293,54352,2,0,P|156:231|88:209,1,145.5,8|0,0:0|0:0,0:0:0:0:
70,209,54727,1,2,0:0:0:0:
149,137,54914,1,0,0:0:0:0:
149,137,55008,1,2,0:0:0:0:
149,137,55102,1,8,0:0:0:0:
0,325,55289,5,2,0:0:0:0:
0,325,55383,1,0,0:0:0:0:
0,325,55477,2,0,L|105:301,1,97,2|0,0:0|0:0,0:0:0:0:
275,258,55852,1,10,0:0:0:0:
149,137,56039,2,0,P|141:89|179:34,1,97,2|0,0:0|0:0,0:0:0:0:
349,116,56414,1,2,0:0:0:0:
225,185,56602,1,10,0:0:0:0:
242,7,56789,5,4,0:3:0:0:
242,7,56883,1,4,0:3:0:0:
242,7,56977,2,0,L|266:112,1,97,2|0,0:0|0:0,0:0:0:0:
446,263,57352,2,0,P|480:229|488:183,1,97,8|0,0:0|0:0,0:0:0:0:
327,35,57727,1,2,0:0:0:0:
398,183,57914,1,0,0:0:0:0:
510,38,58102,2,0,L|405:14,1,97,10|2,0:0|0:0,0:0:0:0:
415,16,58383,1,0,0:0:0:0:
415,16,58477,5,2,0:0:0:0:
263,101,58664,1,0,0:0:0:0:
398,183,58852,2,0,P|401:140|357:81,1,97,10|0,0:0|0:0,0:0:0:0:
146,49,59227,5,4,0:3:0:0:
307,184,59414,1,2,0:3:0:0:
111,240,59602,1,8,0:0:0:0:
242,7,59789,5,6,0:3:0:0:
242,7,59883,1,4,0:3:0:0:
242,7,59977,2,0,L|218:112,1,97,6|0,0:0|0:0,0:0:0:0:
33,208,60352,2,0,L|11:113,1,97,8|0,0:0|0:0,0:0:0:0:
146,49,60727,1,2,0:0:0:0:
215,200,60914,1,0,0:0:0:0:
215,200,61008,1,2,0:0:0:0:
215,200,61102,1,8,0:0:0:0:
102,128,61289,1,2,0:0:0:0:
60,346,61477,6,0,P|120:368|213:285,1,194,2|8,0:0|0:0,0:0:0:0:
257,115,62039,1,2,0:0:0:0:
257,115,62133,1,0,0:0:0:0:
257,115,62227,1,2,0:0:0:0:
120,220,62414,1,2,0:3:0:0:
311,305,62602,2,0,P|341:278|400:270,1,97,8|2,0:0|1:3,0:0:0:0:
395,269,62883,1,0,0:0:0:0:
395,269,62977,1,4,1:2:0:0:
502,47,63164,5,8,0:3:0:0:
484,18,63258,1,8,0:3:0:0:
451,8,63352,1,2,0:0:0:0:
418,16,63445,1,8,0:3:0:0:
396,42,63539,1,8,0:3:0:0:
396,76,63633,1,8,0:3:0:0:
417,102,63727,1,2,3:2:0:0:
448,113,63820,1,4,3:0:0:0:
466,141,63914,1,4,3:3:0:0:
464,174,64008,1,4,3:0:0:0:
438,197,64102,1,2,3:2:0:0:
404,199,64195,1,0,3:0:0:0:
377,177,64289,1,0,3:0:0:0:
343,180,64383,1,0,3:0:0:0:
322,207,64477,6,0,P|281:213|218:160,1,97,14|0,0:1|0:0,0:0:0:0:
199,188,64758,2,0,L|224:49,1,97,14|0,0:1|0:0,0:0:0:0:
196,64,65039,1,10,0:1:0:0:
114,212,65227,6,0,L|89:351,1,97,14|0,0:1|0:0,0:0:0:0:
199,368,65602,1,4,0:3:0:0:
210,336,65695,1,8,0:3:0:0:
238,317,65789,1,4,0:3:0:0:
272,316,65883,1,4,0:3:0:0:
300,334,65977,5,14,0:1:0:0:
311,326,66070,2,0,L|291:244,1,48.5,8|0,0:0|0:0,0:0:0:0:
198,243,66258,5,14,0:1:0:0:
187,235,66351,2,0,L|207:153,1,48.5,8|0,0:0|0:0,0:0:0:0:
279,130,66539,6,0,L|259:48,1,48.5,10|0,0:1|0:0,0:0:0:0:
196,24,66727,5,2,1:0:0:0:
196,24,66820,1,8,0:3:0:0:
196,24,66914,1,4,0:3:0:0:
31,88,67102,5,4,0:3:0:0:
63,80,67195,1,4,0:3:0:0:
95,90,67289,1,4,0:3:0:0:
115,117,67383,1,0,0:0:0:0:
118,153,67477,6,0,L|14:183,1,97,6|0,3:2|0:0,0:0:0:0:
158,322,67852,2,0,P|189:265|176:211,1,97,8|0,0:0|0:0,0:0:0:0:
186,234,68133,1,0,0:0:0:0:
186,234,68227,1,2,3:2:0:0:
65,346,68414,1,0,0:3:0:0:
304,384,68602,2,0,L|277:290,1,97,8|0,0:0|0:0,0:0:0:0:
144,59,68977,6,0,L|117:152,1,97,2|0,3:2|0:0,0:0:0:0:
21,265,69352,1,10,0:0:0:0:
210,183,69539,1,0,0:0:0:0:
210,183,69633,1,4,0:3:0:0:
210,183,69727,1,2,3:2:0:0:
52,82,69914,1,4,0:3:0:0:
144,240,70102,1,8,1:0:0:0:
311,53,70289,5,2,0:0:0:0:
311,53,70383,1,0,0:0:0:0:
311,53,70477,2,0,P|263:51|223:24,1,97,2|0,3:2|0:0,0:0:0:0:
387,207,70852,2,0,P|434:205|474:178,1,97,8|0,0:0|0:0,0:0:0:0:
429,11,71227,2,0,L|402:104,1,97,2|0,3:2|0:0,0:0:0:0:
323,263,71602,1,8,0:0:0:0:
489,164,71789,5,2,0:0:0:0:
489,164,71883,1,2,0:0:0:0:
489,164,71977,1,6,3:2:0:0:
314,76,72164,1,2,0:0:0:0:
314,76,72258,1,6,0:0:0:0:
407,244,72445,1,0,0:0:0:0:
407,244,72539,1,4,1:2:0:0:
430,40,72727,5,2,3:0:0:0:
296,190,72914,1,4,3:0:0:0:
264,176,73008,1,4,0:3:0:0:
230,178,73102,1,2,1:3:0:0:
201,196,73195,1,6,0:3:0:0:
186,226,73289,1,4,0:3:0:0:
186,260,73383,1,0,0:0:0:0:
201,290,73477,6,0,L|317:321,1,97,6|0,3:2|0:0,0:0:0:0:
469,210,73852,2,0,L|353:241,1,97,8|0,0:0|0:0,0:0:0:0:
136,152,74227,2,0,L|229:177,1,97,2|0,3:2|0:0,0:0:0:0:
326,137,74602,1,8,0:0:0:0:
105,238,74789,5,2,0:0:0:0:
105,238,74883,1,0,0:0:0:0:
105,238,74977,2,0,P|54:206|90:72,1,194,2|10,3:2|0:0,0:0:0:0:
116,7,75539,1,0,0:0:0:0:
229,177,75727,2,0,L|254:83,1,97,2|0,3:2|0:0,0:0:0:0:
136,152,76102,1,10,1:2:0:0:
284,274,76289,5,2,0:0:0:0:
284,274,76383,1,4,0:3:0:0:
284,274,76477,1,4,3:2:0:0:
190,325,76664,1,2,0:0:0:0:
331,179,76852,2,0,P|378:181|418:208,1,97,10|0,1:2|0:0,0:0:0:0:
456,22,77227,6,0,L|481:115,1,97,6|0,3:2|0:0,0:0:0:0:
356,272,77602,2,0,L|330:178,1,97,10|0,1:2|0:0,0:0:0:0:
198,58,77977,5,6,1:2:0:0:
178,30,78070,1,0,0:0:0:0:
144,23,78164,1,0,0:0:0:0:
111,32,78258,1,2,1:2:0:0:
94,61,78352,1,8,0:0:0:0:
93,94,78445,1,0,0:0:0:0:
111,122,78539,1,2,1:2:0:0:
143,133,78633,1,0,0:0:0:0:
176,128,78727,5,4,1:0:0:0:
215,110,78820,1,0,1:0:0:0:
258,114,78914,1,4,0:3:0:0:
291,142,79008,1,4,0:3:0:0:
301,184,79102,1,12,0:3:0:0:
289,225,79195,1,8,0:3:0:0:
255,253,79289,1,8,0:3:0:0:
211,256,79383,1,8,0:3:0:0:
170,238,79477,5,2,0:1:0:0:
43,150,79664,5,2,0:0:0:0:
43,150,79758,1,2,0:0:0:0:
95,303,79945,5,2,0:0:0:0:
95,303,80039,1,0,0:0:0:0:
142,148,80227,5,2,0:1:0:0:
18,245,80414,5,2,0:0:0:0:
18,245,80508,1,2,0:0:0:0:
170,238,80695,5,2,0:0:0:0:
170,238,80789,1,2,0:0:0:0:
71,57,80977,6,0,L|44:150,1,97,6|0,3:2|0:0,0:0:0:0:
255,253,81352,2,0,P|252:203|221:167,1,97,10|0,0:0|0:0,0:0:0:0:
182,7,81727,2,0,L|155:100,1,97,2|0,3:2|0:0,0:0:0:0:
191,341,82102,1,10,1:2:0:0:
330,192,82289,5,2,0:0:0:0:
330,192,82383,1,0,0:0:0:0:
330,192,82477,1,2,3:2:0:0:
120,275,82664,1,2,0:0:0:0:
120,275,82758,1,2,0:0:0:0:
120,275,82852,1,8,0:0:0:0:
281,362,83039,1,2,0:0:0:0:
154,190,83227,2,0,P|202:186|240:156,1,97,2|0,3:2|0:0,0:0:0:0:
366,10,83602,6,0,L|382:110,1,97,10|0,0:2|0:0,0:0:0:0:
381,105,83883,1,4,0:3:0:0:
381,105,83977,1,6,3:2:0:0:
260,241,84164,1,2,0:0:0:0:
239,65,84352,1,12,0:0:0:0:
184,195,84539,1,4,1:2:0:0:
91,108,84727,1,2,3:0:0:0:
37,324,84914,5,4,0:3:0:0:
69,333,85008,1,4,0:3:0:0:
102,325,85102,1,0,1:0:0:0:
124,300,85195,1,4,0:3:0:0:
132,267,85289,1,4,0:3:0:0:
121,234,85383,1,0,0:0:0:0:
94,212,85477,6,0,L|-7:228,1,97,6|0,3:2|0:0,0:0:0:0:
185,365,85852,2,0,L|286:381,1,97,8|0,0:0|0:0,0:0:0:0:
433,176,86227,2,0,P|384:178|348:211,1,97,2|0,3:2|0:0,0:0:0:0:
471,313,86602,1,8,0:0:0:0:
280,380,86789,5,2,0:0:0:0:
280,380,86883,1,0,0:0:0:0:
280,380,86977,2,0,L|296:279,1,97,2|0,3:2|0:0,0:0:0:0:
420,99,87352,2,0,P|469:101|505:134,1,97,10|0,0:0|0:0,0:0:0:0:
503,131,87633,1,0,0:0:0:0:
503,131,87727,1,2,3:2:0:0:
349,208,87914,1,0,0:0:0:0:
362,32,88102,1,10,1:2:0:0:
475,215,88289,5,2,0:0:0:0:
475,215,88383,1,4,0:3:0:0:
475,215,88477,2,0,P|434:291|388:301,1,97,6|0,3:2|0:0,0:0:0:0:
232,119,88852,2,0,P|273:43|319:33,1,97,10|0,1:2|0:0,0:0:0:0:
345,353,89227,6,0,L|249:337,1,97,6|0,3:2|0:0,0:0:0:0:
352,105,89602,2,0,L|447:120,1,97,10|0,1:2|0:0,0:0:0:0:
249,337,89977,5,6,1:2:0:0:
278,311,90070,1,0,0:0:0:0:
284,273,90164,1,0,0:0:0:0:
267,237,90258,1,0,0:0:0:0:
231,220,90352,1,10,1:2:0:0:
193,226,90445,1,0,0:0:0:0:
167,255,90539,1,0,0:0:0:0:
165,292,90633,1,0,0:0:0:0:
139,320,90727,5,12,1:0:0:0:
184,305,90820,1,4,0:3:0:0:
232,300,90914,1,4,0:3:0:0:
280,299,91008,1,8,1:0:0:0:
328,303,91102,1,4,0:3:0:0:
375,313,91195,1,0,0:3:0:0:
420,329,91289,1,8,1:0:0:0:
461,354,91383,1,0,1:0:0:0:
506,335,91477,5,6,1:2:0:0:
256,192,91570,12,0,92977,0:0:0:0:
506,335,93539,5,4,0:3:0:0:
504,325,93632,1,4,0:3:0:0:
503,315,93726,1,8,0:3:0:0:
501,305,93820,1,4,0:3:0:0:
500,295,93914,1,4,0:3:0:0:
499,285,94007,1,0,0:0:0:0:
497,275,94102,2,0,P|465:305|426:310,1,72.7500027751924,6|0,0:0|0:0,0:0:0:0:
335,197,94289,5,2,0:3:0:0:
335,197,94383,1,2,0:0:0:0:
335,197,94477,2,0,P|380:194|442:256,1,97,4|0,3:2|0:0,0:0:0:0:
333,382,94852,1,8,0:0:0:0:
253,237,95039,1,2,0:0:0:0:
253,237,95133,1,2,0:0:0:0:
253,237,95227,1,0,3:0:0:0:
417,311,95414,1,2,0:0:0:0:
180,294,95602,2,0,P|154:256|178:179,1,97,8|2,3:2|0:0,0:0:0:0:
352,24,95977,6,0,L|336:119,1,97,2|0,3:0|0:0,0:0:0:0:
311,290,96352,1,8,0:0:0:0:
228,140,96539,1,2,0:0:0:0:
115,262,96727,6,0,L|210:246,1,97,2|2,3:0|0:0,0:0:0:0:
396,213,97102,1,8,3:2:0:0:
227,51,97289,5,2,0:3:0:0:
227,51,97383,1,0,0:0:0:0:
227,51,97477,2,0,P|180:60|145:93,1,97,2|0,3:0|0:0,0:0:0:0:
115,262,97852,1,8,0:0:0:0:
40,120,98039,1,2,0:0:0:0:
40,120,98133,1,2,0:0:0:0:
40,120,98227,1,0,3:0:0:0:
190,179,98414,1,2,0:0:0:0:
27,319,98602,2,0,L|7:188,1,97,8|2,3:2|0:0,0:0:0:0:
219,283,98977,6,0,L|204:378,1,97,2|0,3:0|0:0,0:0:0:0:
115,262,99352,1,8,0:0:0:0:
291,196,99539,1,2,0:0:0:0:
291,196,99633,1,2,0:0:0:0:
291,196,99727,1,0,3:0:0:0:
145,93,99914,1,2,0:0:0:0:
219,283,100102,5,8,0:0:0:0:
229,279,100195,1,0,0:0:0:0:
241,277,100289,1,10,0:3:0:0:
252,274,100383,1,10,0:3:0:0:
263,272,100477,6,0,P|287:231|249:151,1,97,4|0,3:2|0:0,0:0:0:0:
202,41,100852,1,8,0:0:0:0:
193,203,101039,1,2,0:0:0:0:
193,203,101133,1,2,0:0:0:0:
193,203,101227,1,0,3:0:0:0:
331,119,101414,1,2,0:0:0:0:
105,13,101602,2,0,L|119:108,1,97,8|2,3:2|0:0,0:0:0:0:
266,279,101977,6,0,L|280:183,1,97,2|0,3:0|0:0,0:0:0:0:
388,59,102352,1,8,0:0:0:0:
374,219,102539,1,2,0:0:0:0:
202,41,102727,6,0,P|248:50|283:83,1,97,2|2,3:0|0:0,0:0:0:0:
441,145,103102,1,8,3:2:0:0:
304,282,103289,5,2,0:0:0:0:
304,282,103383,1,0,0:0:0:0:
304,282,103477,2,0,L|112:251,1,194,4|8,3:2|0:0,0:0:0:0:
2,89,104039,1,2,0:0:0:0:
2,89,104133,1,0,0:0:0:0:
2,89,104227,5,2,1:3:0:0:
27,74,104320,1,0,0:0:0:0:
56,77,104414,1,2,0:0:0:0:
78,95,104508,1,10,0:3:0:0:
85,124,104602,1,0,1:0:0:0:
92,151,104696,1,0,1:0:0:0:
114,169,104790,1,2,1:3:0:0:
142,172,104884,1,0,1:0:0:0:
168,158,104977,5,10,1:0:0:0:
342,126,105258,1,10,1:0:0:0:
512,89,105539,1,6,1:0:0:0:
278,32,105820,5,12,0:3:0:0:
273,61,105914,1,4,0:3:0:0:
267,90,106008,1,8,0:3:0:0:
261,119,106102,1,8,1:0:0:0:
368,246,106289,1,8,0:0:0:0:
212,352,106477,6,0,P|160:296|184:206,1,174.599994671631,4|0,0:1|1:0,0:0:0:0:
259,266,107039,1,0,0:0:0:0:
365,93,107227,1,2,0:0:0:0:
398,190,107414,2,0,L|290:177,1,87.2999973358155,2|0,0:0|1:0,0:0:0:0:
114,145,107789,5,2,0:0:0:0:
114,145,107883,1,0,0:0:0:0:
114,145,107977,2,0,P|92:107|106:50,1,87.2999973358155,2|0,0:0|0:0,0:0:0:0:
266,0,108352,2,0,P|288:38|274:95,1,87.2999973358155,0|0,1:0|0:0,0:0:0:0:
283,79,108633,1,0,0:0:0:0:
283,79,108727,1,2,0:0:0:0:
177,13,108914,1,0,0:0:0:0:
177,13,109008,1,2,0:0:0:0:
177,13,109102,1,0,1:0:0:0:
258,198,109289,1,2,0:0:0:0:
454,114,109477,6,0,L|271:77,1,174.599994671631,2|0,0:0|1:0,0:0:0:0:
172,216,110039,2,0,L|273:194,1,87.2999973358155,2|0,0:0|0:0,0:0:0:0:
120,142,110414,1,2,0:0:0:0:
29,322,110602,2,0,P|69:343|114:340,1,87.2999973358155,0|0,1:0|0:0,0:0:0:0:
282,274,110977,5,2,0:0:0:0:
257,360,111164,1,2,0:0:0:0:
368,300,111352,1,0,1:0:0:0:
342,384,111539,1,2,0:0:0:0:
172,216,111727,6,0,L|187:301,1,87.2999973358155,4|2,0:3|0:3,0:0:0:0:
364,123,112102,2,0,L|348:208,1,87.2999973358155,2|2,1:2|0:3,0:0:0:0:
171,83,112477,6,0,P|207:35|327:50,1,174.599994671631,2|0,0:0|1:0,0:0:0:0:
462,94,113039,1,0,0:0:0:0:
347,208,113227,1,2,0:0:0:0:
426,263,113414,2,0,L|442:178,1,87.2999973358155,2|0,0:0|1:0,0:0:0:0:
392,8,113789,5,2,0:0:0:0:
392,8,113883,1,0,0:0:0:0:
392,8,113977,2,0,P|348:11|309:48,1,87.2999973358155,2|0,0:0|0:0,0:0:0:0:
181,144,114352,2,0,P|224:147|263:184,1,87.2999973358155,0|0,1:0|0:0,0:0:0:0:
426,263,114727,1,2,0:0:0:0:
339,329,114914,1,0,0:0:0:0:
339,329,115008,1,2,0:0:0:0:
339,329,115102,1,0,1:0:0:0:
425,166,115289,1,2,0:0:0:0:
512,282,115477,6,0,L|411:260,1,87.2999973358155,2|0,0:0|0:0,0:0:0:0:
257,173,115852,2,0,P|290:146|333:143,1,87.2999973358155,0|0,1:0|0:0,0:0:0:0:
437,362,116227,2,0,L|336:340,1,87.2999973358155,2|0,0:0|0:0,0:0:0:0:
165,188,116602,1,0,1:0:0:0:
200,360,116789,1,0,0:0:0:0:
330,240,116977,5,2,0:2:0:0:
308,240,117070,1,0,0:0:0:0:
286,241,117164,1,0,0:0:0:0:
264,243,117258,1,0,2:0:0:0:
242,246,117352,1,2,1:2:0:0:
220,251,117445,1,0,0:0:0:0:
199,257,117539,1,0,0:0:0:0:
178,265,117633,1,0,2:0:0:0:
157,277,117727,5,2,0:2:0:0:
171,250,117820,1,2,0:2:0:0:
172,218,117914,1,0,0:0:0:0:
158,190,118008,1,4,2:3:0:0:
132,173,118102,1,2,1:2:0:0:
101,169,118195,1,8,1:3:0:0:
72,181,118289,1,4,2:3:0:0:
53,203,118383,1,4,2:3:0:0:
22,206,118477,6,0,P|89:265|71:357,1,174.599994671631,4|8,0:0|0:0,0:0:0:0:
0,295,119039,1,0,0:0:0:0:
173,376,119227,2,0,L|268:352,1,87.2999973358155,2|0,0:0|0:0,0:0:0:0:
257,354,119508,1,2,0:0:0:0:
257,354,119602,1,8,0:0:0:0:
397,204,119789,1,2,0:0:0:0:
457,279,119977,6,0,P|391:306|310:232,1,174.599994671631,2|8,0:0|0:0,0:0:0:0:
291,67,120539,1,0,0:0:0:0:
383,106,120727,1,2,0:0:0:0:
236,210,120914,1,0,0:0:0:0:
236,210,121008,1,2,0:0:0:0:
236,210,121102,1,8,0:0:0:0:
397,204,121289,5,2,0:0:0:0:
397,204,121383,1,0,0:0:0:0:
397,204,121477,2,0,P|423:138|341:47,1,174.599994671631,2|10,0:0|0:0,0:0:0:0:
198,117,122039,2,0,L|219:9,1,87.2999973358155,2|0,0:0|0:0,0:0:0:0:
275,178,122414,1,2,0:0:0:0:
140,244,122602,2,0,P|117:202|129:137,1,87.2999973358155,10|0,0:0|0:0,0:0:0:0:
214,31,122977,6,0,L|322:52,1,87.2999973358155,2|0,0:0|0:0,0:0:0:0:
299,47,123258,1,2,0:0:0:0:
299,47,123352,1,8,0:0:0:0:
392,149,123539,1,2,0:3:0:0:
275,178,123727,1,2,0:0:0:0:
275,178,123820,1,2,0:0:0:0:
275,178,123914,1,2,0:3:0:0:
412,44,124102,2,0,P|466:64|488:100,1,87.2999973358155,10|2,0:0|0:3,0:0:0:0:
440,247,124477,6,0,L|237:300,1,174.599994671631,2|8,0:0|0:0,0:0:0:0:
188,227,125039,1,0,0:0:0:0:
3,359,125227,2,0,L|111:380,1,87.2999973358155,2|0,0:0|0:0,0:0:0:0:
88,375,125508,1,2,0:0:0:0:
88,375,125602,1,8,0:0:0:0:
172,322,125789,1,2,0:0:0:0:
37,208,125977,5,2,0:0:0:0:
207,141,126164,1,0,0:0:0:0:
207,141,126258,1,2,0:0:0:0:
207,141,126352,1,8,0:0:0:0:
135,62,126539,1,0,0:0:0:0:
111,257,126727,2,0,P|144:234|208:240,1,87.2999973358155,2|2,0:0|0:0,0:0:0:0:
306,53,127102,2,0,P|262:52|227:28,1,87.2999973358155,10|0,0:0|0:0,0:0:0:0:
227,28,127383,1,2,0:0:0:0:
227,28,127477,6,0,L|247:129,1,87.2999973358155,6|0,1:2|0:0,0:0:0:0:
495,246,127852,2,0,L|512:160,1,87.2999973358155,10|0,1:2|0:0,0:0:0:0:
328,10,128227,5,6,1:2:0:0:
317,18,128320,2,0,L|333:94,1,43.6499986679078
430,101,128508,5,2,1:2:0:0:
441,109,128602,2,0,L|425:185,1,43.6499986679078,0|8,0:3|0:3,0:0:0:0:
349,214,128789,6,0,L|365:290,1,43.6499986679078,2|4,1:2|0:3,0:0:0:0:
410,346,128977,5,2,1:2:0:0:
442,341,129070,1,0,0:0:0:0:
471,318,129164,1,0,0:0:0:0:
477,283,129258,1,0,0:0:0:0:
463,250,129352,1,0,0:0:0:0:
431,233,129445,1,0,0:0:0:0:
397,236,129539,1,0,0:0:0:0:
372,259,129633,1,0,0:0:0:0:
360,291,129727,5,0,1:0:0:0:
357,256,129820,1,0,0:0:0:0:
338,226,129914,1,0,0:0:0:0:
304,217,130008,1,0,0:0:0:0:
269,222,130102,1,2,1:2:0:0:
236,210,130195,1,8,2:3:0:0:
218,179,130289,1,4,2:3:0:0:
220,144,130383,1,4,2:3:0:0:
242,116,130477,5,4,0:2:0:0:
242,116,135727,5,2,3:2:0:0:
333,163,135914,1,4,3:0:0:0:
166,264,136102,2,0,L|181:166,1,72.7500027751924,4|0,1:2|0:0,0:0:0:0:
390,309,136477,6,0,L|177:359,1,194,6|8,0:0|0:0,0:0:0:0:
42,194,137039,5,0,0:0:0:0:
109,338,137227,1,2,0:0:0:0:
242,116,137414,1,0,0:0:0:0:
242,116,137508,1,2,0:0:0:0:
242,116,137602,1,8,0:0:0:0:
127,238,137789,1,2,0:0:0:0:
0,39,137977,6,0,P|57:18|150:115,1,194,2|8,0:0|0:0,0:0:0:0:
203,290,138539,1,2,0:0:0:0:
203,290,138633,1,0,0:0:0:0:
203,290,138727,1,2,0:0:0:0:
84,171,138914,1,2,0:3:0:0:
284,123,139102,2,0,L|260:248,1,97,8|2,0:0|1:3,0:0:0:0:
265,218,139383,1,0,0:0:0:0:
265,218,139477,1,4,1:2:0:0:
10,337,139664,5,8,0:3:0:0:
28,366,139758,1,8,0:3:0:0:
61,376,139852,1,2,0:0:0:0:
94,368,139945,1,8,0:3:0:0:
116,342,140039,1,8,0:3:0:0:
116,308,140133,1,8,0:3:0:0:
95,282,140227,1,2,3:2:0:0:
64,271,140320,1,4,3:0:0:0:
46,243,140414,1,4,3:3:0:0:
48,210,140508,1,4,3:0:0:0:
74,187,140602,1,2,3:2:0:0:
108,185,140695,1,0,3:0:0:0:
135,207,140789,1,0,3:0:0:0:
169,204,140883,1,0,3:0:0:0:
190,177,140977,6,0,P|240:179|287:131,1,97,14|0,0:1|0:0,0:0:0:0:
297,125,141258,2,0,L|314:220,1,97,14|0,0:1|0:0,0:0:0:0:
299,250,141539,1,10,0:1:0:0:
500,141,141727,6,0,L|482:45,1,97,14|0,0:1|0:0,0:0:0:0:
398,131,142102,5,4,0:3:0:0:
404,163,142195,1,8,0:3:0:0:
411,196,142289,1,4,0:3:0:0:
418,229,142383,1,4,0:3:0:0:
426,261,142477,5,14,0:1:0:0:
429,277,142570,2,0,L|376:266,1,48.5,8|0,0:0|0:0,0:0:0:0:
273,168,142758,5,14,0:1:0:0:
276,152,142851,2,0,L|223:163,1,48.5,8|0,0:0|0:0,0:0:0:0:
132,212,143039,6,0,L|79:201,1,48.5,10|0,0:1|0:0,0:0:0:0:
6,68,143227,5,2,1:0:0:0:
5,62,143320,1,8,0:3:0:0:
4,56,143414,1,4,0:3:0:0:
3,51,143508,1,4,0:3:0:0:
2,45,143602,1,0,1:0:0:0:
24,19,143695,1,4,0:3:0:0:
57,11,143789,1,0,1:0:0:0:
87,26,143883,1,0,1:0:0:0:
100,57,143977,6,0,P|58:99|65:163,1,97,6|0,3:2|0:0,0:0:0:0:
255,255,144352,2,0,L|228:161,1,97,8|0,0:0|0:0,0:0:0:0:
228,161,144633,1,0,0:0:0:0:
228,161,144727,1,2,3:2:0:0:
173,311,144914,1,0,0:3:0:0:
358,369,145102,2,0,L|385:275,1,97,8|0,0:0|0:0,0:0:0:0:
247,78,145477,6,0,P|199:80|160:107,1,97,2|0,3:2|0:0,0:0:0:0:
114,253,145852,1,10,0:0:0:0:
69,70,146039,1,0,0:0:0:0:
69,70,146133,1,4,0:3:0:0:
69,70,146227,1,2,3:2:0:0:
228,161,146414,1,4,0:3:0:0:
25,245,146602,1,8,1:0:0:0:
140,346,146789,5,2,0:0:0:0:
140,346,146883,1,0,0:0:0:0:
140,346,146977,2,0,L|113:252,1,97,2|0,3:2|0:0,0:0:0:0:
211,79,147352,2,0,P|258:81|298:108,1,97,8|0,0:0|0:0,0:0:0:0:
247,384,147727,2,0,L|220:290,1,97,2|0,3:2|0:0,0:0:0:0:
72,172,148102,1,8,0:0:0:0:
46,370,148289,5,2,0:0:0:0:
46,370,148383,1,2,0:0:0:0:
46,370,148477,1,6,3:2:0:0:
187,212,148664,5,2,0:0:0:0:
218,198,148758,1,6,0:0:0:0:
251,206,148852,1,8,0:0:0:0:
277,226,148945,1,0,0:0:0:0:
299,251,149039,1,4,1:2:0:0:
330,263,149133,1,0,0:0:0:0:
362,253,149227,1,2,3:0:0:0:
415,96,149414,5,4,3:0:0:0:
406,95,149508,1,4,0:3:0:0:
397,95,149602,1,0,1:0:0:0:
388,96,149695,1,4,0:3:0:0:
379,100,149789,1,4,0:3:0:0:
371,106,149883,1,0,0:0:0:0:
365,114,149977,6,0,L|390:20,1,97,6|0,3:2|0:0,0:0:0:0:
437,181,150352,2,0,P|464:220|466:268,1,97,8|0,0:0|0:0,0:0:0:0:
247,384,150727,2,0,L|221:290,1,97,2|0,3:2|0:0,0:0:0:0:
284,140,151102,1,8,0:0:0:0:
512,361,151289,5,2,0:0:0:0:
512,361,151383,1,0,0:0:0:0:
512,361,151477,2,0,P|468:306|336:307,1,194,2|10,3:2|0:0,0:0:0:0:
206,192,152039,1,0,0:0:0:0:
385,101,152227,2,0,L|360:195,1,97,2|0,3:2|0:0,0:0:0:0:
307,50,152602,1,10,1:2:0:0:
481,24,152789,5,2,0:0:0:0:
481,24,152883,1,4,0:3:0:0:
481,24,152977,2,0,P|509:63|499:138,1,97,4|2,3:2|0:0,0:0:0:0:
303,258,153352,2,0,P|275:219|285:144,1,97,10|0,1:2|0:0,0:0:0:0:
476,196,153727,6,0,L|451:289,1,97,6|0,3:2|0:0,0:0:0:0:
200,109,154102,2,0,L|226:15,1,97,10|0,1:2|0:0,0:0:0:0:
392,66,154477,5,6,1:2:0:0:
425,62,154570,1,0,0:0:0:0:
454,78,154664,1,0,0:0:0:0:
465,109,154758,1,2,1:2:0:0:
456,142,154852,1,8,0:0:0:0:
427,159,154945,1,0,0:0:0:0:
392,157,155039,1,2,1:2:0:0:
362,173,155133,1,0,0:0:0:0:
348,204,155227,5,4,1:0:0:0:
320,169,155320,1,0,1:0:0:0:
291,134,155414,1,4,0:3:0:0:
257,104,155508,1,4,0:3:0:0:
220,78,155602,1,12,0:3:0:0:
181,56,155695,1,8,0:3:0:0:
139,38,155789,1,8,0:3:0:0:
96,25,155883,1,8,0:3:0:0:
51,18,155977,1,2,0:1:0:0:
4,306,156164,5,2,3:2:0:0:
0,296,156258,1,0,3:2:0:0:
0,286,156352,1,0,3:2:0:0:
5,277,156445,1,2,3:2:0:0:
13,272,156539,1,0,3:2:0:0:
21,270,156633,1,0,3:2:0:0:
22,235,156727,5,2,3:1:0:0:
40,263,156821,1,0,3:2:0:0:
69,280,156915,1,2,3:2:0:0:
101,289,157009,1,2,3:2:0:0:
134,288,157102,1,0,3:2:0:0:
166,278,157196,1,2,3:2:0:0:
195,260,157290,1,2,3:2:0:0:
208,228,157384,1,0,3:2:0:0:
214,194,157477,6,0,L|189:101,1,97,6|0,3:2|0:0,0:0:0:0:
384,4,157852,2,0,L|409:97,1,97,10|0,0:0|0:0,0:0:0:0:
409,97,158133,1,0,0:0:0:0:
409,97,158227,1,2,3:2:0:0:
272,61,158414,1,0,0:0:0:0:
340,219,158602,1,10,1:2:0:0:
512,131,158789,5,2,0:0:0:0:
512,131,158883,1,0,0:0:0:0:
512,131,158977,2,0,P|477:106|423:111,1,97,2|2,3:2|0:0,0:0:0:0:
263,182,159352,1,8,0:0:0:0:
381,299,159539,1,2,0:0:0:0:
191,364,159727,2,0,L|206:268,1,97,2|0,3:2|0:0,0:0:0:0:
323,49,160102,6,0,L|339:149,1,97,10|0,0:2|0:0,0:0:0:0:
338,144,160383,1,4,0:3:0:0:
338,144,160477,1,6,3:2:0:0:
295,295,160664,1,2,0:0:0:0:
189,182,160852,1,12,0:0:0:0:
365,232,161039,1,4,1:2:0:0:
205,268,161227,1,2,3:0:0:0:
256,119,161414,5,4,0:3:0:0:
258,85,161508,1,4,0:3:0:0:
246,54,161602,1,0,1:0:0:0:
217,36,161695,1,4,0:3:0:0:
183,34,161789,1,4,0:3:0:0:
153,51,161883,1,0,0:0:0:0:
135,81,161977,6,0,P|101:53|27:64,1,97,6|0,3:2|0:0,0:0:0:0:
118,224,162352,2,0,P|155:194|203:194,1,97,8|0,0:0|0:0,0:0:0:0:
11,360,162727,2,0,L|27:264,1,97,2|0,3:2|0:0,0:0:0:0:
70,142,163102,1,8,0:0:0:0:
265,271,163289,5,2,0:0:0:0:
265,271,163383,1,0,0:0:0:0:
265,271,163477,2,0,P|296:234|297:187,1,97,2|0,3:2|0:0,0:0:0:0:
188,20,163852,2,0,P|156:56|155:103,1,97,10|0,0:0|0:0,0:0:0:0:
154,102,164133,1,0,0:0:0:0:
154,102,164227,1,2,3:2:0:0:
297,187,164414,1,0,0:0:0:0:
179,303,164602,1,10,1:2:0:0:
357,382,164789,5,2,0:0:0:0:
357,382,164883,1,4,0:3:0:0:
357,382,164977,2,0,L|378:278,1,97,6|0,3:2|0:0,0:0:0:0:
178,132,165352,2,0,L|158:227,1,97,10|0,1:2|0:0,0:0:0:0:
260,370,165727,5,6,3:2:0:0:
260,370,165820,1,0,0:0:0:0:
260,370,165914,1,0,0:0:0:0:
390,158,166102,2,0,P|342:155|303:183,1,97,10|0,1:2|0:0,0:0:0:0:
102,264,166477,5,6,1:2:0:0:
66,273,166570,1,0,0:0:0:0:
30,256,166664,1,0,0:0:0:0:
11,221,166758,1,0,0:0:0:0:
18,182,166852,1,10,1:2:0:0:
45,155,166945,1,0,0:0:0:0:
83,149,167039,1,0,0:0:0:0:
115,170,167133,1,0,0:0:0:0:
134,203,167227,5,12,1:0:0:0:
174,228,167320,1,4,0:3:0:0:
222,231,167414,1,4,0:3:0:0:
266,212,167508,1,8,1:0:0:0:
288,168,167602,1,4,0:3:0:0:
290,119,167695,1,0,0:3:0:0:
266,76,167789,1,8,1:0:0:0:
221,55,167883,1,0,1:0:0:0:
173,65,167977,6,0,L|153:160,1,97,6|0,0:3|0:0,0:0:0:0:
288,359,168352,2,0,L|308:264,1,97,12|0,0:0|0:0,0:0:0:0:
307,264,168633,1,0,0:0:0:0:
307,264,168727,1,2,0:1:0:0:
465,159,168914,2,2,P|498:194|499:242,1,97,2|8,0:1|0:0,0:1:0:0:
201,375,169289,5,2,0:1:0:0:
201,375,169383,1,0,0:0:0:0:
201,375,169477,2,2,L|231:199,1,145.5,2|2,3:1|0:1,0:1:0:0:
225,231,169852,2,0,P|190:198|142:197,1,97,8|2,0:0|0:1,0:0:0:0:
28,371,170227,2,2,P|75:369|110:337,1,97,2|0,3:1|0:0,0:1:0:0:
110,336,170508,1,2,0:1:0:0:
110,336,170602,1,8,0:0:0:0:
32,245,170789,1,2,0:1:0:0:
171,66,170977,6,2,L|191:161,1,97,6|2,3:1|0:1,0:1:0:0:
7,106,171352,2,0,P|8:58|40:23,1,97,8|0,0:0|0:0,0:0:0:0:
119,214,171727,1,2,3:1:0:0:
264,71,171914,2,2,L|284:166,1,97,2|8,0:1|0:0,0:1:0:0:
451,305,172289,5,2,0:1:0:0:
451,305,172383,1,2,0:1:0:0:
451,305,172477,1,6,3:1:0:0:
494,168,172664,1,2,0:1:0:0:
361,120,172852,1,10,0:1:0:0:
309,252,173039,1,10,0:1:0:0:
512,249,173227,5,2,3:0:0:0:
448,81,173414,5,4,0:3:0:0:
447,72,173508,1,4,0:3:0:0:
447,63,173602,1,0,1:0:0:0:
448,54,173695,1,4,0:3:0:0:
452,45,173789,1,4,0:3:0:0:
458,37,173883,1,4,0:3:0:0:
466,31,173977,6,0,L|368:13,1,97,4|2,3:1|0:1,0:0:0:0:
212,91,174352,1,10,0:1:0:0:
300,186,174539,1,2,0:1:0:0:
216,304,174727,2,2,P|183:269|182:221,1,97,2|0,3:1|0:0,0:1:0:0:
329,94,175102,1,10,0:1:0:0:
406,327,175289,5,2,0:1:0:0:
406,327,175383,1,0,0:0:0:0:
406,327,175477,2,2,L|308:309,1,97,2|0,3:1|0:0,0:1:0:0:
94,221,175852,1,10,0:1:0:0:
146,384,176039,2,2,P|178:349|179:301,1,97,2|0,0:1|3:0,0:1:0:0:
122,135,176414,1,2,0:1:0:0:
122,135,176508,1,2,0:1:0:0:
122,135,176602,1,8,0:0:0:0:
16,273,176789,1,2,0:1:0:0:
16,273,176883,1,2,0:1:0:0:
16,273,176977,1,4,3:1:0:0:
253,243,177164,6,2,P|218:211|171:210,1,97,2|10,0:1|0:1,0:1:0:0:
77,330,177539,1,2,0:1:0:0:
349,374,177727,2,2,L|331:276,1,97,2|2,3:1|0:1,0:1:0:0:
153,114,178102,2,0,L|170:209,1,97,10|2,0:1|0:1,0:0:0:0:
437,249,178477,5,6,1:0:0:0:
455,252,178570,1,0,0:0:0:0:
473,245,178664,1,0,0:0:0:0:
487,232,178758,1,2,1:0:0:0:
494,214,178852,1,8,0:0:0:0:
493,194,178945,1,0,0:0:0:0:
482,177,179039,1,2,1:0:0:0:
465,166,179133,1,0,0:0:0:0:
478,134,179227,5,4,1:0:0:0:
453,157,179320,1,4,1:3:0:0:
420,167,179414,1,2,1:0:0:0:
387,173,179508,1,4,1:3:0:0:
352,174,179602,1,12,1:3:0:0:
318,166,179695,1,8,1:3:0:0:
286,152,179789,1,8,1:3:0:0:
258,131,179883,1,8,1:3:0:0:
239,102,179977,6,2,L|222:224,1,97,6|0,3:1|0:1,0:1:0:0:
60,332,180352,2,0,P|46:279|143:188,1,194,12|0,0:0|3:0,0:0:0:0:
265,294,180914,1,2,0:1:0:0:
265,294,181008,1,2,0:1:0:0:
265,294,181102,2,2,P|212:307|166:277,1,97,10|2,0:1|0:1,0:1:0:0:
16,131,181477,5,2,3:1:0:0:
81,227,181664,1,2,0:1:0:0:
113,216,181758,1,2,0:1:0:0:
134,189,181852,1,10,0:1:0:0:
140,155,181945,1,0,0:0:0:0:
130,122,182039,1,2,0:1:0:0:
102,102,182133,1,0,0:1:0:0:
86,71,182227,1,2,3:1:0:0:
88,37,182320,1,0,0:0:0:0:
112,12,182414,1,2,0:1:0:0:
145,4,182508,1,2,0:1:0:0:
178,10,182602,1,10,0:1:0:0:
199,36,182695,1,0,0:0:0:0:
209,68,182789,1,2,0:1:0:0:
236,87,182883,1,0,0:0:0:0:
251,117,182977,5,6,3:1:0:0:
277,95,183070,1,0,0:0:0:0:
310,91,183164,1,2,0:1:0:0:
341,103,183258,1,2,0:1:0:0:
362,129,183352,1,10,0:1:0:0:
367,162,183445,1,0,0:0:0:0:
358,194,183539,1,2,0:1:0:0:
334,218,183633,1,0,0:0:0:0:
328,251,183727,1,2,3:1:0:0:
343,280,183820,1,0,0:0:0:0:
373,294,183914,1,2,0:1:0:0:
406,287,184008,1,2,0:1:0:0:
422,257,184102,1,10,0:1:0:0:
500,107,184289,5,4,0:3:0:0:
500,107,184383,1,4,0:3:0:0:
500,107,184477,5,6,3:1:0:0:
466,113,184570,1,2,0:1:0:0:
432,119,184664,1,0,0:0:0:0:
399,124,184758,1,6,0:1:0:0:
365,130,184852,1,8,0:0:0:0:
226,319,185039,6,2,L|340:340,1,97,6|0,0:1|3:0,0:1:0:0:
475,193,185414,1,2,0:1:0:0:
279,116,185602,1,8,0:0:0:0:
279,116,185695,1,4,0:3:0:0:
279,116,185789,1,4,0:3:0:0:
344,257,185977,5,4,3:1:0:0:
342,52,186164,2,2,P|307:22|231:36,1,97,2|8,0:1|0:0,0:1:0:0:
179,181,186539,1,2,0:1:0:0:
2,153,186727,2,0,P|37:123|113:137,1,97,0|2,3:0|0:1,0:0:0:0:
284,311,187102,2,2,P|249:281|173:295,1,97,10|0,0:1|0:0,0:1:0:0:
53,381,187477,6,0,L|70:285,1,97,2|0,3:1|0:0,0:0:0:0:
69,285,187758,1,2,0:1:0:0:
69,285,187852,1,8,0:0:0:0:
161,85,188039,2,2,L|178:180,1,97,2|0,0:1|3:0,0:1:0:0:
219,369,188414,1,2,0:1:0:0:
0,231,188602,2,2,P|35:201|111:215,1,97,10|0,0:1|0:0,0:1:0:0:
263,23,188977,6,2,L|246:118,1,97,6|0,3:1|0:0,0:1:0:0:
245,118,189258,1,2,0:1:0:0:
245,118,189352,1,8,0:0:0:0:
77,58,189539,1,2,0:1:0:0:
153,251,189727,5,0,3:0:0:0:
183,236,189820,1,0,0:0:0:0:
218,235,189914,1,2,0:1:0:0:
245,257,190008,1,0,0:0:0:0:
257,288,190102,1,10,0:1:0:0:
284,311,190195,1,0,0:0:0:0:
319,317,190289,1,2,0:1:0:0:
351,307,190383,1,0,0:0:0:0:
374,275,190477,5,6,1:0:0:0:
381,232,190570,1,0,0:0:0:0:
357,194,190664,1,0,0:0:0:0:
315,179,190758,1,2,0:1:0:0:
273,194,190852,1,8,1:0:0:0:
229,195,190945,1,0,0:0:0:0:
190,173,191039,1,2,0:1:0:0:
174,131,191133,1,2,0:1:0:0:
136,108,191227,5,14,1:0:0:0:
183,108,191320,1,4,0:3:0:0:
231,101,191414,1,4,0:3:0:0:
278,92,191508,1,10,1:0:0:0:
325,80,191602,1,4,0:3:0:0:
369,62,191695,1,0,0:3:0:0:
412,39,191789,1,10,1:0:0:0:
452,12,191883,1,0,1:0:0:0:
494,35,191977,5,4,0:0:0:0:
494,35,197414,5,4,3:0:0:0:
403,172,197602,5,4,1:2:0:0:
405,178,197695,1,2,0:0:0:0:
406,185,197789,1,0,0:0:0:0:
407,191,197883,5,2,0:0:0:0:
408,198,197977,2,0,P|459:141|408:70,1,145.500005550385,4|0,1:2|3:0,0:0:0:0:
322,220,198539,6,0,L|350:367,1,145.500005550385,0|4,1:0|0:3,0:0:0:0:
477,307,199102,2,0,P|432:280|401:289,1,72.7500027751924,0|0,1:0|3:0,0:0:0:0:
262,354,199477,6,0,P|193:368|143:318,1,145.500005550385,4|0,1:2|3:0,0:0:0:0:
70,91,200039,1,0,1:0:0:0:
70,91,200133,1,0,1:0:0:0:
70,91,200227,1,0,1:0:0:0:
176,211,200414,1,2,0:3:0:0:
18,174,200602,1,4,0:3:0:0:
172,117,200789,1,0,3:0:0:0:
81,251,200977,1,4,1:2:0:0:
426,344,201352,5,0,1:0:0:0:
424,338,201445,1,0,0:0:0:0:
423,331,201539,1,0,0:0:0:0:
422,325,201633,1,0,0:0:0:0:
421,318,201727,2,0,L|407:251,3,36.3750013875962,0|0|0|0,1:0|0:0|3:0|0:0,0:0:0:0:
486,235,202102,2,0,L|500:168,3,36.3750013875962,0|0|0|0,1:0|3:0|0:0|3:0,0:0:0:0:
459,123,202477,5,2,1:2:0:0:
436,97,202570,1,0,0:0:0:0:
403,86,202664,1,0,0:0:0:0:
369,91,202758,1,2,1:2:0:0:
342,111,202852,1,0,0:0:0:0:
328,141,202945,1,0,0:0:0:0:
330,174,203039,1,2,1:2:0:0:
345,204,203133,1,0,0:0:0:0:
375,218,203227,5,4,1:0:0:0:
332,223,203320,1,0,1:0:0:0:
288,227,203414,1,4,0:3:0:0:
244,232,203508,1,0,0:3:0:0:
200,237,203602,1,0,1:0:0:0:
157,244,203695,1,0,1:0:0:0:
114,253,203789,1,0,1:0:0:0:
71,264,203883,1,0,1:0:0:0:
71,264,205477,5,2,0:0:0:0:
100,3,205758,5,2,0:0:0:0:
237,215,206039,5,2,0:0:0:0:
0,120,206227,5,2,0:0:0:0:
249,72,206508,5,2,0:0:0:0:
254,59,206602,5,0,1:0:0:0:
220,62,206696,1,2,1:2:0:0:
186,66,206790,1,2,1:2:0:0:
152,70,206883,1,0,1:0:0:0:
118,74,206977,6,0,L|91:167,1,97,6|0,3:2|0:0,0:0:0:0:
207,306,207352,2,0,P|203:258|173:220,1,97,10|0,0:0|0:0,0:0:0:0:
47,346,207727,2,0,L|140:373,1,97,2|0,3:2|0:0,0:0:0:0:
287,222,208102,1,10,1:2:0:0:
53,254,208289,5,2,0:0:0:0:
53,254,208383,1,0,0:0:0:0:
53,254,208477,2,0,P|-3:205|47:84,1,194,2|8,3:2|0:0,0:0:0:0:
161,13,209039,1,2,0:0:0:0:
186,182,209227,2,0,L|86:166,1,97,2|0,3:2|0:0,0:0:0:0:
320,334,209602,6,0,P|366:309|384:265,1,97,10|0,0:2|0:0,0:0:0:0:
383,269,209883,1,4,0:3:0:0:
383,269,209977,1,6,3:2:0:0:
262,136,210164,1,2,0:0:0:0:
241,312,210352,1,12,0:0:0:0:
186,182,210539,1,4,1:2:0:0:
93,269,210727,1,2,3:0:0:0:
39,53,210914,5,4,0:3:0:0:
71,44,211008,1,4,0:3:0:0:
104,52,211102,1,0,1:0:0:0:
126,77,211195,1,4,0:3:0:0:
134,110,211289,1,4,0:3:0:0:
123,143,211383,1,0,0:0:0:0:
96,165,211477,6,0,L|-24:146,1,97,6|0,3:2|0:0,0:0:0:0:
206,54,211852,2,0,L|326:35,1,97,8|0,0:0|0:0,0:0:0:0:
458,193,212227,2,0,P|421:224|374:225,1,97,2|0,3:2|0:0,0:0:0:0:
258,133,212602,1,8,0:0:0:0:
398,37,212789,5,2,0:0:0:0:
398,37,212883,1,0,0:0:0:0:
398,37,212977,2,0,L|382:138,1,97,2|0,3:2|0:0,0:0:0:0:
234,317,213352,2,0,P|197:285|150:284,1,97,10|0,0:0|0:0,0:0:0:0:
328,309,213727,1,2,3:2:0:0:
193,196,213914,1,0,0:0:0:0:
164,373,214102,1,10,1:2:0:0:
374,225,214289,5,2,0:0:0:0:
374,225,214383,1,4,0:3:0:0:
374,225,214477,2,0,L|358:124,1,97,6|0,3:2|0:0,0:0:0:0:
133,28,214852,2,0,L|148:123,1,97,10|0,1:2|0:0,0:0:0:0:
251,358,215227,5,6,3:2:0:0:
219,369,215320,1,0,0:0:0:0:
189,352,215414,1,0,0:0:0:0:
182,318,215508,1,0,0:0:0:0:
201,290,215602,1,10,1:2:0:0:
233,282,215695,1,0,0:0:0:0:
254,255,215789,1,0,0:0:0:0:
256,221,215883,1,2,0:0:0:0:
236,192,215977,5,6,1:2:0:0:
194,181,216070,1,0,0:0:0:0:
163,211,216164,1,0,0:0:0:0:
164,254,216258,1,0,0:0:0:0:
139,290,216352,1,10,1:2:0:0:
97,302,216445,1,0,0:0:0:0:
55,288,216539,1,0,0:0:0:0:
39,247,216633,1,0,0:0:0:0:
4,220,216727,5,12,1:0:0:0:
51,213,216820,1,4,0:3:0:0:
97,199,216914,1,4,0:3:0:0:
144,188,217008,1,8,1:0:0:0:
190,173,217102,1,4,0:3:0:0:
234,154,217195,1,0,0:3:0:0:
277,131,217289,1,8,1:0:0:0:
320,110,217383,1,0,1:0:0:0:
359,81,217477,6,0,L|370:22,2,36.3750013875962,2|4|4,0:2|0:0|0:0,0:0:0:0:
175,381,217852,6,0,L|195:276,1,97,12|0,1:2|0:0,0:0:0:0:
237,118,218227,1,2,3:2:0:0:
237,118,218320,1,0,0:0:0:0:
237,118,218414,1,0,0:3:0:0:
367,307,218602,2,0,P|319:304|279:277,1,97,8|0,0:0|0:0,0:0:0:0:
62,120,218977,6,0,P|109:117|149:90,1,97,2|0,3:2|0:0,0:0:0:0:
362,74,219352,1,10,0:0:0:0:
231,208,219539,1,0,0:0:0:0:
231,208,219633,1,4,0:3:0:0:
231,208,219727,1,2,3:2:0:0:
180,3,219914,1,4,0:3:0:0:
355,161,220102,1,8,1:0:0:0:
161,296,220289,5,2,0:0:0:0:
161,296,220383,1,0,0:0:0:0:
161,296,220477,2,0,L|141:191,1,97,2|0,3:2|0:0,0:0:0:0:
304,56,220852,2,0,L|322:151,1,97,8|0,0:0|0:0,0:0:0:0:
450,347,221227,2,0,P|494:323|510:277,1,97,2|0,3:2|0:0,0:0:0:0:
289,233,221602,1,8,0:0:0:0:
427,132,221789,5,2,0:0:0:0:
427,132,221883,1,2,0:0:0:0:
427,132,221977,1,6,3:2:0:0:
372,296,222164,1,2,0:0:0:0:
372,296,222258,1,6,0:0:0:0:
239,164,222445,1,0,0:0:0:0:
239,164,222539,1,4,1:2:0:0:
431,217,222727,1,2,3:0:0:0:
294,353,222914,5,4,3:0:0:0:
262,367,223008,1,4,0:3:0:0:
228,365,223102,1,2,1:3:0:0:
199,347,223195,1,6,0:3:0:0:
184,317,223289,1,4,0:3:0:0:
184,283,223383,1,0,0:0:0:0:
199,253,223477,6,0,L|315:222,1,97,6|0,3:2|0:0,0:0:0:0:
507,158,223852,2,0,P|468:126|394:135,1,97,8|0,0:0|0:0,0:0:0:0:
269,337,224227,2,0,L|385:306,1,97,2|0,3:2|0:0,0:0:0:0:
336,85,224602,1,8,0:0:0:0:
199,253,224789,5,2,0:0:0:0:
199,253,224883,1,0,0:0:0:0:
199,253,224977,2,0,P|111:280|47:214,1,194,2|10,3:2|0:0,0:0:0:0:
0,114,225539,1,0,0:0:0:0:
138,177,225727,2,0,L|163:83,1,97,2|0,3:2|0:0,0:0:0:0:
47,214,226102,1,10,1:2:0:0:
199,253,226289,5,2,0:0:0:0:
199,253,226383,1,4,0:3:0:0:
199,253,226477,1,4,3:2:0:0:
78,81,226664,1,2,0:0:0:0:
32,304,226852,2,0,P|79:302|119:275,1,97,10|0,1:2|0:0,0:0:0:0:
18,139,227227,2,0,P|-3:180|0:228,1,97,6|0,3:2|0:0,0:0:0:0:
179,189,227602,2,0,P|153:149|110:128,1,97,10|0,1:2|0:0,0:0:0:0:
148,368,227977,5,6,1:2:0:0:
172,344,228070,1,0,0:0:0:0:
205,337,228164,1,0,0:0:0:0:
239,337,228258,1,2,1:2:0:0:
272,344,228352,1,8,0:0:0:0:
302,358,228445,1,0,0:0:0:0:
334,367,228539,1,2,1:2:0:0:
367,368,228633,1,0,0:0:0:0:
400,362,228727,5,4,1:0:0:0:
437,339,228820,1,0,1:0:0:0:
464,304,228914,1,4,0:3:0:0:
474,261,229008,1,4,0:3:0:0:
467,217,229102,1,12,0:3:0:0:
445,179,229195,1,8,0:3:0:0:
404,163,229289,1,8,0:3:0:0:
360,167,229383,1,8,0:3:0:0:
330,202,229477,6,0,L|307:308,1,97,6|0,3:2|0:0,0:0:0:0:
218,93,229852,2,0,L|241:199,1,97,10|0,0:0|0:0,0:0:0:0:
376,62,230227,2,0,P|338:33|290:28,1,97,2|0,3:2|0:0,0:0:0:0:
290,27,230508,1,0,0:0:0:0:
290,27,230602,1,8,0:0:0:0:
150,172,230789,1,0,0:0:0:0:
0,136,230977,6,0,P|37:107|85:102,1,97,2|0,3:2|0:0,0:0:0:0:
52,317,231352,2,0,L|31:222,1,97,10|0,0:0|0:0,0:0:0:0:
170,77,231727,2,0,L|149:171,1,97,2|0,3:2|0:0,0:0:0:0:
106,384,232102,1,10,1:2:0:0:
358,298,232289,5,2,0:0:0:0:
358,298,232383,1,0,0:0:0:0:
358,298,232477,2,0,P|318:238|192:256,1,194,2|8,3:2|0:0,0:0:0:0:
66,180,233039,1,2,0:0:0:0:
106,384,233227,2,0,L|122:284,1,97,2|0,3:2|0:0,0:0:0:0:
292,196,233602,6,0,L|276:100,1,97,10|0,0:2|0:0,0:0:0:0:
276,100,233883,1,4,0:3:0:0:
276,100,233977,1,6,3:2:0:0:
136,0,234164,1,2,0:0:0:0:
194,147,234352,1,12,0:0:0:0:
291,18,234539,1,4,1:2:0:0:
120,85,234727,1,2,3:0:0:0:
260,205,234914,5,4,0:3:0:0:
292,196,235008,1,4,0:3:0:0:
325,204,235102,1,0,1:0:0:0:
347,229,235195,1,4,0:3:0:0:
355,262,235289,1,4,0:3:0:0:
344,295,235383,1,0,0:0:0:0:
317,317,235477,6,0,P|285:289|216:290,1,97,6|0,3:2|0:0,0:0:0:0:
109,180,235852,2,0,P|141:152|210:153,1,97,8|0,0:0|0:0,0:0:0:0:
374,109,236227,2,0,L|358:204,1,97,2|0,3:2|0:0,0:0:0:0:
246,365,236602,1,8,0:0:0:0:
501,299,236789,5,2,0:0:0:0:
501,299,236883,1,0,0:0:0:0:
501,299,236977,2,0,L|399:283,1,97,2|0,3:2|0:0,0:0:0:0:
178,145,237352,2,0,L|279:129,1,97,10|0,0:0|0:0,0:0:0:0:
273,129,237633,1,0,0:0:0:0:
273,129,237727,1,2,3:2:0:0:
442,86,237914,1,0,0:0:0:0:
306,221,238102,1,10,1:2:0:0:
277,31,238289,5,2,0:0:0:0:
277,31,238383,1,4,0:3:0:0:
277,31,238477,2,0,P|353:72|363:118,1,97,6|0,3:2|0:0,0:0:0:0:
304,312,238852,2,0,P|228:271|218:225,1,97,10|0,1:2|0:0,0:0:0:0:
439,114,239227,6,0,L|455:210,1,97,6|0,3:2|0:0,0:0:0:0:
150,333,239602,2,0,L|134:237,1,97,10|0,1:2|0:0,0:0:0:0:
355,77,239977,5,6,1:2:0:0:
393,73,240070,1,0,0:0:0:0:
425,96,240164,1,0,0:0:0:0:
438,134,240258,1,0,0:0:0:0:
425,171,240352,1,10,1:2:0:0:
393,194,240445,1,0,0:0:0:0:
355,192,240539,1,0,0:0:0:0:
327,167,240633,1,0,0:0:0:0:
314,131,240727,5,12,1:0:0:0:
287,171,240820,1,0,0:0:0:0:
239,183,240914,1,0,0:0:0:0:
192,170,241008,1,8,1:0:0:0:
144,181,241102,1,4,0:0:0:0:
113,218,241195,1,0,0:0:0:0:
113,266,241289,1,8,1:0:0:0:
146,301,241383,1,0,1:0:0:0:
193,312,241477,5,4,3:2:0:0:
256,192,241570,12,4,244477,0:1:0:0:
