osu file format v14

[General]
AudioFilename: audio.mp3
AudioLeadIn: 0
PreviewTime: 449458
Countdown: 0
SampleSet: Soft
StackLeniency: 0.3
Mode: 0
LetterboxInBreaks: 0
WidescreenStoryboard: 0

[Editor]
DistanceSpacing: 1
BeatDivisor: 4
GridSize: 4
TimelineZoom: 1.4

[Metadata]
Title:KanColle Compilation
TitleUnicode:艦これ Compilation
Artist:Yuuhei Catharsis
ArtistUnicode:幽閉カタルシス
Creator:-Mo-
Version:Collection
Source:艦隊これくしょん~艦これ~
Tags:senya Yuzuki Risa Amamiya Miya Kantai 柚木梨沙 森永真由美 天宮みや 艦隊これくしょん 艦これ lots more
BeatmapID:918498
BeatmapSetID:425284

[Difficulty]
HPDrainRate:4
CircleSize:4
OverallDifficulty:7.5
ApproachRate:9
SliderMultiplier:1.8
SliderTickRate:1

[Events]
//Background and Video events
0,0,"background.jpg",0,0
//Break Periods
2,31955,34725
2,68568,72890
2,95976,445858
2,475158,477717
2,507017,509244
2,546044,548248
2,579048,582418
2,611718,614663
2,643963,646848
2,678883,681857
2,708864,711006
2,762472,765557
2,795690,798165
//Storyboard Layer 0 (Background)
//Storyboard Layer 1 (Fail)
//Storyboard Layer 2 (Pass)
//Storyboard Layer 3 (Foreground)
//Storyboard Sound Samples

[TimingPoints]
1755,468.75,4,2,1,50,1,0
7848,-100,4,2,1,40,0,0
8317,-100,4,2,1,50,0,0
13005,-100,4,2,1,20,0,0
13942,-100,4,2,1,30,0,0
16286,-100,4,2,1,40,0,0
16755,-100,4,2,2,60,0,1
16872,-100,4,2,2,60,0,0
22380,-100,4,2,10,60,0,0
22848,-100,4,2,10,40,0,0
23317,-100,4,2,2,60,0,0
29880,-100,4,2,1,60,0,0
33586,434.782608695652,4,2,2,80,1,0
39672,-100,4,2,1,60,0,0
40542,-100,4,2,2,80,0,1
40651,-100,4,2,2,80,0,0
52716,-100,4,2,10,80,0,0
53151,-100,4,2,1,80,0,0
53368,-100,4,2,10,80,0,0
54020,-100,4,2,1,80,0,0
54455,-100,4,2,2,80,0,0
66629,-100,4,2,10,80,0,0
67064,-100,4,2,2,80,0,0
67281,-100,4,2,10,80,0,0
67933,-100,4,2,2,80,0,0
68368,-100,4,2,2,80,0,0
71776,428.571428571429,4,2,1,80,1,0
81633,-100,4,2,1,80,0,0
98646,428.571428571429,4,2,1,80,1,0
134864,413.793103448276,4,2,1,80,1,0
160609,408.163265306122,4,2,1,80,1,0
195467,400,4,2,1,80,1,0
235280,400,4,2,1,80,1,0
270503,400,4,2,1,80,1,0
304782,400,4,2,1,80,1,0
338352,400,4,2,1,80,1,0
372470,389.61038961039,4,2,1,80,1,0
406020,387.096774193548,4,2,1,80,1,0
444958,375,4,2,2,80,1,0
446458,-166.666666666667,4,3,2,60,0,0
446833,-142.857142857143,4,3,2,60,0,0
447208,-125,4,3,2,60,0,0
447583,-111.111111111111,4,3,2,60,0,0
447958,-100,4,3,2,60,0,0
449458,-100,4,2,1,60,0,0
450958,-100,4,2,2,80,0,1
451051,-100,4,2,2,80,0,0
476817,375,4,2,3,80,1,0
479817,-125,4,2,3,60,0,0
482067,-125,4,2,3,80,0,0
482817,-100,4,2,3,80,0,1
482910,-100,4,2,3,80,0,0
500817,-125,4,2,3,60,0,0
503067,-100,4,2,3,60,0,0
503442,-100,4,2,3,80,0,0
508344,375,4,2,3,80,1,0
514344,-83.3333333333333,4,2,3,80,0,0
515844,-100,4,2,3,80,0,1
515937,-100,4,2,3,80,0,0
547348,375,4,3,4,80,1,0
553348,-100,4,2,4,80,0,1
553441,-100,4,2,4,80,0,0
571348,-100,4,3,4,80,0,0
577348,-125,4,3,4,60,0,0
578848,-100,4,2,4,80,0,0
581518,375,4,2,1,80,1,0
584330,-100,4,2,2,80,0,0
584518,-100,4,2,1,80,0,0
586018,-100,4,3,1,70,0,0
586393,-100,4,3,1,80,0,0
587518,-100,4,2,1,80,0,1
587611,-100,4,2,1,80,0,0
596330,-100,4,2,2,80,0,0
596518,-100,4,2,1,80,0,0
598768,-125,4,2,1,80,0,0
599330,-83.3333333333333,4,2,1,80,0,0
610580,-100,4,2,1,60,0,0
611518,-100,4,2,1,80,0,0
613763,375,4,3,2,80,1,0
618263,-166.666666666667,4,3,2,60,0,0
619763,-100,4,3,2,80,0,1
619856,-100,4,3,2,80,0,0
646213,352.941176470588,4,2,2,80,1,0
650448,-83.3333333333333,4,2,2,80,0,0
650801,-71.4285714285714,4,2,2,80,0,0
651860,-125,4,2,1,60,0,0
652565,-100,4,2,1,80,0,0
653271,-100,4,2,2,80,0,1
653360,-100,4,2,2,80,0,0
662448,-125,4,2,2,80,0,0
663154,-100,4,2,2,80,0,0
663507,-83.3333333333333,4,2,2,80,0,0
663860,-71.4285714285714,4,2,2,80,0,0
664213,-100,4,2,2,80,0,0
664565,-83.3333333333333,4,2,2,80,0,0
670213,-100,4,2,2,80,0,0
673036,-83.3333333333333,4,2,2,80,0,0
681078,344.827586206897,4,3,5,80,1,0
685905,-166.666666666667,4,3,5,80,0,0
686595,-100,4,3,5,80,0,1
686681,-100,4,3,5,80,0,0
707974,-166.666666666667,4,3,5,80,0,0
711606,333.333333333333,4,2,4,80,1,0
711606,-83.3333333333333,4,2,4,80,0,0
715606,-83.3333333333333,4,2,1,60,0,0
716939,-83.3333333333333,4,2,4,80,0,1
717022,-83.3333333333333,4,2,4,80,0,0
720939,-83.3333333333333,4,2,4,60,0,0
721272,-83.3333333333333,4,2,4,70,0,0
721606,-83.3333333333333,4,2,4,80,0,0
758272,-100,4,2,4,80,0,0
759606,-100,4,2,1,60,0,0
761606,-100,4,3,1,40,0,0
762272,-100,4,2,1,80,0,0
764824,333.333333333333,4,2,2,80,1,0
770157,-100,4,2,1,80,0,0
771157,-100,4,2,2,80,0,0
771324,-100,4,2,1,80,0,0
772824,-83.3333333333333,4,2,2,80,0,1
772907,-83.3333333333333,4,2,2,80,0,0
782490,-71.4285714285714,4,2,2,80,0,0
783490,-83.3333333333333,4,2,2,80,0,0
794157,-142.857142857143,4,2,2,80,0,0
797440,331.491712707182,4,2,2,80,1,0
800091,-100,4,2,2,60,0,0
801417,-125,4,2,2,40,0,0
802578,-125,4,2,2,20,0,0
802743,-125,4,2,2,25,0,0
802909,-125,4,2,2,30,0,0
803075,-125,4,2,2,35,0,0
803241,-125,4,2,2,60,0,0
803323,-125,4,2,2,65,0,0
803406,-125,4,2,2,70,0,0
803489,-125,4,2,2,75,0,0
803572,-125,4,2,2,80,0,0
803655,-125,4,2,2,85,0,0
803738,-125,4,2,2,90,0,0
803821,-125,4,2,2,95,0,0
803904,-125,4,2,2,20,0,0
804069,-66.6666666666667,4,2,1,80,0,1
804152,-66.6666666666667,4,2,1,80,0,0
809373,-83.3333333333333,4,2,2,80,0,0
811362,-83.3333333333333,4,2,1,80,0,0
812025,-83.3333333333333,4,2,2,80,0,0
814014,-83.3333333333333,4,2,1,80,0,0
814677,-66.6666666666667,4,2,1,80,0,0
819981,-83.3333333333333,4,2,2,80,0,0
821970,-83.3333333333333,4,2,1,80,0,0
825285,-83.3333333333333,4,2,2,80,0,0
830589,-76.9230769230769,4,2,2,80,0,0
834567,-76.9230769230769,4,2,1,80,0,0
835230,-76.9230769230769,4,2,2,80,0,0

[Colours]
Combo1 : 226,156,10
Combo2 : 3,138,248
Combo3 : 210,4,4
Combo4 : 1,199,209

[HitObjects]
342,89,1755,6,0,L|345:178,1,90,6|0,0:0|0:0,0:0:0:0:
336,295,2223,1,0,0:0:0:0:
238,229,2458,2,0,P|164:216|84:278,2,180,2|2|2,0:0|0:0|0:0,0:0:0:0:
182,322,3630,2,0,L|155:137,1,180,2|0,0:0|0:0,0:0:0:0:
245,67,4333,1,2,0:0:0:0:
329,148,4567,2,0,B|372:167|372:167|492:143,2,135,2|0|0,0:0|0:0|0:0,0:0:0:0:
206,199,5505,6,0,L|371:270,1,180,2|0,0:0|0:0,0:0:0:0:
422,375,6208,1,2,0:0:0:0:
263,314,6442,2,0,L|180:278,2,90,2|0|0,0:0|0:0|0:0,0:0:0:0:
371,270,7145,1,0,0:0:0:0:
313,67,7380,1,2,0:0:0:0:
206,154,7614,1,2,0:0:0:0:
287,233,7848,1,2,0:0:0:0:
219,59,8083,1,2,0:0:0:0:
102,181,8317,2,0,B|86:99|86:99|104:51,2,135,2|0|0,0:0|0:0|0:0,0:0:0:0:
137,292,9255,6,0,P|220:261|299:297,1,180,2|0,0:0|0:0,0:0:0:0:
384,377,9958,2,0,P|347:296|377:210,2,180,2|2|2,0:0|0:0|0:0,0:0:0:0:
463,290,11130,2,0,B|340:317|340:317|279:305,1,180,2|0,0:0|0:0,0:0:0:0:
183,251,11833,1,2,0:0:0:0:
255,159,12067,2,0,B|271:132|271:132|243:87|254:32,2,135,2|0|0,0:0|0:0|0:0,0:0:0:0:
183,251,13005,5,8,0:0:0:0:
189,263,13239,1,8,0:0:0:0:
329,133,13473,1,8,0:0:0:0:
323,121,13707,1,8,0:0:0:0:
185,125,13942,5,8,0:0:0:0:
327,259,14176,1,8,0:0:0:0:
189,263,14411,1,8,0:0:0:0:
323,121,14645,1,0,0:0:0:0:
294,348,14880,5,8,3:2:0:0:
218,36,15348,1,8,3:2:0:0:
100,102,15583,1,0,0:0:0:0:
164,250,15817,6,0,P|158:271|156:294,3,45,8|0|0|0,0:0|0:0|0:0|0:0,0:0:0:0:
228,204,16286,2,0,P|233:182|235:160,3,45,8|8|8|8,3:2|3:2|3:2|3:2,3:2:0:0:
196,92,16755,6,0,P|268:141|355:126,1,180,6|2,0:0|0:0,0:0:0:0:
449,57,17458,1,0,0:0:0:0:
455,55,17575,1,0,0:0:0:0:
461,53,17692,2,0,P|478:93|480:142,1,90,2|0,0:0|0:0,0:0:0:0:
392,313,18161,2,0,P|375:273|373:224,1,90,2|0,0:0|0:0,0:0:0:0:
402,116,18630,6,0,P|317:86|221:111,1,180,2|2,0:0|0:0,0:0:0:0:
136,173,19333,1,0,0:0:0:0:
235,327,19567,2,0,P|243:283|240:238,1,90,2|0,0:0|0:0,0:0:0:0:
233,216,19919,1,0,0:0:0:0:
227,194,20036,2,0,P|224:149|232:105,1,90,2|0,0:0|0:0,0:0:0:0:
459,27,20505,6,0,P|435:111|357:150,1,180,6|2,0:0|0:0,0:0:0:0:
212,91,21208,1,0,0:0:0:0:
73,160,21442,2,0,L|83:249,1,90,2|0,0:0|0:0,0:0:0:0:
182,353,21911,2,0,L|192:263,1,90,2|0,0:0|0:0,0:0:0:0:
136,70,22380,5,10,0:0:0:0:
177,226,22614,1,2,0:0:0:0:
234,76,22848,1,10,0:0:0:0:
99,164,23083,1,2,0:0:0:0:
297,186,23317,2,0,L|373:138,1,90,2|0,0:0|0:0,0:0:0:0:
393,127,23669,1,0,0:0:0:0:
415,123,23786,2,0,P|426:166|424:211,1,90,2|0,0:0|0:0,0:0:0:0:
307,362,24255,6,0,B|283:245|283:245|297:186,1,180,6|2,0:0|0:0,0:0:0:0:
361,61,24958,1,0,0:0:0:0:
363,55,25075,1,0,0:0:0:0:
365,49,25192,2,0,P|324:30|279:28,1,90,2|0,0:0|0:0,0:0:0:0:
123,130,25661,2,0,P|163:148|208:150,1,90,2|0,0:0|0:0,0:0:0:0:
337,124,26130,6,0,L|322:303,1,180,2|2,0:0|0:0,0:0:0:0:
222,241,26833,1,0,0:0:0:0:
126,307,27067,2,0,P|85:287|53:256,1,90,2|0,0:0|0:0,0:0:0:0:
45,235,27419,1,0,0:0:0:0:
46,212,27536,2,0,L|59:123,1,90,2|0,0:0|0:0,0:0:0:0:
223,69,28005,6,0,B|274:82|310:66|310:66|350:81|350:81|395:66,2,180,2|2|2,0:0|0:0|0:0,0:0:0:0:
153,237,29411,1,2,0:0:0:0:
324,267,29645,1,0,0:0:0:0:
322,261,29762,1,0,0:0:0:0:
320,255,29880,5,2,0:0:0:0:
206,154,30114,1,2,0:0:0:0:
212,306,30348,1,2,0:0:0:0:
304,181,30583,1,2,0:0:0:0:
189,77,30817,6,0,L|166:79,7,22.5,2|0|0|0|0|0|0|0,0:0|0:0|0:0|0:0|0:0|0:0|0:0|0:0,0:0:0:0:
148,103,31286,2,0,L|125:100,7,22.5,8|0|0|0|0|0|0|0,0:0|0:0|0:0|0:0|0:0|0:0|0:0|0:0,0:0:0:0:
99,86,31755,5,6,0:0:0:0:
214,329,35325,5,6,0:0:0:0:
289,223,35542,1,0,0:0:0:0:
282,202,35651,1,0,0:0:0:0:
276,181,35759,2,0,L|291:92,1,90,8|0,0:0|0:0,0:0:0:0:
385,262,36194,1,2,0:0:0:0:
178,197,36412,1,0,0:0:0:0:
279,337,36629,2,0,P|322:345|367:342,1,90,8|0,0:0|0:0,0:0:0:0:
178,197,37064,6,0,P|134:200|90:211,2,90,6|0|8,0:0|0:0|0:0,0:0:0:0:
311,246,37716,1,0,0:0:0:0:
223,104,37933,2,0,P|178:96|133:95,1,90,2|0,0:0|0:0,0:0:0:0:
301,165,38368,2,0,P|345:172|390:173,1,90,8|0,0:0|0:0,0:0:0:0:
181,24,38803,6,0,P|136:16|91:15,2,90,6|0|8,0:0|0:0|0:0,0:0:0:0:
312,80,39455,1,0,0:0:0:0:
198,313,39672,5,2,0:0:0:0:
161,157,39890,1,2,0:0:0:0:
171,142,40107,1,2,0:0:0:0:
188,328,40325,1,2,0:0:0:0:
64,147,40542,6,0,B|79:55|79:55|103:21,1,135,6|0,0:0|0:0,0:0:0:0:
164,64,40977,2,0,P|185:68|208:70,1,45,8|0,0:0|0:0,0:0:0:0:
274,34,41194,2,0,P|296:35|318:40,1,45
376,89,41412,5,2,0:0:0:0:
281,250,41629,1,0,0:0:0:0:
409,217,41846,1,8,0:0:0:0:
248,122,42063,1,0,0:0:0:0:
188,327,42281,6,0,B|215:358|215:358|264:373|306:352,1,135,2|0,0:0|0:0,0:0:0:0:
370,315,42716,2,0,P|361:294|355:272,1,45,8|0,0:0|0:0,0:0:0:0:
371,200,42933,2,0,P|376:178|378:155,1,45
363,85,43151,5,2,0:0:0:0:
189,147,43368,1,0,0:0:0:0:
234,27,43586,1,8,0:0:0:0:
295,217,43803,1,8,0:0:0:0:
71,123,44020,6,0,B|104:101|104:101|153:127|196:110,1,135,6|0,0:0|0:0,0:0:0:0:
258,69,44455,2,0,L|296:91,1,45,8|0,0:0|0:0,0:0:0:0:
360,131,44672,2,0,L|398:109,1,45
452,55,44890,5,2,0:0:0:0:
380,263,45107,1,0,0:0:0:0:
374,241,45216,1,0,0:0:0:0:
375,219,45325,2,0,P|372:174|360:130,1,90,8|0,0:0|0:0,0:0:0:0:
211,59,45759,5,2,0:0:0:0:
192,72,45868,1,0,0:0:0:0:
179,89,45977,1,0,0:0:0:0:
168,108,46086,1,0,0:0:0:0:
161,129,46194,2,0,P|164:174|176:218,1,90,8|0,0:0|0:0,0:0:0:0:
286,368,46629,6,0,L|299:278,1,90,2|0,0:0|0:0,0:0:0:0:
297,256,46955,1,0,0:0:0:0:
293,233,47064,1,8,0:0:0:0:
365,60,47281,1,8,0:0:0:0:
90,91,47499,6,0,B|74:133|74:133|89:221,1,135,6|0,0:0|0:0,0:0:0:0:
129,284,47933,2,0,P|152:280|174:280,1,45,8|0,0:0|0:0,0:0:0:0:
244,306,48151,2,0,P|266:305|288:301,1,45
354,264,48368,5,2,0:0:0:0:
255,176,48585,1,0,0:0:0:0:
344,364,48803,1,8,0:0:0:0:
448,241,49020,1,0,0:0:0:0:
325,106,49238,6,0,B|285:85|285:85|244:108|198:102,1,135,2|0,0:0|0:0,0:0:0:0:
133,136,49672,2,0,P|131:158|134:180,1,45,8|0,0:0|0:0,0:0:0:0:
176,243,49890,2,0,P|177:265|174:287,1,45
148,357,50107,5,2,0:0:0:0:
338,319,50325,1,0,0:0:0:0:
223,384,50542,1,8,0:0:0:0:
287,193,50759,1,8,0:0:0:0:
493,308,50977,6,0,B|520:332|520:332|472:358|425:357,1,135,6|0,0:0|0:0,0:0:0:0:
393,290,51412,2,0,P|390:268|388:246,1,45,8|0,0:0|0:0,0:0:0:0:
420,178,51629,2,0,P|423:156|425:134,1,45
406,62,51846,5,2,0:0:0:0:
255,207,52064,1,0,0:0:0:0:
261,185,52172,1,0,0:0:0:0:
272,165,52281,1,8,0:0:0:0:
340,367,52499,1,0,0:0:0:0:
169,325,52716,6,0,L|213:320,1,45,10|0,0:0|0:0,0:0:0:0:
346,201,52933,2,0,L|301:196,1,45,2|0,0:0|0:0,0:0:0:0:
137,239,53151,2,0,L|181:234,1,45,10|0,0:0|0:0,0:0:0:0:
341,297,53368,2,0,L|296:292,1,45,2|0,0:0|0:0,0:0:0:0:
143,55,53585,6,0,L|187:50,1,45,10|0,0:0|0:0,0:0:0:0:
357,143,53802,2,0,L|312:138,1,45,2|0,0:0|0:0,0:0:0:0:
85,161,54020,2,0,L|129:156,1,45,10|0,0:0|0:0,0:0:0:0:
405,38,54237,2,0,L|360:33,1,45,10|0,0:0|0:0,0:0:0:0:
53,95,54455,6,0,B|37:136|37:136|59:186|52:224,1,135,6|0,0:0|0:0,0:0:0:0:
85,291,54890,2,0,L|129:285,1,45,8|0,0:0|0:0,0:0:0:0:
196,319,55107,2,0,L|240:325,1,45
312,300,55325,5,2,0:0:0:0:
255,110,55542,1,0,0:0:0:0:
234,251,55759,1,8,0:0:0:0:
333,61,55977,1,0,0:0:0:0:
446,295,56194,6,0,B|413:344|363:345|363:345|334:326,1,135,2|0,0:0|0:0,0:0:0:0:
291,266,56629,2,0,P|288:243|290:221,1,45,8|0,0:0|0:0,0:0:0:0:
326,156,56846,2,0,P|328:133|326:111,1,45
297,42,57064,5,2,0:0:0:0:
121,109,57281,1,0,0:0:0:0:
251,136,57499,1,8,0:0:0:0:
104,6,57716,1,8,0:0:0:0:
96,236,57933,6,0,B|116:332|116:332|137:301,1,135,6|0,0:0|0:0,0:0:0:0:
180,241,58368,2,0,P|201:233|223:229,1,45,8|0,0:0|0:0,0:0:0:0:
293,255,58585,2,0,P|315:250|336:243,1,45
391,191,58803,5,2,0:0:0:0:
247,355,59020,1,0,0:0:0:0:
233,338,59129,1,0,0:0:0:0:
224,317,59238,2,0,P|232:272|223:229,1,90,8|0,0:0|0:0,0:0:0:0:
90,94,59672,5,2,0:0:0:0:
110,103,59781,1,0,0:0:0:0:
132,108,59890,1,0,0:0:0:0:
155,105,59999,1,0,0:0:0:0:
176,98,60107,2,0,P|241:84|282:95,1,90,8|0,0:0|0:0,0:0:0:0:
411,283,60542,6,0,L|323:305,1,90,2|0,0:0|0:0,0:0:0:0:
302,300,60868,1,0,0:0:0:0:
280,294,60977,1,8,0:0:0:0:
75,197,61194,1,8,0:0:0:0:
321,23,61412,6,0,B|339:59|339:59|311:96|321:149,1,135,6|0,0:0|0:0,0:0:0:0:
376,198,61846,2,0,L|368:242,1,45,8|0,0:0|0:0,0:0:0:0:
311,291,62064,2,0,L|318:335,1,45
375,384,62281,5,2,0:0:0:0:
462,126,62499,1,0,0:0:0:0:
465,104,62607,1,0,0:0:0:0:
461,82,62716,1,8,0:0:0:0:
223,158,62933,1,0,0:0:0:0:
361,240,63151,6,0,B|358:218|371:190|371:190|358:164|354:138|354:138|374:106|367:67,2,180,2|8|2,0:0|0:0|0:0,0:0:0:0:
323,366,64238,1,0,0:0:0:0:
213,237,64455,1,8,0:0:0:0:
434,324,64672,1,8,0:0:0:0:
105,353,64890,6,0,B|87:310|87:310|95:221,1,135,6|0,0:0|0:0,0:0:0:0:
158,182,65325,2,0,P|163:160|163:137,1,45,8|0,0:0|0:0,0:0:0:0:
102,94,65542,2,0,P|97:72|97:49,1,45
153,1,65759,5,2,0:0:0:0:
268,200,65977,1,0,0:0:0:0:
274,178,66085,1,0,0:0:0:0:
274,155,66194,1,8,0:0:0:0:
123,328,66412,1,0,0:0:0:0:
387,241,66629,6,0,L|342:231,1,45,10|0,0:0|0:0,0:0:0:0:
125,143,66846,2,0,L|168:152,1,45,2|0,0:0|0:0,0:0:0:0:
387,143,67064,2,0,L|343:152,1,45,10|0,0:0|0:0,0:0:0:0:
125,241,67281,2,0,L|168:231,1,45,2|0,0:0|0:0,0:0:0:0:
321,57,67499,6,0,L|296:94,1,45,10|0,0:0|0:0,0:0:0:0:
191,327,67716,2,0,L|215:289,1,45,2|0,0:0|0:0,0:0:0:0:
191,57,67933,2,0,L|215:95,1,45,10|0,0:0|0:0,0:0:0:0:
321,327,68151,2,0,L|296:289,1,45,10|0,0:0|0:0,0:0:0:0:
428,68,68368,5,6,0:0:0:0:
90,166,73490,6,0,P|154:108|239:124,1,180,2|8,0:0|0:0,0:0:0:0:
302,277,74133,2,0,L|288:366,2,90,0|2|0,0:0|0:0|0:0,0:0:0:0:
407,145,74776,2,0,L|393:55,1,90,8|0,0:0|0:0,0:0:0:0:
263,172,75204,6,0,L|218:177,1,45,2|0,0:0|0:0,0:0:0:0:
163,57,75418,2,0,L|118:51,1,45,2|0,0:0|0:0,0:0:0:0:
77,187,75633,6,0,L|71:231,1,45,10|0,0:0|0:0,0:0:0:0:
192,287,75847,2,0,L|197:331,1,45,2|0,0:0|0:0,0:0:0:0:
288,99,76061,6,0,L|293:54,1,45,2|0,0:0|0:0,0:0:0:0:
364,181,76276,2,0,L|361:210,2,30,2|0|0,0:0|0:0|0:0,0:0:0:0:
457,83,76490,2,0,L|469:172,1,90,2|0,0:0|0:0,0:0:0:0:
401,320,76918,5,6,0:0:0:0:
311,258,77133,1,0,0:0:0:0:
302,253,77240,1,0,0:0:0:0:
293,250,77347,2,0,P|270:249|247:254,3,45
204,312,77776,2,0,P|182:316|159:316,3,45
98,279,78204,5,8,0:0:0:0:
89,98,78418,1,0,0:0:0:0:
95,133,78526,1,0,0:0:0:0:
101,168,78633,6,0,L|189:152,1,90,6|0,0:0|0:0,0:0:0:0:
309,244,79061,1,8,0:0:0:0:
189,264,79276,1,0,0:0:0:0:
284,38,79490,2,0,P|306:76|312:121,1,90,2|0,0:0|0:0,0:0:0:0:
310,148,79811,1,0,0:0:0:0:
304,174,79918,1,8,0:0:0:0:
137,116,80133,2,0,L|148:72,1,45
209,19,80347,5,2,0:0:0:0:
213,220,80561,1,0,0:0:0:0:
191,204,80668,1,0,0:0:0:0:
175,182,80776,1,8,0:0:0:0:
286,119,80990,1,0,0:0:0:0:
152,312,81204,1,2,0:0:0:0:
319,265,81418,1,8,0:0:0:0:
119,166,81633,1,8,0:0:0:0:
285,35,81847,1,0,0:0:0:0:
375,308,82061,5,2,0:0:0:0:
297,166,82276,1,0,0:0:0:0:
302,139,82383,1,0,0:0:0:0:
311,113,82490,1,8,0:0:0:0:
295,311,82704,1,0,0:0:0:0:
217,73,82918,1,2,0:0:0:0:
201,271,83133,1,0,0:0:0:0:
210,245,83240,1,0,0:0:0:0:
215,218,83347,1,8,0:0:0:0:
109,358,83561,1,0,0:0:0:0:
77,148,83776,5,2,0:0:0:0:
23,264,83990,1,0,0:0:0:0:
38,285,84097,1,0,0:0:0:0:
58,302,84204,2,0,P|112:305|147:298,1,90,8|0,0:0|0:0,0:0:0:0:
317,146,84633,1,2,0:0:0:0:
153,140,84847,2,0,L|130:143,2,22.5
189,152,85061,2,0,P|182:197|188:242,1,90,8|0,0:0|0:0,0:0:0:0:
201,276,85383,1,0,0:0:0:0:
221,306,85490,6,0,P|257:279|299:264,1,90,6|0,0:0|0:0,0:0:0:0:
436,296,85918,1,8,0:0:0:0:
270,188,86133,1,0,0:0:0:0:
349,371,86347,2,0,P|365:330|368:285,1,90,2|0,0:0|0:0,0:0:0:0:
365,258,86668,1,0,0:0:0:0:
357,231,86776,1,8,0:0:0:0:
183,108,86990,2,0,L|138:116,1,45
225,170,87204,5,2,0:0:0:0:
355,51,87418,1,0,0:0:0:0:
331,38,87526,1,0,0:0:0:0:
304,35,87633,1,8,0:0:0:0:
325,245,87847,1,0,0:0:0:0:
476,130,88061,2,0,L|461:41,1,90,2|0,0:0|0:0,0:0:0:0:
389,102,88490,6,0,P|360:111|330:111,2,60,8|0|0,0:0|0:0|0:0,0:0:0:0:
476,130,88918,6,0,L|449:307,1,180,6|8,0:0|0:0,0:0:0:0:
331,111,89561,1,0,0:0:0:0:
464,212,89776,1,2,0:0:0:0:
119,341,90204,2,0,L|107:251,1,90,12|0,0:0|0:0,0:0:0:0:
108,224,90526,1,0,0:0:0:0:
112,197,90633,5,6,0:0:0:0:
253,289,90847,1,0,0:0:0:0:
257,315,90954,1,0,0:0:0:0:
261,341,91061,1,8,0:0:0:0:
412,277,91276,1,0,0:0:0:0:
172,250,91490,1,2,0:0:0:0:
364,366,91704,2,0,L|385:371,2,22.5
332,340,91918,2,0,L|319:250,1,90,8|0,0:0|0:0,0:0:0:0:
113,132,92347,6,0,P|104:152|98:174,3,45,6|0|0|0,0:0|0:0|0:0|0:0,0:0:0:0:
151,229,92776,2,0,P|153:251|160:272,3,45,8|0|0|0,0:0|0:0|0:0|0:0,0:0:0:0:
233,295,93204,2,0,P|246:312|262:328,1,45,2|0,0:0|0:0,0:0:0:0:
283,199,93418,2,0,P|269:181|253:165,1,45
351,325,93633,1,8,0:0:0:0:
373,297,93740,1,0,0:0:0:0:
387,264,93847,1,0,0:0:0:0:
389,228,93954,1,0,0:0:0:0:
379,184,94061,5,6,0:0:0:0:
395,200,94490,5,8,0:0:0:0:
411,216,94918,5,0,0:0:0:0:
63,307,95776,5,6,0:0:0:0:
219,107,446458,6,0,L|229:187,1,80.9999975280763,2|0,0:2|0:2,0:2:0:0:
267,246,446833,6,0,L|279:143,1,94.499997116089,0|0,0:2|0:2,0:2:0:0:
219,107,447208,6,0,L|232:214,1,108,0|0,0:2|0:2,0:2:0:0:
264,273,447583,6,0,L|278:153,1,121.499996292114,0|0,0:2|0:2,0:2:0:0:
269,108,447958,5,2,0:2:0:0:
267,102,448145,1,2,0:2:0:0:
160,295,448333,1,8,0:2:0:0:
378,255,448520,1,2,0:2:0:0:
216,32,448708,6,0,L|205:76,1,45,2|0,0:2|0:2,0:2:0:0:
306,158,448895,2,0,L|295:114,1,45,2|0,0:2|0:2,0:2:0:0:
203,192,449083,2,0,L|192:236,1,45,10|0,0:2|0:2,0:2:0:0:
293,318,449270,2,0,L|282:274,1,45,2|0,0:2|0:2,0:2:0:0:
110,125,449458,5,2,0:0:0:0:
223,355,449833,1,2,0:0:0:0:
346,166,450208,5,2,0:0:0:0:
344,172,450301,1,0,0:0:0:0:
342,178,450395,1,2,0:0:0:0:
340,184,450489,1,0,0:0:0:0:
328,209,450583,5,2,0:0:0:0:
301,186,450676,1,0,0:0:0:0:
267,177,450770,1,2,0:0:0:0:
232,186,450864,1,0,0:0:0:0:
202,206,450958,6,0,B|173:173|173:173|208:107|174:37,1,180,6|8,0:0|3:2,0:0:0:0:
68,104,451520,1,0,0:0:0:0:
282,158,451708,2,0,B|351:172|408:136|408:136|363:116,1,180,2|8,0:0|3:2,0:0:0:0:
202,206,452270,1,0,0:0:0:0:
198,210,452364,1,0,0:0:0:0:
194,214,452458,5,6,0:0:0:0:
176,42,452645,1,0,0:0:0:0:
194,214,452833,1,8,3:2:0:0:
268,15,453020,1,0,0:0:0:0:
194,214,453208,2,0,B|227:240|278:240|278:240|301:279,1,135,2|0,0:0|0:0,0:0:0:0:
303,315,453583,1,8,3:2:0:0:
423,186,453770,1,8,3:2:0:0:
419,159,453864,1,0,0:0:0:0:
412,133,453958,6,0,B|366:113|326:133|326:133|286:153|238:133,1,180,6|8,0:0|3:2,0:0:0:0:
284,45,454520,1,0,0:0:0:0:
370,223,454708,2,0,P|379:266|375:311,1,90,6|0,0:0|0:0,0:0:0:0:
289,133,455083,2,0,P|279:89|284:45,1,90,8|0,3:2|0:0,0:0:0:0:
447,263,455458,6,0,P|417:296|375:311,1,90,6|0,0:0|0:0,0:0:0:0:
348,305,455739,1,0,0:0:0:0:
328,286,455833,2,0,P|294:257|250:247,1,90,8|0,3:2|0:0,0:0:0:0:
101,344,456208,2,0,L|90:255,1,90,2|0,0:0|0:0,0:0:0:0:
64,79,456583,1,8,3:2:0:0:
83,109,456676,1,0,3:2:0:0:
111,130,456770,1,8,3:2:0:0:
145,141,456864,1,0,3:2:0:0:
180,132,456958,6,0,B|212:121|248:135|248:135|239:72|286:37,1,180,6|8,0:0|3:2,0:0:0:0:
296,212,457520,1,0,0:0:0:0:
61,59,457708,2,0,P|105:51|148:62,1,90,2|0,0:0|0:0,0:0:0:0:
296,212,458083,2,0,P|251:219|208:208,1,90,8|0,3:2|0:0,0:0:0:0:
384,115,458458,6,0,B|415:141|415:141|390:178|393:232,1,135,6|0,0:0|0:0,0:0:0:0:
401,257,458833,1,8,3:2:0:0:
484,97,459020,1,0,0:0:0:0:
288,114,459208,2,0,L|200:133,1,90,2|0,0:0|0:0,0:0:0:0:
371,384,459583,2,0,P|400:323|401:256,1,135,8|0,3:2|0:0,0:0:0:0:
392,221,459958,6,0,B|348:251|348:251|281:220|227:257,1,180,6|8,0:0|3:2,0:0:0:0:
292,353,460520,1,0,0:0:0:0:
294,68,460708,5,2,0:0:0:0:
270,53,460801,1,0,0:0:0:0:
245,43,460895,1,2,0:0:0:0:
219,39,460989,1,0,0:0:0:0:
182,39,461083,5,8,3:2:0:0:
185,75,461176,1,0,0:0:0:0:
180,110,461270,1,2,0:0:0:0:
168,145,461364,1,0,0:0:0:0:
90,292,461645,5,6,0:0:0:0:
446,216,461833,1,6,0:0:0:0:
113,68,462208,5,6,0:0:0:0:
295,384,462489,1,6,0:0:0:0:
333,21,462770,1,6,0:0:0:0:
131,198,462958,6,0,P|123:243|124:288,1,90,6|0,0:0|0:0,0:0:0:0:
148,354,463239,1,0,0:0:0:0:
152,358,463333,1,8,3:2:0:0:
272,254,463520,1,0,0:0:0:0:
141,116,463708,2,0,B|46:112|46:112|70:143,1,135,2|0,0:0|0:0,0:0:0:0:
82,156,464083,1,8,3:2:0:0:
276,72,464270,1,0,0:0:0:0:
280,76,464364,1,0,0:0:0:0:
284,80,464458,5,6,0:0:0:0:
127,28,464645,1,0,0:0:0:0:
284,80,464833,1,8,3:2:0:0:
154,137,465020,1,0,0:0:0:0:
223,290,465208,2,0,P|246:328|283:353,1,90,2|0,0:0|0:0,0:0:0:0:
414,189,465583,1,8,3:2:0:0:
383,170,465676,1,0,0:0:0:0:
348,162,465770,1,8,3:2:0:0:
312,165,465864,1,0,0:0:0:0:
279,181,465958,6,0,B|227:203|178:177|178:177|202:158,1,135,6|0,0:0|0:0,0:0:0:0:
257,114,466333,2,0,B|268:87|268:87|263:26,1,90,8|0,3:2|0:0,0:0:0:0:
105,261,466708,2,0,P|147:277|192:278,1,90,6|0,0:0|0:0,0:0:0:0:
406,122,467083,2,0,P|364:106|319:105,1,90,8|0,3:2|0:0,0:0:0:0:
325,342,467458,6,0,P|341:300|342:255,1,90,6|0,0:0|0:0,0:0:0:0:
338,238,467739,1,0,0:0:0:0:
330,222,467833,2,0,P|285:220|242:205,1,90,8|0,3:2|0:0,0:0:0:0:
60,88,468208,2,0,L|55:177,1,90,2|0,0:0|0:0,0:0:0:0:
156,356,468583,1,8,3:2:0:0:
157,320,468676,1,0,3:2:0:0:
159,284,468770,1,8,3:2:0:0:
161,248,468864,1,0,3:2:0:0:
163,212,468958,6,0,B|184:129|184:129|225:101,1,135,6|0,0:0|0:0,0:0:0:0:
296,109,469333,2,0,P|333:136|376:146,1,90,8|0,3:2|0:0,0:0:0:0:
184,13,469708,2,0,L|94:18,1,90,2|0,0:0|0:0,0:0:0:0:
328,148,470083,2,0,L|417:153,1,90,8|0,3:2|0:0,0:0:0:0:
187,333,470458,6,0,P|133:293|116:229,1,135,6|0,0:0|0:0,0:0:0:0:
122,212,470833,1,8,3:2:0:0:
271,327,471020,1,0,0:0:0:0:
53,322,471208,2,0,P|37:280|32:236,1,90,2|0,0:0|0:0,0:0:0:0:
287,335,471583,1,8,3:2:0:0:
330,166,471770,1,0,0:0:0:0:
328,160,471864,1,0,0:0:0:0:
326,154,471958,6,0,P|310:113|279:81,1,90,6|0,0:0|0:0,0:0:0:0:
136,34,472333,1,8,3:2:0:0:
183,223,472520,1,0,0:0:0:0:
278,80,472708,2,0,L|365:59,1,90,2|0,0:0|0:0,0:0:0:0:
275,296,473083,2,0,B|253:205|253:205|264:166,1,135,8|0,3:2|0:0,0:0:0:0:
274,150,473458,5,0,0:0:0:0:
356,286,473645,1,6,3:2:0:0:
158,259,473833,1,6,3:2:0:0:
356,286,474020,1,6,3:2:0:0:
331,121,474208,5,2,3:2:0:0:
328,112,474301,1,0,3:2:0:0:
324,103,474395,1,2,3:2:0:0:
319,95,474489,1,0,3:2:0:0:
301,74,474583,5,2,3:2:0:0:
278,88,474676,1,0,3:2:0:0:
242,96,474770,1,2,3:2:0:0:
196,98,474864,1,0,3:2:0:0:
144,82,474958,5,6,3:2:0:0:
425,270,478317,6,0,L|390:241,3,45,2|0|0|0,3:2|3:2|3:2|3:2,3:2:0:0:
319,295,478692,2,0,L|293:258,3,45,10|0|0|0,3:2|3:2|3:2|3:2,3:2:0:0:
211,291,479067,2,0,L|195:248,3,45,2|0|0|0,3:2|3:2|3:2|3:2,3:2:0:0:
108,259,479442,2,0,L|103:214,3,45,10|0|8|0,3:2|3:2|3:2|3:2,3:2:0:0:
52,150,479817,6,0,B|63:108|63:108|94:117|124:103|124:103|160:113,1,144,2|0,0:0|0:0,0:0:0:0:
390,292,480567,2,0,B|370:243|382:191|382:191|363:200|342:199,1,144,2|0,0:0|0:0,0:0:0:0:
210,247,481317,6,0,P|227:263|247:276,2,48,2|0|0,0:0|0:0|0:0,0:0:0:0:
146,204,481692,2,0,P|124:215|102:222,2,48,2|0|0,0:0|0:0|0:0,0:0:0:0:
201,151,482067,5,2,0:0:0:0:
249,91,482192,2,0,P|269:79|292:73,1,48
369,82,482442,5,2,0:0:0:0:
389,156,482567,2,0,P|395:179|407:199,1,48
466,246,482817,6,0,P|422:239|380:252,1,90,6|0,0:0|0:0,0:0:0:0:
226,351,483192,2,0,B|211:267|211:267|226:219,1,135,8|0,0:0|0:0,0:0:0:0:
244,188,483567,1,2,0:0:0:0:
297,293,483754,1,0,0:0:0:0:
197,84,483942,1,8,0:0:0:0:
179,283,484129,1,0,0:0:0:0:
363,201,484317,5,2,0:0:0:0:
197,84,484504,1,2,0:0:0:0:
179,283,484692,1,8,0:0:0:0:
305,107,484879,1,2,0:0:0:0:
179,283,485067,2,0,B|57:303|57:303|95:261,1,180,2|8,0:0|0:0,0:0:0:0:
233,161,485629,1,0,0:0:0:0:
237,157,485723,1,0,0:0:0:0:
241,153,485817,6,0,P|256:111|253:66,1,90,6|0,0:0|0:0,0:0:0:0:
107,175,486192,2,0,P|91:216|94:261,1,90,8|0,0:0|0:0,0:0:0:0:
251,362,486567,2,0,P|266:320|263:275,1,90,2|0,0:0|0:0,0:0:0:0:
425,170,486942,2,0,B|401:212|413:256|413:256|451:281,1,135,8|0,0:0|0:0,0:0:0:0:
485,269,487317,5,2,0:0:0:0:
443,76,487504,1,2,0:0:0:0:
485,269,487692,1,8,0:0:0:0:
355,178,487879,1,2,0:0:0:0:
215,257,488067,6,0,L|222:302,1,45,2|0,0:0|0:0,0:0:0:0:
122,172,488254,2,0,L|128:127,1,45
273,23,488442,5,8,3:2:0:0:
271,58,488535,1,0,3:2:0:0:
270,94,488629,1,8,3:2:0:0:
269,130,488723,1,0,3:2:0:0:
284,163,488817,6,0,L|373:154,1,90,6|0,0:0|0:0,0:0:0:0:
177,50,489192,2,0,B|122:47|85:65|85:65|63:100,1,135,8|0,0:0|0:0,0:0:0:0:
72,170,489567,2,0,P|84:212|77:256,1,90,2|0,0:0|0:0,0:0:0:0:
229,337,489942,1,8,0:0:0:0:
200,190,490129,1,0,0:0:0:0:
148,360,490317,5,2,0:0:0:0:
364,188,490504,1,2,0:0:0:0:
166,254,490692,1,8,0:0:0:0:
346,310,490879,1,2,0:0:0:0:
146,359,491067,2,0,P|75:308|65:221,1,180,2|8,0:0|0:0,0:0:0:0:
124,69,491629,1,0,0:0:0:0:
128,73,491723,1,0,0:0:0:0:
132,77,491817,6,0,B|194:106|262:67|262:67|220:51,1,180,6|8,0:0|0:0,0:0:0:0:
58,147,492379,1,0,0:0:0:0:
239,219,492567,2,0,B|306:218|354:186|354:186|403:217,1,180,6|8,0:0|0:0,0:0:0:0:
288,329,493129,1,0,0:0:0:0:
134,162,493317,5,6,0:0:0:0:
338,105,493504,1,0,0:0:0:0:
181,68,493692,1,14,0:0:0:0:
331,209,493879,1,0,0:0:0:0:
210,297,494067,6,0,L|215:341,1,45,6|0,0:0|0:0,0:0:0:0:
119,321,494254,2,0,L|113:365,1,45
30,289,494442,5,8,3:2:0:0:
27,253,494535,1,0,3:2:0:0:
24,217,494629,1,8,3:2:0:0:
21,181,494723,1,0,3:2:0:0:
18,145,494817,6,0,P|51:114|91:95,1,90,6|0,0:0|0:0,0:0:0:0:
214,263,495192,2,0,P|251:287|295:293,1,90,8|0,0:0|0:0,0:0:0:0:
437,158,495567,1,2,0:0:0:0:
415,42,495754,1,0,0:0:0:0:
282,202,495942,1,8,0:0:0:0:
484,247,496129,1,0,0:0:0:0:
311,344,496317,5,2,0:0:0:0:
291,66,496504,1,2,0:0:0:0:
151,217,496692,1,8,0:0:0:0:
367,200,496879,1,2,0:0:0:0:
151,217,497067,2,0,B|132:153|165:94|165:94|213:74,1,180,2|8,0:0|0:0,0:0:0:0:
294,227,497629,1,0,0:0:0:0:
296,233,497723,1,0,0:0:0:0:
298,239,497817,6,0,P|298:284|288:328,1,90,6|0,0:0|0:0,0:0:0:0:
60,167,498192,1,8,0:0:0:0:
228,184,498379,1,0,0:0:0:0:
60,167,498567,2,0,P|60:122|70:78,1,90,2|0,0:0|0:0,0:0:0:0:
81,64,498848,1,0,0:0:0:0:
94,52,498942,1,8,0:0:0:0:
290,154,499129,1,0,0:0:0:0:
295,171,499223,1,0,0:0:0:0:
296,189,499317,5,2,0:0:0:0:
321,23,499504,1,2,0:0:0:0:
344,258,499692,1,8,0:0:0:0:
134,150,499879,1,2,0:0:0:0:
364,83,500067,5,2,0:0:0:0:
389,89,500160,1,0,0:0:0:0:
414,100,500254,1,0,0:0:0:0:
437,114,500348,1,0,0:0:0:0:
456,144,500442,5,8,3:2:0:0:
436,172,500535,1,0,3:2:0:0:
420,205,500629,1,8,3:2:0:0:
411,240,500723,1,0,3:2:0:0:
417,286,500817,6,0,B|374:300|374:300|334:278|277:282,1,144,6|8,0:0|0:0,0:0:0:0:
121,358,501567,2,0,P|132:306|131:252,1,108,2|0,0:0|0:0,0:0:0:0:
121,225,501942,1,8,0:0:0:0:
94,89,502129,1,0,0:0:0:0:
226,264,502317,5,6,0:0:0:0:
205,58,502504,1,0,0:0:0:0:
193,71,502692,1,8,0:0:0:0:
238,277,502879,1,0,0:0:0:0:
417,200,503067,6,0,L|461:197,1,45,2|0,0:0|0:0,0:0:0:0:
433,121,503254,2,0,L|477:118,1,45
363,82,503442,5,8,3:2:0:0:
336,88,503535,1,0,3:2:0:0:
312,99,503629,1,8,3:2:0:0:
290,115,503723,1,0,3:2:0:0:
268,144,503817,6,0,B|247:184|247:184|255:98|218:55,1,180,6|8,0:0|0:0,0:0:0:0:
71,6,504379,1,0,0:0:0:0:
189,292,504567,1,6,0:0:0:0:
356,259,504754,1,0,0:0:0:0:
156,125,504942,1,8,0:0:0:0:
323,92,505129,1,0,0:0:0:0:
150,350,505317,5,6,0:0:0:0:
113,73,505504,1,0,0:0:0:0:
264,290,505692,5,14,0:0:0:0:
256,10,505879,1,0,0:0:0:0:
393,344,506067,5,6,0:0:0:0:
396,308,506160,1,0,0:0:0:0:
399,272,506254,1,0,0:0:0:0:
403,236,506348,1,0,0:0:0:0:
388,193,506442,5,8,0:0:0:0:
384,148,506535,1,0,0:0:0:0:
381,103,506629,1,8,0:0:0:0:
378,58,506723,1,0,0:0:0:0:
400,18,506817,5,6,0:0:0:0:
99,158,509844,6,0,L|188:166,1,90,6|0,0:0|0:0,0:0:0:0:
413,237,510219,2,0,L|323:245,1,90,8|0,0:0|0:0,0:0:0:0:
196,379,510594,2,0,P|203:334|193:291,1,90
327,114,510969,2,0,B|297:166|323:245,1,135,8|0,0:0|0:0,0:0:0:0:
329,280,511344,6,0,B|300:221|230:201|230:201|182:215,2,180,6|8|0,0:0|0:0|0:0,0:0:0:0:
198,372,512281,1,0,0:0:0:0:
56,255,512469,2,0,P|50:211|64:169,1,90,8|0,0:0|0:0,0:0:0:0:
209,55,512844,6,0,P|281:113|366:100,1,180,6|8,0:0|0:0,0:0:0:0:
309,1,513406,1,0,0:0:0:0:
180,162,513594,5,2,0:0:0:0:
169,186,513687,1,0,0:0:0:0:
164,213,513781,1,0,0:0:0:0:
163,240,513875,1,0,0:0:0:0:
172,275,513969,5,8,3:2:0:0:
199,251,514062,1,0,3:2:0:0:
231,236,514156,1,0,3:2:0:0:
267,230,514250,1,0,3:2:0:0:
306,248,514344,6,0,P|359:247|401:214,1,107.999996704102,6|0,0:0|0:0,0:0:0:0:
333,169,514625,6,0,B|307:160|307:160|378:123,1,107.999996704102,2|0,0:0|0:0,0:0:0:0:
464,150,514906,5,2,0:0:0:0:
464,150,515844,6,0,P|456:193|433:232,1,90,6|0,0:0|0:0,0:0:0:0:
294,323,516219,1,8,0:0:0:0:
226,172,516406,1,0,0:0:0:0:
224,166,516500,1,0,0:0:0:0:
222,160,516594,2,0,B|204:72,1,90,2|0,0:0|0:0,0:0:0:0:
134,230,516969,2,0,B|116:318,1,90,8|0,0:0|0:0,0:0:0:0:
312,295,517344,5,2,0:0:0:0:
222,160,517531,1,0,0:0:0:0:
198,333,517719,1,8,0:0:0:0:
200,339,517812,1,0,0:0:0:0:
317,189,518000,1,0,0:0:0:0:
319,183,518094,2,0,B|341:139|341:139|306:73|340:13,2,180,2|8|6,0:0|0:0|0:0,0:0:0:0:
505,243,519031,5,0,0:0:0:0:
442,75,519219,2,0,P|421:113|413:158,1,90,8|0,0:0|0:0,0:0:0:0:
418,228,519500,1,0,0:0:0:0:
420,234,519594,2,0,P|381:212|336:204,1,90,2|0,0:0|0:0,0:0:0:0:
216,356,519969,2,0,P|238:317|246:272,1,90,8|0,0:0|0:0,0:0:0:0:
112,360,520344,5,2,0:0:0:0:
331,294,520531,1,2,0:0:0:0:
195,104,520719,1,10,0:0:0:0:
153,281,520906,1,2,0:0:0:0:
310,112,521094,1,2,0:0:0:0:
331,294,521281,1,2,0:0:0:0:
175,207,521469,1,10,0:0:0:0:
330,116,521656,1,8,0:0:0:0:
315,317,521844,6,0,P|276:338|232:348,1,90,6|0,0:0|0:0,0:0:0:0:
60,293,522219,1,8,0:0:0:0:
210,192,522406,1,0,0:0:0:0:
214,188,522500,1,0,0:0:0:0:
218,184,522594,2,0,P|217:139|198:99,1,90,2|0,0:0|0:0,0:0:0:0:
113,263,522969,2,0,P|144:296|186:312,1,90,8|0,0:0|0:0,0:0:0:0:
376,251,523344,5,6,0:0:0:0:
306,62,523531,1,0,0:0:0:0:
217,224,523719,2,0,L|226:337,1,90,8|0,0:0|0:0,0:0:0:0:
230,330,524000,1,0,0:0:0:0:
236,346,524094,1,2,0:0:0:0:
332,263,524281,1,0,0:0:0:0:
122,179,524469,1,8,0:0:0:0:
359,108,524656,1,0,0:0:0:0:
106,36,524844,6,0,P|36:89|36:176,1,180,6|8,0:0|0:0,0:0:0:0:
202,216,525406,1,0,0:0:0:0:
203,198,525500,1,0,0:0:0:0:
197,181,525594,2,0,P|166:148|125:133,1,90,6|0,0:0|0:0,0:0:0:0:
34,271,525969,2,0,P|78:261|112:232,1,90,8|0,0:0|0:0,0:0:0:0:
21,3,526344,6,0,B|8:129|8:129|35:175,1,180,6|8,0:0|0:0,0:0:0:0:
186,80,526906,1,0,0:0:0:0:
200,69,527000,1,0,0:0:0:0:
216,62,527094,2,0,P|259:51|303:57,1,90,6|0,0:0|0:0,0:0:0:0:
322,260,527469,1,8,3:2:0:0:
298,247,527562,1,0,3:2:0:0:
278,228,527656,1,8,3:2:0:0:
263,206,527750,1,0,3:2:0:0:
254,181,527844,6,0,L|267:91,1,90,6|0,0:0|0:0,0:0:0:0:
384,228,528219,1,8,0:0:0:0:
209,277,528406,1,0,0:0:0:0:
203,279,528500,1,0,0:0:0:0:
197,281,528594,2,0,P|152:275|113:254,1,90,2|0,0:0|0:0,0:0:0:0:
319,241,528969,2,0,P|325:285|314:328,1,90,8|0,0:0|0:0,0:0:0:0:
193,143,529344,6,0,P|187:99|198:56,1,90,2|0,0:0|0:0,0:0:0:0:
319,241,529719,1,8,0:0:0:0:
438,119,529906,1,0,0:0:0:0:
436,113,530000,1,0,0:0:0:0:
434,107,530094,2,0,B|390:60|324:50|324:50|278:78,1,180,2|8,0:0|0:0,0:0:0:0:
319,241,530656,2,0,L|334:153,1,90,0|6,0:0|0:0,0:0:0:0:
405,302,531031,5,0,0:0:0:0:
235,329,531219,1,8,0:0:0:0:
405,302,531406,1,0,0:0:0:0:
411,300,531500,1,0,0:0:0:0:
417,298,531594,2,0,P|395:260|360:231,1,90,2|0,0:0|0:0,0:0:0:0:
147,322,531969,2,0,P|189:333|234:329,1,90,8|0,0:0|0:0,0:0:0:0:
317,170,532344,5,2,0:0:0:0:
147,322,532531,1,2,0:0:0:0:
213,152,532719,1,10,0:0:0:0:
341,285,532906,1,2,0:0:0:0:
161,229,533094,1,2,0:0:0:0:
273,360,533281,1,2,0:0:0:0:
275,366,533375,1,0,0:0:0:0:
277,372,533469,1,10,0:0:0:0:
240,169,533656,1,8,0:0:0:0:
180,357,533844,6,0,P|136:362|93:349,2,90,6|0|8,0:0|0:0|0:0,0:0:0:0:
331,238,534406,1,0,0:0:0:0:
335,234,534500,1,0,0:0:0:0:
339,230,534594,2,0,P|344:186|334:142,1,90,2|0,0:0|0:0,0:0:0:0:
193,231,534969,1,8,0:0:0:0:
95,83,535156,1,0,0:0:0:0:
124,268,535344,5,6,0:0:0:0:
185,50,535531,1,0,0:0:0:0:
193,231,535719,1,8,0:0:0:0:
245,105,535906,1,0,0:0:0:0:
249,101,536000,1,0,0:0:0:0:
253,97,536094,2,0,P|297:101|339:118,1,90,2|0,0:0|0:0,0:0:0:0:
448,263,536469,1,8,0:0:0:0:
295,326,536656,1,0,0:0:0:0:
406,36,536844,6,0,P|476:89|476:176,1,180,6|8,0:0|0:0,0:0:0:0:
362,307,537406,1,0,0:0:0:0:
356,290,537500,1,0,0:0:0:0:
350,273,537594,2,0,P|309:254|264:255,1,90,6|0,0:0|0:0,0:0:0:0:
87,384,537969,2,0,P|94:340|81:297,1,90,8|0,0:0|0:0,0:0:0:0:
0,137,538344,6,0,B|39:157|74:141|74:141|94:159|94:159|131:144|168:148,1,180,6|8,0:0|0:0,0:0:0:0:
285,51,538906,1,0,0:0:0:0:
297,64,539000,1,0,0:0:0:0:
305,80,539094,2,0,L|298:170,1,90,6|0,0:0|0:0,0:0:0:0:
198,312,539469,1,8,3:2:0:0:
170,287,539562,1,0,3:2:0:0:
146,258,539656,1,8,3:2:0:0:
135,222,539750,1,0,3:2:0:0:
131,185,539844,6,0,B|160:169|160:169|215:176|252:149|252:149|277:168|305:170,1,180,6|8,0:0|0:0,0:0:0:0:
198,312,540406,1,0,0:0:0:0:
185,56,540594,2,0,P|218:26|260:11,2,90,2|0|8,0:0|0:0|0:0,0:0:0:0:
298,169,541156,1,0,0:0:0:0:
165,312,541344,6,0,L|76:296,1,90,6|0,0:0|0:0,0:0:0:0:
347,240,541719,2,0,L|435:224,1,90,8|0,0:0|0:0,0:0:0:0:
212,40,542094,2,0,L|196:128,1,90,2|0,0:0|0:0,0:0:0:0:
300,344,542469,2,0,L|315:255,1,90,8|0,0:0|0:0,0:0:0:0:
163,78,542844,6,0,P|75:83|12:145,2,180,6|8|6,0:0|0:0|0:0,0:0:0:0:
195,242,543781,1,0,0:0:0:0:
197,248,543875,1,0,0:0:0:0:
199,254,543969,1,8,0:0:0:0:
275,96,544156,1,0,0:0:0:0:
277,90,544250,1,0,0:0:0:0:
279,84,544344,6,0,B|310:66|348:89|348:89|392:49|447:58,1,180,6|8,0:0|0:0,0:0:0:0:
335,229,544906,1,0,0:0:0:0:
147,109,545094,5,6,3:2:0:0:
130,101,545187,1,0,3:2:0:0:
112,97,545281,1,0,3:2:0:0:
94,94,545375,1,0,3:2:0:0:
59,102,545469,5,12,3:2:0:0:
70,145,545562,1,0,3:2:0:0:
68,190,545656,1,8,3:2:0:0:
56,233,545750,1,0,3:2:0:0:
75,273,545844,5,14,0:0:0:0:
350,295,548848,6,0,B|337:251|337:251|381:191|341:125,1,180,2|8,3:2|3:2,3:2:0:0:
160,187,549410,1,0,3:2:0:0:
166,189,549504,1,0,3:2:0:0:
172,191,549598,2,0,P|217:192|262:185,1,90,2|0,3:2|3:2,3:2:0:0:
140,82,549973,2,0,P|95:81|50:88,1,90,8|0,3:2|3:2,3:2:0:0:
181,363,550348,6,0,B|192:329|173:288|173:288|189:244|189:244|172:190,1,180,2|8,3:2|3:2,3:2:0:0:
34,215,550910,1,0,3:2:0:0:
32,221,551004,1,0,3:2:0:0:
30,227,551098,2,0,B|17:275|33:321|33:321|67:340,2,135,2|0|0,3:2|3:2|3:2,3:2:0:0:
155,100,551848,6,0,L|141:57,1,45,6|0,3:0|3:0,3:0:0:0:
249,213,552035,2,0,L|205:203,1,45,2|0,3:2|3:0,3:0:0:0:
316,84,552223,2,0,L|264:69,1,45,8|0,3:2|3:0,3:0:0:0:
439,173,552410,2,0,L|398:193,1,45,2|0,3:2|3:0,3:0:0:0:
332,157,552598,5,6,3:0:0:0:
296,159,552691,1,0,3:0:0:0:
262,171,552785,1,0,3:2:0:0:
234,193,552879,1,0,3:0:0:0:
216,234,552973,5,10,3:0:0:0:
181,263,553067,1,0,3:0:0:0:
137,275,553161,1,2,3:0:0:0:
93,265,553254,1,0,3:0:0:0:
61,232,553348,6,0,B|59:164|98:107|98:107|120:150,1,180,6|8,0:0|0:0,0:0:0:0:
167,343,553910,1,0,0:0:0:0:
169,349,554004,1,0,0:0:0:0:
171,355,554098,2,0,P|215:357|259:346,1,90,2|0,0:0|0:0,0:0:0:0:
239,144,554473,2,0,P|215:182|203:226,1,90,8|0,0:0|0:0,0:0:0:0:
373,356,554848,6,0,P|397:318|409:274,1,90,2|0,0:0|0:0,0:0:0:0:
393,99,555223,1,8,0:0:0:0:
264,235,555410,1,0,3:0:0:0:
260,239,555504,1,0,3:0:0:0:
256,243,555598,1,2,0:0:0:0:
239,56,555785,1,0,0:0:0:0:
256,243,555973,1,8,0:0:0:0:
393,99,556160,1,0,0:0:0:0:
347,318,556348,6,0,B|226:373|226:373|237:326,1,180,2|8,0:0|0:0,0:0:0:0:
223,156,556910,1,0,0:0:0:0:
221,150,557004,1,0,0:0:0:0:
219,144,557098,2,0,P|181:90|116:84,1,135,2|0,0:0|0:0,0:0:0:0:
101,93,557473,1,8,0:0:0:0:
224,2,557660,1,0,0:0:0:0:
234,227,557848,6,0,P|241:271|258:312,1,90,2|0,0:0|3:0,0:0:0:0:
268,328,558129,1,0,3:0:0:0:
282,339,558223,1,8,0:0:0:0:
318,169,558410,1,0,0:0:0:0:
157,288,558598,1,2,0:0:0:0:
318,169,558785,1,0,3:0:0:0:
157,288,558973,1,8,3:2:0:0:
181,101,559160,1,0,0:0:0:0:
297,268,559348,6,0,B|320:302|320:302|353:240|318:168,1,180,2|8,0:0|0:0,0:0:0:0:
120,146,559910,1,0,0:0:0:0:
114,144,560004,1,0,0:0:0:0:
108,142,560098,2,0,B|67:144|67:144|104:204|184:210,1,180,2|8,0:0|0:0,0:0:0:0:
394,146,560660,1,0,0:0:0:0:
396,140,560754,1,0,0:0:0:0:
398,134,560848,6,0,L|406:45,1,90,2|0,0:0|0:0,0:0:0:0:
298,242,561223,2,0,L|306:331,1,90,8|0,0:0|0:0,0:0:0:0:
198,140,561598,2,0,L|206:51,1,90,2|0,0:0|0:0,0:0:0:0:
98,248,561973,2,0,L|106:337,1,90,8|0,0:0|0:0,0:0:0:0:
39,50,562348,5,2,0:0:0:0:
112,159,562535,1,0,0:0:0:0:
116,163,562629,1,0,0:0:0:0:
120,167,562723,1,8,0:0:0:0:
193,51,562910,1,0,0:0:0:0:
197,47,563004,1,0,0:0:0:0:
201,43,563098,2,0,B|250:32|250:32|331:56,1,135,2|0,0:0|0:0,0:0:0:0:
352,85,563473,1,8,0:0:0:0:
190,187,563660,1,0,0:0:0:0:
323,340,563848,6,0,P|332:297|328:252,1,90,2|0,0:0|0:0,0:0:0:0:
323,234,564129,1,0,0:0:0:0:
314,218,564223,1,8,0:0:0:0:
166,364,564410,1,0,3:0:0:0:
164,370,564504,1,0,3:0:0:0:
162,376,564598,1,2,0:0:0:0:
194,145,564786,1,0,0:0:0:0:
32,308,564973,1,8,0:0:0:0:
260,272,565161,1,0,0:0:0:0:
32,308,565348,6,0,B|21:266|21:266|46:235|46:235|25:190|40:140,1,180,6|8,0:0|0:0,0:0:0:0:
250,182,565910,1,0,0:0:0:0:
244,184,566004,1,0,0:0:0:0:
238,186,566098,2,0,P|194:194|149:182,1,90,2|0,0:0|0:0,0:0:0:0:
326,43,566473,2,0,P|334:87|322:132,1,90,8|0,0:0|0:0,0:0:0:0:
244,356,566848,6,0,P|220:317|215:271,1,90,2|0,0:0|0:0,0:0:0:0:
253,84,567223,2,0,P|214:107|168:112,1,90,8|0,0:0|3:0,0:0:0:0:
153,109,567504,1,0,3:0:0:0:
136,102,567598,1,2,0:0:0:0:
335,139,567785,1,0,0:0:0:0:
136,102,567973,1,8,0:0:0:0:
236,280,568160,1,0,0:0:0:0:
404,107,568348,6,0,P|358:39|287:79,1,180,2|8,0:0|0:0,0:0:0:0:
352,238,568910,1,0,0:0:0:0:
354,244,569004,1,0,0:0:0:0:
356,250,569098,2,0,B|360:295|340:335|340:335|297:356,1,135,2|0,0:0|0:0,0:0:0:0:
262,364,569473,1,8,0:0:0:0:
234,117,569660,1,0,0:0:0:0:
198,246,569848,6,0,P|181:287|152:320,1,90,2|0,0:0|3:0,0:0:0:0:
138,332,570129,1,0,3:0:0:0:
121,338,570223,1,8,0:0:0:0:
109,145,570410,1,0,0:0:0:0:
119,130,570504,1,0,0:0:0:0:
132,118,570598,1,2,0:0:0:0:
305,217,570785,1,0,3:0:0:0:
171,252,570973,1,8,3:2:0:0:
268,81,571160,1,0,0:0:0:0:
441,180,571348,6,0,P|442:224|429:267,1,90,2|0,0:2|0:2,0:2:0:0:
423,284,571629,1,0,0:2:0:0:
415,300,571723,1,8,0:2:0:0:
317,193,571910,1,0,0:2:0:0:
301,185,572004,1,0,0:2:0:0:
284,178,572098,2,0,P|241:165|196:166,1,90,2|0,0:2|0:2,0:2:0:0:
71,348,572473,2,0,P|115:348|158:335,1,90,8|0,0:2|0:2,0:2:0:0:
176,328,572754,1,0,0:2:0:0:
191,317,572848,6,0,L|210:229,1,90,2|0,0:2|0:2,0:2:0:0:
302,47,573223,2,0,L|321:135,1,90,8|0,0:2|0:2,0:2:0:0:
305,370,573598,2,0,L|286:282,1,90,2|0,0:2|0:2,0:2:0:0:
207,14,573973,2,0,L|188:102,1,90,8|0,0:2|0:2,0:2:0:0:
181,128,574254,1,0,0:2:0:0:
174,154,574348,5,2,0:2:0:0:
210,294,574535,1,0,0:2:0:0:
222,318,574629,1,0,0:2:0:0:
234,342,574723,1,8,0:2:0:0:
314,207,574910,1,0,0:2:0:0:
326,183,575004,1,0,0:2:0:0:
338,159,575098,2,0,B|372:131|372:131|414:160|458:154,1,135,2|0,0:2|0:2,0:2:0:0:
483,147,575473,1,8,0:2:0:0:
361,44,575660,1,0,0:2:0:0:
385,254,575848,6,0,L|403:295,1,45,6|0,0:3|0:0,0:0:0:0:
269,326,576035,2,0,L|305:352,1,45
207,210,576223,2,0,L|249:225,1,45,8|0,0:2|0:0,0:0:0:0:
94,338,576410,2,0,L|138:330,1,45
203,281,576598,5,6,0:0:0:0:
212,246,576691,1,0,0:0:0:0:
207,210,576785,1,0,0:0:0:0:
190,180,576879,1,0,0:0:0:0:
158,147,576973,5,10,0:0:0:0:
147,104,577066,1,0,0:0:0:0:
153,59,577160,1,2,0:0:0:0:
175,21,577254,1,0,0:0:0:0:
219,24,577348,6,0,L|288:41,1,72,6|0,0:2|0:2,0:2:0:0:
303,45,577629,1,0,0:2:0:0:
317,49,577723,1,8,0:2:0:0:
415,145,577910,5,0,0:2:0:0:
420,159,578004,1,0,0:2:0:0:
425,173,578098,2,0,L|435:207,1,36,2|0,0:0|0:2,0:2:0:0:
336,246,578285,2,0,L|325:280,1,36,0|0,0:2|0:2,0:2:0:0:
239,196,578473,5,8,0:2:0:0:
235,182,578566,1,0,0:2:0:0:
231,167,578660,1,8,0:2:0:0:
227,152,578754,1,0,0:2:0:0:
259,90,578848,5,6,0:0:0:0:
414,201,583018,6,0,L|325:210,1,90,2|0,0:0|0:0,0:0:0:0:
98,256,583393,2,0,L|188:265,1,90,8|0,0:0|0:0,0:0:0:0:
424,312,583768,2,0,P|381:320|345:347,1,90,2|0,0:0|0:0,0:0:0:0:
88,173,584143,2,0,P|132:164|168:137,1,90,8|2,0:0|0:0,0:0:0:0:
176,121,584424,1,2,0:0:0:0:
181,103,584518,6,0,L|172:59,3,45,2|0|0|0,0:0|0:0|0:0|0:0,0:0:0:0:
239,154,584893,2,0,L|230:198,3,45,8|0|0|0,0:0|0:0|0:0|0:0,0:0:0:0:
296,104,585268,5,2,0:0:0:0:
320,91,585361,1,0,0:0:0:0:
347,87,585455,1,2,0:0:0:0:
373,92,585549,1,0,0:0:0:0:
401,115,585643,5,8,0:0:0:0:
384,146,585736,1,0,0:0:0:0:
377,181,585830,1,2,0:0:0:0:
383,217,585924,1,0,0:0:0:0:
403,247,586018,6,0,L|424:264,7,22.5,2|0|0|0|0|0|0|0,0:2|0:0|0:0|0:0|0:0|0:0|0:0|0:0,0:0:0:0:
369,314,586393,2,0,L|373:336,7,22.5
305,278,586768,5,2,0:2:0:0:
305,278,587518,6,0,L|394:265,1,90,6|0,0:0|0:0,0:0:0:0:
193,180,587893,2,0,L|103:167,1,90,8|0,0:0|0:0,0:0:0:0:
319,129,588268,2,0,P|329:85|330:40,1,90,2|0,0:0|0:0,0:0:0:0:
193,255,588643,2,0,P|182:298|181:343,1,90,8|0,0:0|0:0,0:0:0:0:
43,138,589018,6,0,P|53:94|54:49,1,90,2|0,0:0|0:0,0:0:0:0:
49,32,589299,1,0,0:0:0:0:
39,17,589393,2,0,P|77:37|121:50,1,90,8|0,0:0|0:0,0:0:0:0:
409,170,589768,2,0,P|364:171|318:194,1,90,2|0,0:0|0:0,0:0:0:0:
314,205,590049,1,0,0:0:0:0:
307,221,590143,1,8,0:0:0:0:
359,84,590330,1,0,0:0:0:0:
396,300,590518,6,0,P|333:337|271:336,1,135,2|0,0:0|0:0,0:0:0:0:
219,292,590893,2,0,P|210:335|179:367,1,90,8|0,0:0|0:0,0:0:0:0:
119,177,591268,2,0,P|149:144|191:130,1,90,2|0,0:0|0:0,0:0:0:0:
207,134,591549,1,0,0:0:0:0:
222,144,591643,1,8,0:0:0:0:
303,30,591830,1,0,0:0:0:0:
408,253,592018,6,0,B|345:291|279:249|279:249|257:211,1,180,6|8,0:0|0:0,0:0:0:0:
198,67,592580,1,0,0:0:0:0:
127,283,592768,1,6,0:0:0:0:
151,296,592861,1,0,0:0:0:0:
177,302,592955,1,0,0:0:0:0:
203,298,593049,1,0,0:0:0:0:
232,276,593143,5,8,0:0:0:0:
239,310,593236,1,0,0:0:0:0:
258,341,593330,1,8,0:0:0:0:
286,362,593424,1,0,0:0:0:0:
322,369,593518,6,0,P|333:326|334:281,1,90,6|0,0:0|0:0,0:0:0:0:
331,263,593799,1,0,0:0:0:0:
325,246,593893,2,0,P|348:284|379:316,1,90,8|0,0:0|0:0,0:0:0:0:
426,166,594268,2,0,B|437:123|415:83|415:83|423:34,1,135,2|0,0:0|0:0,0:0:0:0:
430,18,594643,1,8,0:0:0:0:
316,142,594830,1,0,0:0:0:0:
176,241,595018,6,0,B|165:213|183:184|183:184|156:152|160:114,2,135,2|2|2,0:0|0:0|0:0,0:0:0:0:
264,361,595768,1,2,0:0:0:0:
264,215,595955,1,0,0:0:0:0:
178,333,596143,1,8,0:0:0:0:
316,288,596330,1,2,0:0:0:0:
332,280,596424,1,2,0:0:0:0:
349,274,596518,6,0,B|381:279|406:266|406:266|440:297|476:286,2,135,2|0|0,0:0|0:0|0:0,0:0:0:0:
163,110,597268,2,0,B|131:105|106:118|106:118|72:87|35:97,1,135,2|0,0:0|0:0,0:0:0:0:
24,110,597643,1,8,0:0:0:0:
122,32,597830,1,0,0:0:0:0:
156,273,598018,5,2,0:0:0:0:
347,39,598299,1,2,0:0:0:0:
455,322,598580,1,2,0:0:0:0:
261,368,598768,6,0,P|239:299|245:228,1,144,2|0,0:0|0:0,0:0:0:0:
301,111,599330,1,0,0:0:0:0:
304,132,599424,1,0,0:0:0:0:
307,153,599518,6,0,L|414:140,1,107.999996704102,6|0,0:0|0:0,0:0:0:0:
205,245,599893,2,0,L|98:232,1,107.999996704102,8|0,0:0|0:0,0:0:0:0:
312,360,600268,2,0,P|325:307|320:254,1,107.999996704102,2|0,0:0|0:0,0:0:0:0:
198,24,600643,2,0,P|185:76|190:129,1,107.999996704102,8|0,0:0|0:0,0:0:0:0:
472,106,601018,6,0,P|422:83|369:75,1,107.999996704102,2|0,0:0|0:0,0:0:0:0:
299,85,601299,1,0,0:0:0:0:
293,87,601393,2,0,L|302:194,1,107.999996704102,8|0,0:0|0:0,0:0:0:0:
319,264,601674,1,0,0:0:0:0:
321,270,601768,2,0,P|280:302|227:301,1,107.999996704102,2|0,0:0|0:0,0:0:0:0:
77,141,602143,1,8,0:0:0:0:
171,23,602330,1,0,0:0:0:0:
185,240,602518,6,0,L|193:347,1,107.999996704102,2|0,0:0|0:0,0:0:0:0:
204,366,602799,1,0,0:0:0:0:
215,382,602893,1,8,0:0:0:0:
430,227,603080,1,0,0:0:0:0:
413,213,603174,1,0,0:0:0:0:
390,207,603268,2,0,B|364:207|339:222|339:222|305:173|241:184,1,161.999995056153,2|0,0:0|0:0,0:0:0:0:
227,195,603643,1,8,0:0:0:0:
346,324,603830,1,0,0:0:0:0:
357,130,604018,6,0,B|363:32|413:-11|413:-11|424:48,1,215.999993408203,6|8,0:0|0:0,0:0:0:0:
401,234,604580,1,0,0:0:0:0:
253,51,604768,1,6,0:0:0:0:
221,56,604861,1,0,0:0:0:0:
192,70,604955,1,0,0:0:0:0:
168,92,605049,1,0,0:0:0:0:
153,133,605143,5,8,0:0:0:0:
124,102,605236,1,0,0:0:0:0:
85,85,605330,1,8,0:0:0:0:
42,82,605424,1,0,0:0:0:0:
8,109,605518,6,0,L|32:214,1,107.999996704102,6|0,0:0|0:0,0:0:0:0:
79,268,605799,1,0,0:0:0:0:
83,271,605893,2,0,P|93:219|121:173,1,107.999996704102,8|0,0:0|0:0,0:0:0:0:
286,49,606268,2,0,B|346:51|372:102|372:102|400:106|422:84,1,161.999995056153,2|0,0:0|0:0,0:0:0:0:
432,65,606643,1,8,0:0:0:0:
287,149,606830,1,0,0:0:0:0:
126,43,607018,5,2,0:0:0:0:
174,341,607299,1,2,0:0:0:0:
409,150,607580,1,2,0:0:0:0:
197,83,607768,5,2,0:0:0:0:
317,34,607955,1,0,0:0:0:0:
299,163,608143,1,8,0:0:0:0:
115,96,608330,1,0,0:0:0:0:
121,69,608424,1,0,0:0:0:0:
136,47,608518,5,2,0:0:0:0:
449,169,608799,1,2,0:0:0:0:
187,376,609080,1,2,0:0:0:0:
48,208,609268,5,2,0:0:0:0:
340,42,609549,1,2,0:0:0:0:
336,375,609830,1,2,0:0:0:0:
94,41,610018,5,2,0:0:0:0:
94,41,610580,5,2,0:0:0:0:
174,178,610768,2,0,B|186:132|167:91|167:91|181:71|181:48,2,135,2|2|2,0:0|0:0|0:0,0:0:0:0:
108,330,611518,5,6,0:0:0:0:
415,114,615263,6,0,B|375:101|375:101|343:120|343:120|290:97|245:118,1,180,2|8,0:2|0:2,0:2:0:0:
267,301,615825,1,0,0:2:0:0:
271,297,615919,1,0,0:2:0:0:
275,293,616013,2,0,P|289:250|291:206,1,90,2|0,0:2|0:2,0:2:0:0:
171,305,616388,1,8,0:2:0:0:
355,355,616575,1,0,0:2:0:0:
361,353,616669,1,0,0:2:0:0:
367,351,616763,6,0,P|381:308|387:264,1,90,2|0,0:2|0:2,0:2:0:0:
190,72,617138,2,0,P|176:115|171:160,1,90,8|0,0:2|0:2,0:2:0:0:
420,126,617513,2,0,P|377:112|333:107,1,90,2|0,0:2|0:2,0:2:0:0:
96,303,617888,2,0,P|139:317|184:323,1,90,8|0,0:2|0:2,0:2:0:0:
250,296,618169,1,0,0:2:0:0:
254,292,618263,6,0,B|274:249|264:186|264:186|297:207|322:204|322:204|329:224|330:248,1,215.999993408203,6|0,0:2|0:2,0:2:0:0:
331,249,619763,6,0,B|326:201|326:201|386:156|374:83,2,180,6|8|2,0:2|0:2|0:2,0:2:0:0:
453,201,620700,1,0,0:2:0:0:
262,105,620888,2,0,P|218:98|173:99,1,90,8|0,0:2|0:2,0:2:0:0:
340,332,621263,6,0,B|388:277|357:209|357:209|330:250,1,180,2|8,0:2|0:2,0:2:0:0:
255,376,621825,1,0,0:2:0:0:
331,249,622013,2,0,L|339:159,1,90,2|0,0:2|0:2,0:2:0:0:
173,233,622388,2,0,L|181:323,1,90,8|0,0:2|0:2,0:2:0:0:
271,131,622763,6,0,B|247:83|247:83|184:49|126:82,2,180,2|8|2,0:2|0:2|0:2,0:2:0:0:
187,181,623700,1,0,0:2:0:0:
307,33,623888,2,0,L|396:23,1,90,8|0,0:2|0:2,0:2:0:0:
358,287,624263,6,0,B|320:253|325:208|325:208|358:169|344:122,1,180,2|8,0:2|0:2,0:2:0:0:
246,29,624825,1,0,0:2:0:0:
157,183,625013,1,2,0:2:0:0:
100,40,625200,1,0,0:2:0:0:
222,118,625388,1,8,0:2:0:0:
232,261,625575,1,0,0:2:0:0:
390,116,625763,6,0,B|456:128|487:190|487:190|506:175|501:141,1,180,2|8,0:2|0:2,0:2:0:0:
420,39,626325,1,0,0:2:0:0:
378,232,626513,2,0,P|334:237|290:227,1,90,2|0,0:2|0:2,0:2:0:0:
130,107,626888,2,0,P|174:101|218:111,1,90,8|0,0:2|0:2,0:2:0:0:
197,309,627263,6,0,B|169:353|169:353|151:277|168:226,1,180,2|8,0:2|0:2,0:2:0:0:
218,111,627825,1,0,0:2:0:0:
371,310,628013,2,0,P|384:267|384:222,1,90,2|0,0:2|0:2,0:2:0:0:
304,57,628388,2,0,P|290:99|290:144,1,90,8|0,0:2|0:2,0:2:0:0:
442,286,628763,6,0,L|417:199,1,90,2|0,0:2|0:2,0:2:0:0:
208,270,629138,2,0,L|295:291,1,90,8|0,0:2|0:2,0:2:0:0:
168,134,629513,2,0,L|105:198,1,90,2|0,0:2|0:2,0:2:0:0:
244,185,629888,1,8,0:2:0:0:
205,53,630075,1,0,0:2:0:0:
110,270,630263,6,0,B|140:307|140:307|185:308|185:308|206:345|253:358,2,180,2|8|2,0:2|0:2|0:2,0:2:0:0:
127,95,631200,1,0,0:2:0:0:
189,203,631387,1,8,0:2:0:0:
63,203,631575,1,0,0:2:0:0:
284,72,631763,6,0,B|344:62|383:102|383:102|420:89|444:58,2,180,2|8|2,0:2|0:2|0:2,0:2:0:0:
194,168,632700,1,0,0:2:0:0:
293,257,632888,2,0,L|310:169,1,90,8|0,0:2|0:2,0:2:0:0:
113,247,633263,6,0,B|140:366|140:366|162:311,1,180,2|8,0:2|0:2,0:2:0:0:
200,135,633825,1,0,0:2:0:0:
240,252,634013,2,0,P|284:250|328:239,1,90,2|0,0:2|0:2,0:2:0:0:
446,351,634388,2,0,P|402:339|357:337,1,90,8|0,0:2|0:2,0:2:0:0:
143,370,634763,6,0,B|119:320|142:264|142:264|121:235|123:197,2,180,2|8|2,0:2|0:2|0:2,0:2:0:0:
222,205,635700,1,0,0:2:0:0:
31,197,635888,2,0,P|32:242|48:285,1,90,8|0,0:2|0:2,0:2:0:0:
222,205,636263,6,0,B|238:157|222:117|222:117|206:77|222:29,1,180,2|8,0:2|0:2,0:2:0:0:
329,73,636825,1,0,0:2:0:0:
117,162,637013,1,2,0:2:0:0:
148,19,637200,1,0,0:2:0:0:
274,207,637388,1,8,0:2:0:0:
243,64,637575,1,0,0:2:0:0:
170,266,637763,6,0,B|153:312|153:312|203:359|281:334,1,180,2|8,0:2|0:2,0:2:0:0:
414,251,638325,1,0,0:2:0:0:
261,125,638513,2,0,L|244:214,1,90,2|0,0:2|0:2,0:2:0:0:
351,83,638888,2,0,P|323:47|283:28,1,90,8|0,0:2|0:2,0:2:0:0:
68,185,639263,6,0,B|54:157|54:157|75:126|75:126|46:76|63:17,1,180,2|8,0:2|0:2,0:2:0:0:
256,72,639825,1,0,0:2:0:0:
168,257,640013,2,0,P|156:213|159:168,1,90,2|0,0:2|0:2,0:2:0:0:
344,276,640388,2,0,P|355:319|352:364,1,90,8|0,0:2|0:2,0:2:0:0:
52,175,640763,6,0,L|63:85,1,90,2|0,0:2|0:2,0:2:0:0:
460,209,641138,2,0,L|471:298,1,90,8|0,0:2|0:2,0:2:0:0:
119,357,641513,2,0,L|130:267,1,90,2|0,0:2|0:2,0:2:0:0:
393,27,641888,2,0,L|404:116,1,90,8|0,0:2|0:2,0:2:0:0:
382,336,642263,6,0,B|333:357|333:357|305:341|305:341|257:358|212:337,1,180,2|8,0:2|0:2,0:2:0:0:
130,48,643013,2,0,B|179:27|179:27|207:43|207:43|255:26|300:46,1,180,2|8,0:2|0:2,0:2:0:0:
311,259,643575,1,0,0:2:0:0:
249,152,643763,5,6,0:2:0:0:
342,184,647448,5,0,0:0:0:0:
340,178,647536,1,0,0:0:0:0:
338,172,647624,1,2,0:0:0:0:
238,21,647801,1,0,0:0:0:0:
188,218,647977,2,0,L|173:306,1,90,8|2,0:0|0:0,0:0:0:0:
178,324,648242,1,0,0:0:0:0:
185,340,648330,1,0,0:0:0:0:
309,216,648507,1,2,0:0:0:0:
99,166,648683,1,8,0:0:0:0:
232,81,648860,1,0,0:0:0:0:
367,173,649036,5,2,0:0:0:0:
145,211,649213,1,0,0:0:0:0:
382,183,649389,5,10,0:0:0:0:
129,200,649566,1,0,0:0:0:0:
396,197,649742,5,2,0:0:0:0:
115,186,649919,1,0,0:0:0:0:
350,67,650095,5,10,0:0:0:0:
252,330,650272,1,0,0:0:0:0:
154,67,650448,6,0,B|212:57|212:57|260:75|289:122,1,161.999995056153,2|0,0:0|0:0,0:0:0:0:
310,190,650801,6,0,B|265:176|265:176|292:110|373:96,1,188.999994232178,8|0,0:0|0:0,0:0:0:0:
445,97,651154,5,2,0:0:0:0:
214,38,651330,1,2,0:0:0:0:
67,226,651507,5,10,0:0:0:0:
298,167,651683,1,2,0:0:0:0:
160,363,651860,6,0,P|178:304|228:340,1,144,2|0,0:0|0:0,0:0:0:0:
228,340,652565,5,2,0:0:0:0:
270,239,652918,1,2,0:0:0:0:
213,142,653271,6,0,P|218:97|230:54,1,90,6|0,0:0|0:0,0:0:0:0:
301,207,653624,1,8,0:0:0:0:
125,256,653801,2,0,P|80:250|37:238,2,90,0|2|2,0:0|0:0|0:0,0:0:0:0:
270,239,654330,1,8,0:0:0:0:
168,132,654507,1,0,0:0:0:0:
166,126,654683,6,0,L|179:31,2,90,2|0|8,0:0|0:0|0:0,0:0:0:0:
270,239,655213,1,0,0:0:0:0:
363,107,655389,1,2,0:0:0:0:
365,101,655565,1,2,0:0:0:0:
374,279,655742,1,8,0:0:0:0:
284,146,655918,1,0,0:0:0:0:
143,344,656095,6,0,P|128:302|127:258,1,90,6|0,0:0|0:0,0:0:0:0:
152,113,656448,1,8,0:0:0:0:
252,277,656624,2,0,P|267:234|268:190,1,90,0|2,0:0|0:0,0:0:0:0:
224,47,656977,1,2,0:0:0:0:
139,209,657154,1,8,0:0:0:0:
18,55,657330,6,0,P|62:51|107:57,2,90,0|2|0,0:0|0:0|0:0,0:0:0:0:
67,227,657860,1,8,0:0:0:0:
226,109,658036,1,0,0:0:0:0:
207,312,658213,1,2,0:0:0:0:
119,130,658389,1,2,0:0:0:0:
329,146,658565,2,0,L|342:236,1,90,8|0,0:0|0:0,0:0:0:0:
339,253,658830,1,0,0:0:0:0:
332,269,658918,6,0,B|310:263|295:247|295:247|263:280|211:276,1,135,6|0,0:0|0:0,0:0:0:0:
151,236,659271,1,8,0:0:0:0:
300,346,659448,1,0,0:0:0:0:
366,162,659624,2,0,P|364:118|353:74,1,90,2|2,0:0|0:0,0:0:0:0:
345,57,659889,1,0,0:0:0:0:
337,41,659977,1,8,0:0:0:0:
236,162,660154,1,0,0:0:0:0:
126,47,660330,6,0,B|130:83|130:83|120:110|96:127|96:127|104:147|103:168,1,135,6|0,0:0|0:0,0:0:0:0:
71,233,660683,1,8,0:0:0:0:
17,68,660860,1,0,0:0:0:0:
236,162,661036,2,0,P|279:171|324:164,1,90,2|2,0:0|0:0,0:0:0:0:
340,156,661301,1,0,0:0:0:0:
356,147,661389,1,8,0:0:0:0:
280,35,661566,1,0,0:0:0:0:
201,246,661742,2,0,B|216:375|216:375|238:330,1,180,6|8,0:0|0:0,0:0:0:0:
303,214,662271,1,0,0:0:0:0:
230,22,662448,5,6,0:0:0:0:
136,67,662624,2,0,L|109:42,2,36,2|0|8,0:0|0:0|0:0,0:0:0:0:
208,92,662889,2,0,L|199:127,2,36,0|2|0,0:0|0:0|0:0,0:0:0:0:
230,22,663154,6,0,L|273:8,1,45,6|0,0:0|0:0,0:0:0:0:
357,119,663330,2,0,L|313:105,1,45
188,218,663507,6,0,L|202:166,1,53.9999983520508,6|0,0:0|0:0,0:0:0:0:
326,276,663683,2,0,L|312:224,1,53.9999983520508
191,349,663860,6,0,L|132:325,3,62.9999980773926,6|0|0|0,0:0|0:0|0:0|0:0,0:0:0:0:
85,273,664213,6,0,L|76:229,1,45,2|0,0:0|0:0,0:0:0:0:
162,154,664389,2,0,L|172:110,1,45,2|0,0:0|0:0,0:0:0:0:
272,28,664565,6,0,B|278:106|278:106|296:82,1,107.999996704102,6|0,0:0|0:0,0:0:0:0:
356,216,664918,2,0,B|350:138|350:138|331:161,1,107.999996704102,10|0,0:0|0:0,0:0:0:0:
413,299,665271,1,2,0:0:0:0:
201,221,665448,1,2,0:0:0:0:
356,216,665624,1,10,0:0:0:0:
173,319,665801,6,0,L|280:329,1,107.999996704102,0|6,0:0|0:0,0:0:0:0:
250,98,666154,1,0,0:0:0:0:
85,258,666330,2,0,P|68:308|75:361,2,107.999996704102,10|0|2,0:0|0:0|0:0,0:0:0:0:
210,360,666860,1,2,0:0:0:0:
292,91,667036,1,10,0:0:0:0:
417,193,667213,1,0,0:0:0:0:
210,267,667389,6,0,B|195:215|195:215|196:161,1,107.999996704102,6|0,0:0|0:0,0:0:0:0:
322,328,667742,1,10,0:0:0:0:
168,246,667918,2,0,B|167:192|167:192|182:140,1,107.999996704102,0|2,0:0|0:0,0:0:0:0:
377,10,668271,2,0,B|377:63|377:63|362:115,1,107.999996704102,2|10,0:0|0:0,0:0:0:0:
97,151,668624,1,0,0:0:0:0:
93,146,668801,6,0,P|134:112|187:101,1,107.999996704102,6|0,0:0|0:0,0:0:0:0:
204,321,669154,1,10,0:0:0:0:
201,326,669331,2,0,P|179:276|182:223,1,107.999996704102,0|2,0:0|0:0,0:0:0:0:
298,95,669683,1,2,0:0:0:0:
425,339,669860,2,0,B|371:330|371:330|319:340,1,107.999996704102,10|0,0:0|0:0,0:0:0:0:
300,351,670124,1,0,0:0:0:0:
284,365,670213,6,0,B|293:316|293:316|269:280|277:234,1,135,6|0,0:0|0:0,0:0:0:0:
313,172,670565,1,10,0:0:0:0:
214,328,670742,1,0,0:0:0:0:
227,18,670918,2,0,B|243:61|243:61|246:105,1,90,2|0,0:0|0:0,0:0:0:0:
242,123,671183,1,0,0:0:0:0:
234,139,671271,1,10,0:0:0:0:
93,58,671448,1,0,0:0:0:0:
29,251,671624,6,0,B|52:259|52:259|76:251|91:227|91:227|113:244|147:239,1,135,6|0,0:0|0:0,0:0:0:0:
218,218,671977,1,10,0:0:0:0:
350,354,672154,1,0,0:0:0:0:
474,145,672330,2,0,P|464:103|422:94,1,90,2|0,0:0|0:0,0:0:0:0:
406,102,672595,1,0,0:0:0:0:
393,115,672683,1,10,0:0:0:0:
274,262,672860,1,0,0:0:0:0:
72,88,673036,6,0,B|110:78|110:78|131:113|182:125|182:125|214:98|265:104,2,215.999993408203,2|10|2,0:0|0:0|0:0,0:0:0:0:
131,232,673918,1,0,0:0:0:0:
202,19,674095,2,0,P|256:13|309:22,1,107.999996704102,10|0,0:0|0:0,0:0:0:0:
288,227,674448,5,2,0:0:0:0:
148,105,674624,1,0,0:0:0:0:
346,86,674801,1,10,0:0:0:0:
140,90,674977,1,0,0:0:0:0:
354,101,675154,2,0,B|345:154|345:154|373:193|373:193|364:251,1,161.999995056153,2|0,0:0|0:0,0:0:0:0:
309,297,675507,1,10,0:0:0:0:
289,287,675595,2,0,L|260:241,1,53.9999983520508
106,110,675860,6,0,B|87:147|98:187|98:187|127:211|138:251|138:251|121:280|122:308,2,215.999993408203,2|10|2,0:0|0:0|0:0,0:0:0:0:
334,64,676742,1,0,0:0:0:0:
243,295,676918,1,10,0:0:0:0:
235,274,677007,1,0,0:0:0:0:
227,253,677095,1,0,0:0:0:0:
256,192,677448,12,6,678683,0:0:0:0:
114,221,682457,5,2,0:2:0:0:
223,45,682802,1,2,0:2:0:0:
398,154,683146,1,2,0:2:0:0:
289,330,683491,1,2,0:2:0:0:
186,135,683836,5,2,0:2:0:0:
170,10,684009,1,2,0:2:0:0:
309,119,684181,1,2,0:2:0:0:
434,105,684353,1,2,0:2:0:0:
325,244,684526,1,2,0:2:0:0:
339,369,684698,1,2,0:2:0:0:
200,259,684871,1,2,0:2:0:0:
77,274,685043,1,2,0:2:0:0:
115,103,685215,5,2,0:2:0:0:
127,82,685301,1,2,0:2:0:0:
143,68,685387,1,2,0:2:0:0:
164,59,685473,1,2,0:2:0:0:
187,54,685559,1,2,0:2:0:0:
208,54,685646,1,2,0:2:0:0:
230,60,685732,1,2,0:2:0:0:
249,71,685818,1,2,0:2:0:0:
264,87,685905,6,0,B|257:129|257:129|274:197,1,107.999996704102,2|8,0:2|0:2,0:2:0:0:
273,192,686595,6,0,L|310:110,1,90,6|0,0:2|0:2,0:2:0:0:
316,295,686940,2,0,P|250:302|191:265,1,135,8|0,0:2|0:2,0:2:0:0:
167,201,687284,1,0,0:2:0:0:
297,107,687457,1,2,0:2:0:0:
99,34,687629,2,0,L|83:122,1,90,8|0,0:2|0:2,0:2:0:0:
169,340,687974,5,2,0:2:0:0:
76,241,688146,1,2,0:2:0:0:
253,169,688319,1,8,0:2:0:0:
316,355,688491,1,0,0:2:0:0:
253,169,688664,2,0,L|241:287,1,90,0|2,0:2|0:2,0:2:0:0:
316,355,689009,1,8,0:2:0:0:
141,233,689181,1,0,0:2:0:0:
368,123,689353,6,0,P|361:79|340:39,1,90,2|0,0:2|0:2,0:2:0:0:
213,248,689698,2,0,P|257:240|297:219,1,90,8|0,0:2|0:2,0:2:0:0:
81,117,690043,2,0,P|88:161|109:201,1,90,0|2,0:2|0:2,0:2:0:0:
216,112,690388,1,8,0:2:0:0:
94,17,690560,1,0,0:2:0:0:
72,272,690733,5,2,0:2:0:0:
182,204,690905,1,2,0:2:0:0:
285,285,691078,1,8,0:2:0:0:
285,285,691422,2,0,L|315:201,1,90,0|2,0:2|0:2,0:2:0:0:
398,26,691767,2,0,L|428:110,1,90,8|2,0:2|0:2,0:2:0:0:
315,372,692112,6,0,B|300:316|317:278|317:278|300:242|300:242|315:200,1,180,2|8,0:2|0:2,0:2:0:0:
428,111,692629,1,0,0:2:0:0:
415,319,692802,2,0,P|396:278|385:234,1,90,0|2,0:2|0:2,0:2:0:0:
313,37,693146,2,0,P|302:80|283:121,1,90,8|0,0:2|0:2,0:2:0:0:
71,173,693491,5,2,0:2:0:0:
157,62,693664,1,2,0:2:0:0:
192,200,693836,2,0,B|196:260|167:320|167:320|150:266,1,180,8|0,0:2|0:2,0:2:0:0:
138,136,694353,1,2,0:2:0:0:
257,326,694526,1,8,0:2:0:0:
96,244,694698,1,0,0:2:0:0:
292,190,694871,6,0,L|380:206,1,90,2|0,0:2|0:2,0:2:0:0:
220,264,695215,2,0,L|131:280,1,90,8|0,0:2|0:2,0:2:0:0:
337,361,695560,2,0,L|320:272,1,90,0|2,0:2|0:2,0:2:0:0:
175,74,695905,2,0,L|158:162,1,90,8|0,0:2|0:2,0:2:0:0:
414,306,696250,6,0,B|421:275|421:275|411:217,1,90,2|2,0:2|0:2,0:2:0:0:
346,68,696595,1,8,0:2:0:0:
284,226,696767,1,0,0:2:0:0:
148,122,696940,2,0,P|178:90|221:78,1,90,0|2,0:2|0:2,0:2:0:0:
379,175,697284,1,8,0:2:0:0:
387,195,697370,1,0,0:2:0:0:
391,217,697456,1,0,0:2:0:0:
391,240,697542,1,0,0:2:0:0:
386,262,697629,6,0,L|282:254,1,90,6|0,0:2|0:2,0:2:0:0:
129,154,697974,2,0,P|158:95|221:78,1,135,8|0,0:2|0:2,0:2:0:0:
286,111,698319,2,0,L|258:196,1,90,0|2,0:2|0:2,0:2:0:0:
169,364,698664,2,0,L|141:279,1,90,8|0,0:2|0:2,0:2:0:0:
94,32,699009,6,0,P|138:35|177:57,1,90,2|2,0:2|0:2,0:2:0:0:
258,196,699353,1,8,0:2:0:0:
311,31,699526,1,0,0:2:0:0:
258,196,699698,2,0,P|258:240|267:284,1,90,0|2,0:2|0:2,0:2:0:0:
352,379,700043,1,8,0:2:0:0:
390,217,700215,1,0,0:2:0:0:
298,77,700388,6,0,P|252:52|213:52,1,90,2|0,0:2|0:2,0:2:0:0:
201,247,700733,2,0,P|218:206|227:162,1,90,8|0,0:2|0:2,0:2:0:0:
134,316,701078,2,0,P|171:339|216:342,1,90,0|2,0:2|0:2,0:2:0:0:
330,238,701422,1,8,0:2:0:0:
234,117,701595,1,0,0:2:0:0:
134,316,701767,6,0,L|114:228,1,90,2|2,0:2|0:2,0:2:0:0:
174,81,702112,1,8,0:2:0:0:
174,81,702457,2,0,L|155:168,1,90,0|2,0:2|0:2,0:2:0:0:
305,356,702802,2,0,L|324:268,1,90,8|0,0:2|0:2,0:2:0:0:
414,56,703146,5,2,0:2:0:0:
108,150,703491,1,2,0:2:0:0:
347,244,703836,1,2,0:2:0:0:
193,338,704181,1,2,0:2:0:0:
221,36,704526,5,2,0:2:0:0:
375,297,704871,1,2,0:2:0:0:
97,177,705215,1,2,0:2:0:0:
392,110,705560,1,2,0:2:0:0:
179,375,705905,5,2,0:2:0:0:
190,252,706077,1,2,0:2:0:0:
336,13,706250,1,2,0:2:0:0:
326,138,706422,1,2,0:2:0:0:
440,273,706594,1,2,0:2:0:0:
314,261,706767,1,2,0:2:0:0:
75,117,706939,1,2,0:2:0:0:
201,126,707111,1,2,0:2:0:0:
373,304,707284,5,2,0:2:0:0:
361,323,707370,1,2,0:2:0:0:
346,339,707456,1,2,0:2:0:0:
327,351,707542,1,2,0:2:0:0:
305,357,707628,1,2,0:2:0:0:
283,357,707715,1,2,0:2:0:0:
261,352,707801,1,2,0:2:0:0:
241,342,707887,1,2,0:2:0:0:
224,327,707974,6,0,B|210:289|210:289|223:222,1,107.999996704102,0|8,0:2|0:2,0:2:0:0:
424,51,708664,5,6,0:2:0:0:
182,302,711606,6,0,B|145:231|200:179|200:179|176:101,3,215.999993408203,6|0|0|0,0:0|0:0|0:0|0:0,0:0:0:0:
93,161,712772,1,0,0:0:0:0:
262,251,712939,6,0,B|312:269|312:269|395:253|429:167,1,215.999993408203,6|0,0:0|0:0,0:0:0:0:
328,340,713439,1,0,0:0:0:0:
305,144,713606,2,0,B|309:91|309:91|272:15|180:3,1,215.999993408203,6|0,0:0|0:0,0:0:0:0:
213,204,714106,1,0,0:0:0:0:
378,64,714272,5,6,0:0:0:0:
279,232,714439,1,2,0:0:0:0:
248,10,714606,1,2,0:0:0:0:
342,168,714772,1,2,0:0:0:0:
157,200,714939,1,2,0:0:0:0:
244,91,715106,1,2,0:0:0:0:
314,237,715272,1,2,0:0:0:0:
401,128,715439,1,2,0:0:0:0:
448,315,715606,5,2,0:0:0:0:
383,353,715772,1,2,0:0:0:0:
316,317,715939,1,2,0:0:0:0:
252,357,716106,1,2,0:0:0:0:
72,325,716272,5,2,0:0:0:0:
177,249,716439,1,2,0:0:0:0:
70,174,716606,1,2,0:0:0:0:
127,58,716772,1,2,0:0:0:0:
177,249,716939,6,0,B|228:272|228:272|378:216,1,215.999993408203,6|2,0:0|0:0,0:0:0:0:
259,106,717439,1,0,0:0:0:0:
113,180,717606,2,0,P|85:225|88:278,1,107.999996704102,2|0,0:0|0:0,0:0:0:0:
205,157,717939,2,0,P|180:110|132:86,1,107.999996704102,2|0,0:0|0:0,0:0:0:0:
179,249,718272,1,2,0:0:0:0:
298,103,718439,1,0,0:0:0:0:
387,268,718606,6,0,L|398:375,1,107.999996704102,2|0,0:0|0:0,0:0:0:0:
240,315,718939,1,2,0:0:0:0:
280,173,719106,1,0,0:0:0:0:
112,263,719272,2,0,L|123:370,1,107.999996704102,2|0,0:0|0:0,0:0:0:0:
217,139,719606,6,0,B|156:112|156:112|85:152|14:106,1,215.999993408203,2|2,0:0|0:0,0:0:0:0:
91,6,720106,1,0,0:0:0:0:
159,207,720272,2,0,L|257:250,1,107.999996704102,2|0,0:0|0:0,0:0:0:0:
359,115,720606,1,2,0:0:0:0:
194,97,720772,1,0,0:0:0:0:
224,314,720939,6,0,L|229:340,7,26.9999991760254,2|0|0|0|0|0|0|0,0:0|0:0|0:0|0:0|0:0|0:0|0:0|0:0,0:0:0:0:
304,331,721272,2,0,L|321:351,7,26.9999991760254,2|0|0|0|0|0|0|0,0:0|0:0|0:0|0:0|0:0|0:0|0:0|0:0,0:0:0:0:
374,299,721606,2,0,L|399:307,6,26.9999991760254,2|0|0|0|0|0|0,0:0|0:0|0:0|0:0|0:0|0:0|0:0,0:0:0:0:
310,255,721939,6,0,L|283:260,1,26.9999991760254,2|0,0:0|0:0,0:0:0:0:
301,227,722022,2,0,L|273:227,1,26.9999991760254
298,201,722105,2,0,L|271:195,1,26.9999991760254
299,174,722189,2,0,L|273:163,1,26.9999991760254
305,147,722272,6,0,L|412:130,1,107.999996704102,6|0,0:0|0:0,0:0:0:0:
207,245,722606,2,0,L|100:228,1,107.999996704102,2|0,0:0|0:0,0:0:0:0:
263,362,722939,1,2,0:0:0:0:
304,219,723106,1,0,0:0:0:0:
125,331,723272,2,0,P|104:281|101:227,1,107.999996704102,2|0,0:0|0:0,0:0:0:0:
193,97,723606,6,0,B|351:114|351:114|314:70,1,215.999993408203,2|2,0:0|0:0,0:0:0:0:
192,199,724106,1,0,0:0:0:0:
141,12,724272,2,0,P|194:5|247:15,1,107.999996704102,2|0,0:0|0:0,0:0:0:0:
192,199,724606,2,0,P|139:206|86:196,1,107.999996704102,2|0,0:0|0:0,0:0:0:0:
356,150,724939,6,0,L|371:256,1,107.999996704102,2|0,0:0|0:0,0:0:0:0:
370,284,725189,1,0,0:0:0:0:
364,310,725272,2,0,P|312:326|258:324,1,107.999996704102,2|0,0:0|0:0,0:0:0:0:
115,210,725606,1,2,0:0:0:0:
47,353,725772,1,0,0:0:0:0:
179,262,725939,1,2,0:0:0:0:
28,202,726106,1,0,0:0:0:0:
20,176,726189,1,0,0:0:0:0:
17,149,726272,6,0,B|5:73|66:11|66:11|123:38,1,215.999993408203,2|2,0:0|0:0,0:0:0:0:
242,135,726772,1,0,0:0:0:0:
112,213,726939,2,0,P|98:161|96:108,1,107.999996704102,2|0,0:0|0:0,0:0:0:0:
250,244,727272,2,0,P|264:295|265:349,1,107.999996704102,2|0,0:0|0:0,0:0:0:0:
31,231,727606,6,0,P|23:205|20:178,2,53.9999983520508,6|0|0,0:0|0:0|0:0,0:0:0:0:
158,366,727939,2,0,L|264:350,1,107.999996704102,2|0,0:0|0:0,0:0:0:0:
458,260,728272,2,0,L|351:244,1,107.999996704102,2|0,0:0|0:0,0:0:0:0:
105,146,728606,2,0,L|211:130,1,107.999996704102,2|0,0:0|0:0,0:0:0:0:
458,260,728939,6,0,P|436:309|399:348,1,107.999996704102,2|0,0:0|0:0,0:0:0:0:
246,232,729272,2,0,P|299:228|351:244,1,107.999996704102,2|0,0:0|0:0,0:0:0:0:
134,357,729606,2,0,L|112:251,1,107.999996704102,2|0,0:0|0:0,0:0:0:0:
116,224,729856,1,0,0:0:0:0:
120,197,729939,1,2,0:0:0:0:
266,66,730106,1,0,0:0:0:0:
427,226,730272,6,0,P|373:225|324:203,1,107.999996704102,2|0,0:0|0:0,0:0:0:0:
85,311,730606,2,0,P|138:311|187:333,1,107.999996704102,2|0,0:0|0:0,0:0:0:0:
271,118,730939,2,0,L|182:180,1,107.999996704102,2|0,0:0|0:0,0:0:0:0:
257,352,731272,1,2,0:0:0:0:
318,143,731439,1,0,0:0:0:0:
296,127,731522,1,0,0:0:0:0:
271,118,731606,6,0,B|185:82|113:119|113:119|153:152,1,215.999993408203,2|2,0:0|0:0,0:0:0:0:
320,214,732106,1,0,0:0:0:0:
305,46,732272,2,0,P|255:24|202:20,1,107.999996704102,2|0,0:0|0:0,0:0:0:0:
64,213,732606,1,2,0:0:0:0:
89,224,732689,1,0,0:0:0:0:
116,225,732772,1,0,0:0:0:0:
143,220,732856,1,0,0:0:0:0:
167,210,732939,6,0,P|217:193|271:198,1,107.999996704102,6|0,0:0|0:0,0:0:0:0:
385,368,733272,2,0,P|368:318|373:264,1,107.999996704102,2|0,0:0|0:0,0:0:0:0:
481,122,733606,2,0,P|431:139|377:134,1,107.999996704102,2|0,0:0|0:0,0:0:0:0:
233,38,733939,1,2,0:0:0:0:
406,29,734106,1,0,0:0:0:0:
412,31,734189,1,0,0:0:0:0:
418,33,734272,6,0,P|410:139|350:228,1,215.999993408203,2|2,0:0|0:0,0:0:0:0:
192,272,734772,1,0,0:0:0:0:
266,76,734939,2,0,P|278:128|275:182,1,107.999996704102,2|0,0:0|0:0,0:0:0:0:
35,154,735272,2,0,P|88:142|142:145,1,107.999996704102,2|0,0:0|0:0,0:0:0:0:
378,180,735606,6,0,B|395:231|395:231|374:274|374:274|412:325|388:382,2,215.999993408203,2|2|2,0:0|0:0|0:0,0:0:0:0:
224,111,736439,1,0,0:0:0:0:
279,223,736606,1,2,0:0:0:0:
342,79,736772,1,0,0:0:0:0:
98,28,736939,6,0,P|80:79|78:132,1,107.999996704102,2|0,0:0|0:0,0:0:0:0:
92,167,737189,1,0,0:0:0:0:
106,202,737272,1,2,0:0:0:0:
114,239,737356,1,0,0:0:0:0:
116,277,737439,1,0,0:0:0:0:
111,314,737522,1,0,0:0:0:0:
99,350,737606,5,2,0:0:0:0:
125,323,737689,1,0,0:0:0:0:
157,304,737772,1,0,0:0:0:0:
194,301,737856,1,0,0:0:0:0:
230,313,737939,1,2,0:0:0:0:
268,314,738022,1,0,0:0:0:0:
304,302,738106,1,2,0:0:0:0:
332,277,738189,1,0,0:0:0:0:
350,244,738272,6,0,B|381:173|342:108|342:108|361:36,1,215.999993408203,6|2,0:0|0:0,0:0:0:0:
241,182,738772,1,0,0:0:0:0:
459,252,738939,2,0,P|469:200|465:146,1,107.999996704102,2|0,0:0|0:0,0:0:0:0:
273,82,739272,1,2,0:0:0:0:
258,104,739355,1,0,0:0:0:0:
248,129,739438,1,0,0:0:0:0:
242,155,739522,1,0,0:0:0:0:
241,182,739605,5,2,0:0:0:0:
273,320,739772,1,0,0:0:0:0:
151,139,739939,1,2,0:0:0:0:
119,277,740106,1,0,0:0:0:0:
243,86,740272,1,2,0:0:0:0:
275,224,740439,1,0,0:0:0:0:
64,188,740606,2,0,P|69:135|86:84,1,107.999996704102,2|0,0:0|0:0,0:0:0:0:
103,62,740856,1,0,0:0:0:0:
126,48,740939,6,0,B|188:106|274:75|274:75|230:39,1,215.999993408203,2|2,0:0|0:0,0:0:0:0:
51,17,741439,1,0,0:0:0:0:
126,251,741606,2,0,P|147:201|146:148,1,107.999996704102,2|0,0:0|0:0,0:0:0:0:
55,336,741939,1,2,0:0:0:0:
78,349,742022,1,0,0:0:0:0:
104,356,742105,1,0,0:0:0:0:
131,359,742189,1,0,0:0:0:0:
157,355,742272,6,0,P|207:340|260:347,1,107.999996704102,2|0,0:0|0:0,0:0:0:0:
436,259,742606,1,2,0:0:0:0:
343,366,742772,1,0,0:0:0:0:
252,226,742939,1,2,0:0:0:0:
374,300,743106,1,0,0:0:0:0:
162,284,743272,1,2,0:0:0:0:
163,257,743355,1,0,0:0:0:0:
165,230,743438,1,0,0:0:0:0:
167,203,743522,1,0,0:0:0:0:
169,176,743606,6,0,L|208:75,1,107.999996704102,6|0,0:0|0:0,0:0:0:0:
380,139,743939,2,0,L|273:154,1,107.999996704102,2|0,0:0|0:0,0:0:0:0:
435,33,744272,1,2,0:0:0:0:
499,182,744439,1,0,0:0:0:0:
350,66,744606,1,2,0:0:0:0:
308,237,744773,1,0,0:0:0:0:
499,182,744939,6,0,B|529:107|493:35|493:35|464:92,1,215.999993408203,2|2,0:0|0:0,0:0:0:0:
417,249,745439,1,0,0:0:0:0:
362,59,745606,2,0,P|415:68|464:92,1,107.999996704102,2|0,0:0|0:0,0:0:0:0:
340,222,745939,2,0,P|291:245|238:254,1,107.999996704102,2|0,0:0|0:0,0:0:0:0:
149,61,746272,6,0,P|201:55|255:63,1,107.999996704102,2|0,0:0|0:0,0:0:0:0:
274,82,746522,1,0,0:0:0:0:
296,96,746606,2,0,P|348:102|402:94,1,107.999996704102,2|0,0:0|0:0,0:0:0:0:
238,254,746939,2,0,L|131:245,1,107.999996704102,2|0,0:0|0:0,0:0:0:0:
277,355,747272,1,2,0:0:0:0:
408,261,747439,1,0,0:0:0:0:
417,235,747522,1,0,0:0:0:0:
420,207,747606,6,0,P|401:104|313:47,1,215.999993408203,2|2,0:0|0:0,0:0:0:0:
166,77,748106,1,0,0:0:0:0:
260,179,748272,2,0,L|287:183,7,26.9999991760254,2|0|0|0|0|0|0|0,0:0|0:0|0:0|0:0|0:0|0:0|0:0|0:0,0:0:0:0:
286,109,748606,6,0,L|298:85,1,26.9999991760254,2|0,0:0|0:0,0:0:0:0:
262,97,748689,2,0,L|267:70,1,26.9999991760254
236,93,748772,2,0,L|234:66,1,26.9999991760254
209,93,748856,2,0,L|200:67,1,26.9999991760254
184,99,748939,6,0,P|130:103|81:83,1,107.999996704102,6|0,0:0|0:0,0:0:0:0:
148,264,749272,2,0,P|202:260|251:280,1,107.999996704102,2|0,0:0|0:0,0:0:0:0:
419,374,749606,2,0,P|415:320|435:271,1,107.999996704102,2|0,0:0|0:0,0:0:0:0:
451,249,749856,1,0,0:0:0:0:
471,231,749939,1,2,0:0:0:0:
399,68,750106,1,0,0:0:0:0:
307,231,750272,6,0,L|283:336,1,107.999996704102,2|0,0:0|0:0,0:0:0:0:
194,109,750606,2,0,L|170:3,1,107.999996704102,2|0,0:0|0:0,0:0:0:0:
47,215,750939,2,0,P|92:242|145:249,1,107.999996704102,2|0,0:0|0:0,0:0:0:0:
172,242,751189,1,0,0:0:0:0:
194,226,751272,2,0,L|166:330,1,107.999996704102,2|0,0:0|0:0,0:0:0:0:
114,107,751606,6,0,P|167:107|218:125,1,107.999996704102,2|0,0:0|0:0,0:0:0:0:
398,277,751939,2,0,P|344:276|293:258,1,107.999996704102,2|0,0:0|0:0,0:0:0:0:
402,35,752272,2,0,L|415:142,1,107.999996704102,2|0,0:0|0:0,0:0:0:0:
412,169,752522,1,0,0:0:0:0:
408,196,752606,1,2,0:0:0:0:
274,111,752772,1,0,0:0:0:0:
270,84,752856,1,0,0:0:0:0:
266,57,752940,6,0,P|174:6|72:32,1,215.999993408203,2|2,0:0|0:0,0:0:0:0:
139,249,753439,1,0,0:0:0:0:
214,109,753606,2,0,P|170:80|118:88,1,107.999996704102,2|0,0:0|0:0,0:0:0:0:
256,331,753939,1,2,0:0:0:0:
265,305,754022,1,0,0:0:0:0:
270,279,754105,1,0,0:0:0:0:
270,252,754189,1,0,0:0:0:0:
265,226,754272,6,0,L|248:174,2,53.9999983520508,6|0|0,0:0|0:0|0:0,0:0:0:0:
168,349,754606,2,0,L|61:332,1,107.999996704102,2|0,0:0|0:0,0:0:0:0:
344,260,754939,2,0,L|451:243,1,107.999996704102,2|0,0:0|0:0,0:0:0:0:
222,72,755272,2,0,P|194:117|188:171,1,107.999996704102,2|0,0:0|0:0,0:0:0:0:
425,40,755606,6,0,P|405:21|382:7,2,53.9999983520508,6|0|0,0:0|0:0|0:0,0:0:0:0:
312,254,755939,2,0,L|324:146,1,107.999996704102,2|0,0:0|0:0,0:0:0:0:
336,121,756189,1,0,0:0:0:0:
347,96,756272,1,2,0:0:0:0:
469,183,756439,1,0,0:0:0:0:
461,208,756522,1,0,0:0:0:0:
445,230,756606,1,2,0:0:0:0:
154,153,756772,1,0,0:0:0:0:
177,140,756855,1,0,0:0:0:0:
204,136,756939,5,6,0:0:0:0:
255,326,757106,1,0,0:0:0:0:
354,84,757272,1,0,0:0:0:0:
266,297,757439,1,0,0:0:0:0:
165,59,757606,1,0,0:0:0:0:
279,269,757772,1,0,0:0:0:0:
370,47,757939,1,0,0:0:0:0:
190,179,758106,1,0,0:0:0:0:
425,301,758272,6,0,P|435:258|429:213,1,90,6|0,0:0|0:0,0:0:0:0:
421,192,758522,1,0,0:0:0:0:
408,173,758606,1,0,0:0:0:0:
213,245,758772,1,0,0:0:0:0:
223,264,758856,1,0,0:0:0:0:
233,283,758939,2,0,L|322:296,2,90,6|0|0,0:0|0:0|0:0,0:0:0:0:
171,180,759439,1,0,0:0:0:0:
175,158,759522,1,0,0:0:0:0:
182,136,759606,5,6,0:0:0:0:
182,136,760272,1,2,0:0:0:0:
239,59,760606,1,2,0:0:0:0:
293,336,760939,1,2,0:0:0:0:
239,59,761606,5,0,0:0:0:0:
337,157,761772,1,0,0:0:0:0:
335,149,761856,1,0,0:0:0:0:
333,141,761939,1,0,0:0:0:0:
260,264,762106,1,0,0:0:0:0:
113,49,762272,5,6,0:0:0:0:
132,68,766157,6,0,P|127:113|130:158,1,90,2|0,0:0|0:0,0:0:0:0:
171,280,766490,1,8,0:0:0:0:
268,327,766657,1,0,0:0:0:0:
352,72,766824,5,10,0:0:0:0:
171,280,767157,1,8,0:0:0:0:
268,327,767324,1,0,0:0:0:0:
228,84,767490,5,2,0:0:0:0:
152,132,767656,1,0,0:0:0:0:
201,208,767823,1,0,3:0:0:0:
277,158,767990,1,0,0:0:0:0:
362,98,768157,5,8,0:0:0:0:
370,95,768240,1,0,0:0:0:0:
378,92,768324,1,0,0:0:0:0:
496,139,768490,5,8,0:0:0:0:
488,136,768573,1,0,0:0:0:0:
480,133,768657,1,0,0:0:0:0:
443,271,768824,5,2,0:0:0:0:
395,195,768990,1,0,0:0:0:0:
319,244,769157,1,0,3:0:0:0:
369,320,769324,1,0,0:0:0:0:
401,105,769490,5,8,0:0:0:0:
233,171,769657,1,0,0:0:0:0:
311,51,769824,1,8,3:2:0:0:
318,72,769907,1,0,3:2:0:0:
323,93,769990,1,0,3:2:0:0:
325,115,770074,1,0,3:2:0:0:
324,137,770157,5,6,3:2:0:0:
282,324,770324,1,2,0:0:0:0:
197,192,770490,1,2,0:0:0:0:
342,254,770657,1,2,0:0:0:0:
202,350,770824,1,2,0:0:0:0:
212,88,770990,1,8,0:0:0:0:
214,68,771157,1,2,0:0:0:0:
202,350,771324,5,2,0:0:0:0:
202,350,771657,1,2,0:0:0:0:
320,290,771824,1,2,0:0:0:0:
146,230,771990,1,2,0:0:0:0:
376,170,772157,1,2,0:0:0:0:
90,110,772324,1,2,0:0:0:0:
432,50,772490,5,2,3:2:0:0:
442,69,772574,1,0,3:2:0:0:
447,90,772657,1,2,3:2:0:0:
448,112,772740,1,0,3:2:0:0:
445,134,772824,6,0,B|296:174|296:174|331:123,1,215.999993408203,6|8,0:0|0:0,0:0:0:0:
483,29,773324,1,2,0:0:0:0:
338,242,773490,2,0,L|234:271,1,107.999996704102,2|2,0:0|0:0,0:0:0:0:
462,304,773824,1,8,0:0:0:0:
299,349,773990,1,2,0:0:0:0:
299,66,774157,5,2,0:0:0:0:
209,233,774324,1,0,0:0:0:0:
205,206,774407,1,0,0:0:0:0:
201,179,774490,1,8,0:0:0:0:
182,22,774657,1,2,0:0:0:0:
67,251,774824,1,2,0:0:0:0:
86,94,774991,1,2,0:0:0:0:
182,336,775157,1,8,0:0:0:0:
201,179,775324,1,8,3:2:0:0:
205,206,775407,1,8,3:2:0:0:
209,233,775490,6,0,P|302:280|401:243,1,215.999993408203,10|8,0:0|0:0,0:0:0:0:
310,91,775990,1,2,0:0:0:0:
168,298,776157,2,0,P|236:342|316:354,1,161.999995056153,2|0,0:0|0:0,0:0:0:0:
341,350,776490,1,8,0:0:0:0:
399,119,776657,1,0,0:0:0:0:
457,269,776824,5,2,0:0:0:0:
436,285,776907,1,0,0:0:0:0:
410,293,776990,1,0,0:0:0:0:
346,200,777157,1,8,0:0:0:0:
472,100,777324,1,2,0:0:0:0:
410,293,777490,1,2,0:0:0:0:
385,303,777573,1,0,0:0:0:0:
358,304,777656,1,0,0:0:0:0:
472,100,777824,1,8,0:0:0:0:
346,200,777991,1,8,0:0:0:0:
119,101,778157,6,0,B|142:48|142:48|221:-10|288:39,1,215.999993408203,6|8,0:0|0:0,0:0:0:0:
264,291,778657,1,2,0:0:0:0:
223,126,778824,2,0,B|265:109|265:109|379:130,1,161.999995056153,2|0,0:0|0:0,0:0:0:0:
405,138,779157,1,8,0:0:0:0:
232,224,779324,1,2,0:0:0:0:
388,346,779490,5,2,0:0:0:0:
477,182,779657,1,0,0:0:0:0:
475,155,779740,1,0,0:0:0:0:
473,127,779824,1,8,0:0:0:0:
373,270,779990,1,2,0:0:0:0:
337,87,780157,1,2,0:0:0:0:
234,324,780324,1,2,0:0:0:0:
224,136,780490,1,8,0:0:0:0:
140,306,780657,1,8,3:2:0:0:
143,332,780740,1,8,3:2:0:0:
151,358,780824,6,0,B|218:358|270:379|270:379|304:357,1,161.999995056153,10|0,0:0|0:0,0:0:0:0:
327,344,781157,1,8,0:0:0:0:
398,185,781324,1,2,0:0:0:0:
404,359,781490,1,2,0:0:0:0:
471,215,781657,1,2,0:0:0:0:
330,103,781824,1,8,0:0:0:0:
316,93,781907,1,0,0:0:0:0:
302,86,781990,1,2,0:0:0:0:
287,80,782074,1,0,0:0:0:0:
271,77,782157,6,0,P|285:156|286:237,1,161.999995056153,2|0,0:0|0:0,0:0:0:0:
283,269,782490,6,0,P|358:303|370:222,1,188.999994232178,8|0,0:0|0:0,0:0:0:0:
207,210,782824,5,2,0:0:0:0:
207,210,783157,1,8,0:0:0:0:
443,126,783324,1,8,0:0:0:0:
111,83,783490,6,0,B|85:136|111:186|111:186|136:237|111:290,1,215.999993408203,6|8,0:0|0:0,0:0:0:0:
207,135,783990,1,2,0:0:0:0:
0,239,784157,1,2,0:0:0:0:
27,78,784324,1,2,0:0:0:0:
39,54,784407,1,0,0:0:0:0:
55,32,784490,1,8,0:0:0:0:
154,246,784657,1,2,0:0:0:0:
273,16,784824,6,0,P|324:77|340:156,1,161.999995056153,2|0,0:0|0:0,0:0:0:0:
336,182,785157,1,8,0:0:0:0:
179,66,785324,1,2,0:0:0:0:
154,246,785490,1,2,0:0:0:0:
87,98,785657,1,2,0:0:0:0:
246,278,785824,1,8,0:0:0:0:
339,105,785990,1,8,3:2:0:0:
351,129,786074,1,8,3:2:0:0:
358,154,786157,6,0,P|306:167|253:158,1,107.999996704102,2|0,0:0|0:0,0:0:0:0:
64,273,786490,2,0,P|115:259|168:268,1,107.999996704102,8|2,0:0|0:0,0:0:0:0:
230,313,786740,1,0,0:0:0:0:
234,317,786824,2,0,P|254:239|253:158,1,161.999995056153,2|0,0:0|0:0,0:0:0:0:
247,131,787157,1,8,0:0:0:0:
102,216,787324,1,2,0:0:0:0:
343,312,787490,5,2,0:0:0:0:
338,285,787574,1,0,0:0:0:0:
333,258,787657,1,0,0:0:0:0:
102,216,787824,1,8,0:0:0:0:
158,329,787990,1,2,0:0:0:0:
333,258,788157,1,2,0:0:0:0:
328,231,788241,1,0,0:0:0:0:
323,204,788324,1,0,0:0:0:0:
158,329,788490,1,8,0:0:0:0:
281,353,788656,1,8,0:0:0:0:
228,110,788824,6,0,B|192:43|121:8|121:8|124:72,1,215.999993408203,6|8,0:0|0:0,0:0:0:0:
201,273,789324,1,2,0:0:0:0:
306,70,789490,1,2,0:0:0:0:
375,193,789657,1,2,0:0:0:0:
378,219,789740,1,0,0:0:0:0:
375,246,789824,1,8,0:0:0:0:
289,356,789990,1,2,0:0:0:0:
110,194,790157,5,2,0:0:0:0:
136,191,790240,1,0,0:0:0:0:
163,194,790324,1,0,0:0:0:0:
302,278,790490,1,8,0:0:0:0:
385,106,790657,1,2,0:0:0:0:
398,304,790824,1,2,0:0:0:0:
289,132,790990,1,2,0:0:0:0:
206,304,791157,1,8,0:0:0:0:
123,196,791324,1,8,3:2:0:0:
126,169,791407,1,8,3:2:0:0:
137,144,791490,6,0,B|183:165|183:165|289:132,1,161.999995056153,2|0,0:0|0:0,0:0:0:0:
311,115,791824,1,8,0:0:0:0:
147,42,791990,1,2,0:0:0:0:
199,264,792157,1,2,0:0:0:0:
245,70,792324,1,2,0:0:0:0:
199,264,792490,2,0,P|217:342|283:385,1,161.999995056153,8|0,0:0|0:0,0:0:0:0:
354,359,792824,6,0,P|401:336|454:343,1,107.999996704102,2|0,0:0|0:0,0:0:0:0:
409,179,793157,1,8,0:0:0:0:
199,354,793324,1,2,0:0:0:0:
253,120,793490,1,2,0:0:0:0:
300,311,793657,1,2,0:0:0:0:
121,267,793824,1,8,3:2:0:0:
113,241,793907,1,8,3:2:0:0:
108,214,793990,1,8,3:2:0:0:
106,186,794074,1,8,3:2:0:0:
106,159,794157,6,0,B|125:126|125:126|202:183|319:97|319:97|266:148|263:210,1,377.999988464356,6|0,0:0|0:0,0:0:0:0:
121,49,795490,5,6,0:0:0:0:
205,244,798765,6,0,P|269:226|322:184,1,135,2|0,0:0|0:0,0:0:0:0:
373,130,799097,2,0,L|383:219,1,90,8|0,0:0|0:0,0:0:0:0:
139,61,799428,2,0,L|128:150,1,90,2|0,0:0|0:0,0:0:0:0:
170,358,799760,2,0,P|158:292|111:244,1,135,8|0,0:0|0:0,0:0:0:0:
39,230,800091,5,2,0:0:0:0:
251,215,800257,1,0,0:0:0:0:
175,74,800423,1,8,0:0:0:0:
112,244,800589,2,0,L|101:333,2,90,2|0|2,0:0|0:0|0:0,0:0:0:0:
175,74,801086,1,8,0:0:0:0:
245,266,801252,1,0,0:0:0:0:
419,153,801417,6,0,B|413:96|367:70|367:70|355:28,1,144,4|0,0:1|0:0,0:0:0:0:
376,289,802080,2,0,B|363:247|363:247|317:220|312:164,1,144,0|0,0:1|0:0,0:0:0:0:
256,192,802578,12,0,803904,0:0:0:0:
231,43,804069,5,6,0:0:0:0:
176,244,804235,1,0,0:0:0:0:
174,250,804318,1,0,0:0:0:0:
172,256,804401,1,8,0:0:0:0:
406,142,804567,2,0,P|353:100|287:87,1,135.000005149842,2|0,0:0|0:0,0:0:0:0:
106,147,804898,1,0,0:0:0:0:
322,353,805064,2,0,L|311:218,1,135.000005149842,10|0,0:0|0:0,0:0:0:0:
188,51,805395,1,0,0:0:0:0:
75,305,805561,2,0,P|130:344|196:355,1,135.000005149842,2|8,0:0|0:0,0:0:0:0:
406,271,805893,1,0,0:0:0:0:
188,51,806058,2,0,L|202:186,1,135.000005149842,2|0,0:0|0:0,0:0:0:0:
324,333,806390,2,0,L|310:198,1,135.000005149842,10|0,0:0|0:0,0:0:0:0:
264,37,806721,5,6,0:0:0:0:
217,301,806887,1,0,0:0:0:0:
215,307,806970,1,0,0:0:0:0:
213,313,807053,1,8,0:0:0:0:
34,93,807219,2,0,P|93:59|159:47,1,135.000005149842,2|0,0:0|0:0,0:0:0:0:
359,109,807550,1,0,0:0:0:0:
122,358,807716,2,0,P|107:292|106:224,1,135.000005149842,10|0,0:0|0:0,0:0:0:0:
158,47,808047,1,0,0:0:0:0:
415,254,808213,2,0,L|281:274,1,135.000005149842,2|8,0:0|0:0,0:0:0:0:
106,225,808544,1,0,0:0:0:0:
324,51,808710,2,0,L|310:186,1,135.000005149842,2|0,0:0|0:0,0:0:0:0:
188,333,809041,2,0,L|202:198,1,135.000005149842,10|0,0:0|0:0,0:0:0:0:
324,51,809373,6,0,P|388:132|493:132,2,215.999993408203,2|8|2,0:0|0:0|0:0,0:0:0:0:
442,20,810202,1,0,0:0:0:0:
327,195,810368,2,0,P|277:215|223:219,1,107.999996704102,8|0,0:0|0:0,0:0:0:0:
85,101,810699,2,0,P|159:176|171:282,1,215.999993408203,2|8,0:0|0:0,0:0:0:0:
17,244,811196,1,0,0:0:0:0:
82,18,811362,1,2,0:0:0:0:
224,94,811528,1,2,0:0:0:0:
82,177,811694,1,10,0:0:0:0:
171,282,811859,1,2,0:0:0:0:
460,218,812025,6,0,P|409:200|355:198,1,107.999996704102,2|0,0:0|0:0,0:0:0:0:
223,289,812357,1,8,0:0:0:0:
326,114,812522,2,0,P|378:101|431:105,2,107.999996704102,0|2|0,0:0|0:0|0:0,0:0:0:0:
214,261,813020,1,8,0:0:0:0:
275,40,813185,2,0,P|322:14|375:4,2,107.999996704102,0|2|0,0:0|0:0|0:0,0:0:0:0:
205,233,813683,1,8,0:0:0:0:
409,105,813848,1,0,0:0:0:0:
55,34,814014,2,0,P|32:83|34:136,1,107.999996704102,2|0,0:0|0:0,0:0:0:0:
457,350,814346,2,0,P|480:301|478:248,1,107.999996704102,2|0,0:0|0:0,0:0:0:0:
300,64,814677,5,6,0:0:0:0:
323,291,814843,1,0,0:0:0:0:
325,297,814926,1,0,0:0:0:0:
327,303,815009,1,8,0:0:0:0:
91,131,815174,2,0,P|151:100|218:99,1,135.000005149842,2|0,0:0|0:0,0:0:0:0:
395,166,815506,1,0,0:0:0:0:
200,360,815672,2,0,L|182:226,1,135.000005149842,10|0,0:0|0:0,0:0:0:0:
264,44,816003,1,0,0:0:0:0:
428,264,816169,2,0,L|293:257,1,135.000005149842,2|8,0:0|0:0,0:0:0:0:
95,182,816500,1,0,0:0:0:0:
331,86,816666,2,0,P|394:111|460:104,1,135.000005149842,2|0,0:0|0:0,0:0:0:0:
180,297,816998,2,0,P|117:272|51:279,1,135.000005149842,10|0,0:0|0:0,0:0:0:0:
287,371,817329,5,6,0:0:0:0:
266,102,817495,1,0,0:0:0:0:
264,96,817578,1,0,0:0:0:0:
262,90,817660,1,8,0:0:0:0:
52,279,817826,2,0,P|106:319|171:329,1,135.000005149842,2|0,0:0|0:0,0:0:0:0:
339,262,818158,1,0,0:0:0:0:
177,58,818323,2,0,L|161:192,1,135.000005149842,10|0,0:0|0:0,0:0:0:0:
268,345,818655,1,0,0:0:0:0:
444,93,818821,2,0,L|309:89,1,135.000005149842,2|8,0:0|0:0,0:0:0:0:
161,192,819152,1,0,0:0:0:0:
331,297,819318,2,0,P|394:272|460:279,1,135.000005149842,2|0,0:0|0:0,0:0:0:0:
181,87,819649,2,0,P|118:112|52:105,1,135.000005149842,10|0,0:0|0:0,0:0:0:0:
157,227,819981,6,0,B|181:87|181:87|153:18,2,215.999993408203,2|8|2,0:0|0:0|0:0,0:0:0:0:
58,321,820810,1,0,0:0:0:0:
30,129,820975,2,0,L|48:23,1,107.999996704102,8|0,0:0|0:0,0:0:0:0:
246,163,821307,2,0,B|241:209|263:249|263:249|247:282|247:282|272:319|260:367,1,215.999993408203,2|8,0:0|0:0,0:0:0:0:
361,273,821804,1,0,0:0:0:0:
144,200,821970,1,2,0:0:0:0:
353,184,822136,1,2,0:0:0:0:
145,289,822301,1,2,0:0:0:0:
361,273,822467,1,2,0:0:0:0:
295,37,822633,5,6,0:0:0:0:
144,200,822799,1,6,0:0:0:0:
303,196,822964,1,0,0:0:0:0:
193,43,823130,5,6,0:0:0:0:
143,259,823296,1,6,0:0:0:0:
279,176,823461,1,0,0:0:0:0:
115,84,823627,5,6,0:0:0:0:
179,296,823793,1,6,0:0:0:0:
255,156,823958,1,0,0:0:0:0:
74,144,824125,5,6,0:0:0:0:
235,295,824291,1,6,0:0:0:0:
231,136,824456,1,0,0:0:0:0:
105,330,824622,5,6,0:0:0:0:
385,262,824788,1,6,0:0:0:0:
156,156,824953,2,0,P|125:201|110:252,1,107.999996704102
300,374,825285,6,0,L|312:266,2,107.999996704102,6|0|8,0:0|0:0|0:0,0:0:0:0:
239,186,825782,2,0,P|339:160|415:231,1,215.999993408203,2|2,0:0|0:0,0:0:0:0:
312,267,826279,1,8,0:0:0:0:
355,84,826445,1,0,0:0:0:0:
383,347,826611,6,0,P|335:372|281:371,1,107.999996704102,2|0,0:0|0:0,0:0:0:0:
145,283,826942,1,8,0:0:0:0:
256,88,827108,2,0,L|265:195,1,107.999996704102,2|2,0:0|0:0,0:0:0:0:
215,330,827440,1,2,0:0:0:0:
126,204,827605,1,8,0:0:0:0:
317,255,827771,1,8,0:0:0:0:
87,365,827937,6,0,L|70:258,1,107.999996704102,2|0,0:0|0:0,0:0:0:0:
122,93,828268,1,8,0:0:0:0:
242,216,828434,2,0,L|225:322,2,107.999996704102,2|0|2,0:0|0:0|0:0,0:0:0:0:
247,71,828931,1,8,0:0:0:0:
126,216,829097,1,0,0:0:0:0:
377,286,829263,6,0,P|391:234|390:180,1,107.999996704102,2|0,0:0|0:0,0:0:0:0:
319,35,829594,1,8,0:0:0:0:
126,216,829760,2,0,P|205:243|318:163,1,215.999993408203,2|0,0:0|0:0,0:0:0:0:
134,134,830257,1,8,0:0:0:0:
248,340,830423,1,8,0:0:0:0:
237,85,830589,6,0,P|185:58|127:53,1,116.999994644165,2|0,0:0|0:0,0:0:0:0:
13,129,830920,1,8,0:0:0:0:
160,300,831086,2,0,L|150:184,1,116.999994644165,2|0,0:0|0:0,0:0:0:0:
46,278,831417,1,2,0:0:0:0:
248,340,831583,1,8,0:0:0:0:
216,130,831749,1,0,0:0:0:0:
67,353,831915,6,0,L|181:376,2,116.999994644165,2|0|8,0:0|0:0|0:0,0:0:0:0:
15,182,832412,1,2,0:0:0:0:
252,217,832578,2,0,P|222:270|167:293,1,116.999994644165,2|2,0:0|0:0,0:0:0:0:
62,265,832909,1,8,0:0:0:0:
186,87,833075,1,8,0:0:0:0:
287,309,833241,5,2,0:0:0:0:
138,160,833406,1,2,0:0:0:0:
341,106,833572,1,8,0:0:0:0:
262,325,833738,1,2,0:0:0:0:
136,131,833903,1,2,0:0:0:0:
368,119,834069,1,2,0:0:0:0:
233,336,834235,1,8,0:0:0:0:
142,100,834400,1,2,0:0:0:0:
427,135,834567,5,2,0:0:0:0:
430,151,834649,1,0,0:0:0:0:
434,167,834732,1,2,0:0:0:0:
438,183,834815,1,0,0:0:0:0:
408,252,834898,5,10,0:0:0:0:
402,274,834981,1,0,0:0:0:0:
396,296,835064,1,2,0:0:0:0:
391,318,835147,1,0,0:0:0:0:
335,372,835230,6,0,L|278:357,1,58.4999973220826,6|0,0:0|0:0,0:0:0:0:
175,262,835395,2,0,L|231:247,1,58.4999973220826,6|0,0:0|0:0,0:0:0:0:
378,184,835561,2,0,L|321:169,1,58.4999973220826,6|0,0:0|0:0,0:0:0:0:
124,93,835727,2,0,L|180:78,1,58.4999973220826,6|0,0:0|0:0,0:0:0:0:
