osu file format v14

[General]
AudioFilename: YELLOWTRICKPV.mp3
AudioLeadIn: 0
PreviewTime: 66306
Countdown: 0
SampleSet: None
StackLeniency: 0.8
Mode: 0
LetterboxInBreaks: 0
SkinPreference:Default
WidescreenStoryboard: 0

[Editor]
Bookmarks: 11449,22420,34078,44020,55335,60820,66306,76935,88249,90992,93735,94420,95106,96478,99220,104706,110192,121163,132135
DistanceSpacing: 1.5
BeatDivisor: 8
GridSize: 8
TimelineZoom: 3.199999

[Metadata]
Title:YELLOW TRICK
TitleUnicode:YELLOW TRICK
Artist:YuugouP
ArtistUnicode:融合P
Creator:Noffy
Version:oko's Extra
Source:
Tags:vocaloid rin len kagamine 鏡音リン 鏡音レン 融合電波 Yuugou Denpa 7:24 Akira Kenji 輝 naoyan Okoratu Okorin dorothy3242
BeatmapID:777055
BeatmapSetID:237515

[Difficulty]
HPDrainRate:7
CircleSize:4.3
OverallDifficulty:8.4
ApproachRate:9.2
SliderMultiplier:1.7
SliderTickRate:1

[Events]
//Background and Video events
Video,-1106,"Yellow Trick.avi"
0,0,"bowfix.png",0,0
//Break Periods
2,34620,42422
2,77478,86308
//Storyboard Layer 0 (Background)
//Storyboard Layer 1 (Fail)
//Storyboard Layer 2 (Pass)
//Storyboard Layer 3 (Foreground)
//Storyboard Sound Samples

[TimingPoints]
478,342.857142857143,4,3,1,40,1,0
478,-200,4,3,1,40,0,0
2878,-133.333333333333,4,3,1,20,0,0
3220,-133.333333333333,4,3,1,40,0,0
5620,-100,4,3,1,40,0,0
10078,-133.333333333333,4,3,1,40,0,0
11449,-100,4,3,1,70,0,0
33392,-133.333333333333,4,3,1,90,0,0
33478,-133.333333333333,4,3,1,70,0,0
44363,-100,4,3,1,70,0,0
50192,-100,4,3,2,70,0,0
50278,-100,4,3,1,70,0,0
66306,-86.9565217391304,4,3,1,70,0,1
77278,-100,4,3,1,70,0,0
110192,-86.9565217391304,4,3,1,70,0,1
120478,-86.9565217391304,4,3,1,70,0,0
121163,-86.9565217391304,4,3,1,70,0,1
130763,-100,4,3,1,70,0,1
131792,-86.9565217391304,4,3,1,70,0,1
132135,-100,4,3,1,70,0,0

[Colours]
Combo1 : 222,178,222
Combo2 : 0,155,170
Combo3 : 64,208,13
Combo4 : 240,170,12
SliderBorder : 255,255,255

[HitObjects]
182,145,478,6,0,L|187:196,1,42.5,0|0,0:0|2:0,0:0:0:0:
260,259,820,2,0,L|265:310,1,42.5,0|0,0:0|2:0,0:0:0:0:
307,169,1163,2,0,P|340:140|392:146,1,85,0|0,0:0|0:0,0:0:0:0:
455,195,1678,1,0,2:0:0:0:
455,195,1849,6,0,L|455:245,1,42.5,0|0,0:0|2:0,0:0:0:0:
393,327,2192,2,0,L|388:273,1,42.5,0|0,0:0|2:0,0:0:0:0:
296,240,2535,2,0,L|292:301,1,42.5,0|0,0:0|2:0,0:0:0:0:
189,344,2878,2,0,L|187:221,1,95.6250036478044,2|0,0:1|2:0,0:0:0:0:
190,204,3220,6,0,L|116:211,1,63.7500024318696,0|0,0:0|2:0,0:0:0:0:
75,85,3563,2,0,L|147:88,1,63.7500024318696,0|0,0:0|2:0,0:0:0:0:
288,154,3906,2,0,P|315:111|287:24,1,127.500004863739,0|0,0:0|0:0,0:0:0:0:
213,83,4420,1,0,2:0:0:0:
292,158,4592,6,0,P|300:198|299:232,1,63.7500024318696,0|0,0:0|2:0,0:0:0:0:
356,344,4935,2,0,P|357:312|364:281,1,63.7500024318696,0|0,0:0|2:0,0:0:0:0:
455,175,5278,2,0,L|461:256,1,63.7500024318696,0|0,0:0|2:0,0:0:0:0:
388,104,5620,1,8,0:0:0:0:
388,104,5706,1,8,2:3:0:0:
388,104,5792,1,8,2:3:0:0:
295,183,5963,6,0,L|286:274,1,85,8|0,0:0|2:0,0:0:0:0:
192,89,6306,2,0,L|183:180,1,85,8|0,0:0|0:2,0:0:0:0:
304,99,6649,2,0,L|295:183,1,85,8|0,0:0|2:0,0:0:0:0:
200,5,6992,2,0,L|191:89,1,85,8|0,0:0|2:0,0:0:0:0:
96,208,7335,6,0,B|81:184|81:184|-4:178,1,85,8|0,0:0|2:0,0:0:0:0:
143,281,7678,2,0,B|158:305|158:305|243:311,1,85,8|0,0:0|2:0,0:0:0:0:
354,204,8020,2,0,B|369:180|369:180|454:174,1,85,8|0,0:0|2:0,0:0:0:0:
360,302,8363,1,8,0:0:0:0:
251,221,8535,1,8,0:0:0:0:
338,81,8706,6,0,L|449:73,1,85,8|0,0:0|2:0,0:0:0:0:
249,51,9049,2,0,L|255:136,1,85,8|0,0:0|2:0,0:0:0:0:
305,318,9392,2,0,L|310:233,1,85,8|0,0:0|2:0,0:0:0:0:
171,27,9735,2,0,L|176:112,1,85,8|0,0:0|2:0,0:0:0:0:
197,304,10078,6,0,B|203:178|203:178|134:201|78:188|76:185|76:185|111:126|181:110,1,382.500014591218,8|8,0:0|0:0,0:0:0:0:
209,90,11192,1,8,0:0:0:0:
223,62,11277,1,8,0:0:0:0:
221,30,11363,1,8,0:0:0:0:
203,5,11449,6,0,L|109:10,1,85,6|0,0:2|0:0,0:0:0:0:
76,26,11706,1,0,0:0:0:0:
76,26,11792,2,0,P|59:73|75:127,1,85,4|0,0:0|0:0,0:0:0:0:
245,288,12135,1,8,0:0:0:0:
278,263,12220,1,0,0:0:0:0:
287,223,12306,1,0,0:0:0:0:
267,187,12392,1,0,0:0:0:0:
227,174,12478,2,0,B|188:184|188:184|158:250,1,85,6|2,0:0|0:0,0:0:0:0:
130,140,12735,1,0,0:0:0:0:
130,140,12820,6,0,L|141:38,1,85,10|0,0:0|0:0,0:0:0:0:
392,72,13163,2,0,B|405:103|403:138|388:129|377:170|403:211,1,127.5,4|0,0:0|0:0,0:0:0:0:
417,230,13506,1,8,0:0:0:0:
488,96,13678,1,0,0:0:0:0:
305,109,13849,1,6,0:0:0:0:
279,301,14020,2,0,L|271:361,1,42.5,10|0,0:0|0:0,0:0:0:0:
246,225,14192,6,0,P|197:197|149:209,1,85,10|0,0:0|0:0,0:0:0:0:
123,214,14449,1,0,0:0:0:0:
123,214,14535,2,0,L|124:109,1,85,4|0,0:0|0:0,0:0:0:0:
348,33,14878,1,8,0:0:0:0:
381,58,14963,1,0,0:0:0:0:
398,96,15049,1,0,0:0:0:0:
394,138,15135,1,0,0:0:0:0:
369,172,15220,2,0,B|346:157|346:157|260:152,1,85,6|2,0:0|0:0,0:0:0:0:
378,181,15478,1,0,0:0:0:0:
378,181,15563,6,0,L|378:286,1,85,10|0,0:0|0:0,0:0:0:0:
215,149,15906,2,0,P|163:138|98:174,1,127.5,4|0,0:0|0:0,0:0:0:0:
81,211,16249,1,8,0:0:0:0:
276,221,16420,1,0,0:0:0:0:
193,51,16592,1,4,0:0:0:0:
178,240,16763,1,8,0:0:0:0:
193,51,16935,6,0,B|231:35|231:35|296:47,1,85,10|0,0:0|0:0,0:0:0:0:
318,67,17192,1,0,0:0:0:0:
318,67,17278,2,0,P|312:120|317:167,1,85,4|0,0:0|0:0,0:0:0:0:
444,303,17620,1,8,0:0:0:0:
438,261,17705,1,0,0:0:0:0:
409,231,17791,1,0,0:0:0:0:
368,226,17877,1,0,0:0:0:0:
332,247,17963,2,0,B|316:282|316:282|320:351,1,85,6|2,0:0|0:0,0:0:0:0:
237,238,18220,1,0,0:0:0:0:
237,238,18306,6,0,P|182:218|128:229,1,85,10|0,0:0|0:0,0:0:0:0:
54,89,18649,2,0,L|196:73,1,127.5,4|0,0:0|0:0,0:0:0:0:
234,98,18992,1,8,0:0:0:0:
88,173,19163,1,0,0:0:0:0:
120,8,19335,1,6,0:0:0:0:
191,199,19506,2,0,L|191:254,1,42.5,10|0,0:0|0:0,0:0:0:0:
271,171,19678,5,10,0:0:0:0:
164,124,19849,1,8,0:0:0:0:
280,287,20020,1,12,0:0:0:0:
360,122,20192,1,8,0:0:0:0:
360,122,20278,1,0,0:0:0:0:
360,122,20363,1,8,0:0:0:0:
205,218,20535,1,8,0:0:0:0:
393,220,20706,1,14,0:0:0:0:
267,94,20878,5,10,0:0:0:0:
230,72,20963,1,8,0:0:0:0:
188,65,21049,1,10,0:0:0:0:
147,74,21135,1,8,0:0:0:0:
111,96,21220,1,8,0:0:0:0:
86,130,21306,1,8,0:0:0:0:
78,175,21392,1,12,0:0:0:0:
93,8,21563,1,8,0:0:0:0:
333,85,21735,2,8,L|384:96,1,42.5
165,154,21906,2,8,L|169:96,1,42.5
339,221,22078,2,8,L|345:279,1,42.5
237,55,22249,2,8,L|192:33,1,42.5
252,201,22420,6,0,P|241:241|248:295,1,85,4|0,0:2|0:0,0:0:0:0:
439,195,22763,2,0,B|421:131|460:144|441:62,1,127.5,4|0,0:0|0:0,0:0:0:0:
424,21,23106,1,8,0:0:0:0:
506,166,23278,1,0,0:0:0:0:
293,95,23449,1,4,0:0:0:0:
372,282,23620,6,0,P|375:242|364:187,1,85,0|8,0:0|0:0,0:0:0:0:
132,199,23963,2,0,P|124:240|127:283,1,85,0|4,0:0|0:0,0:0:0:0:
252,147,24306,1,0,0:0:0:0:
26,98,24478,1,8,0:0:0:0:
236,30,24649,1,0,0:0:0:0:
26,98,24820,1,4,0:0:0:0:
160,11,24992,1,8,0:0:0:0:
132,199,25163,6,0,P|124:240|127:283,1,85,8|0,0:0|0:0,0:0:0:0:
268,131,25506,2,0,B|300:122|338:125|326:139|378:143|404:126,1,127.5,4|0,0:0|0:0,0:0:0:0:
437,105,25849,1,8,0:0:0:0:
255,15,26020,1,0,0:0:0:0:
296,213,26192,1,4,0:0:0:0:
152,80,26363,6,0,P|103:72|48:84,1,85,0|8,0:0|0:0,0:0:0:0:
213,191,26706,2,0,P|253:162|269:110,1,85,0|4,0:0|0:0,0:0:0:0:
57,185,27049,1,0,0:0:0:0:
196,290,27220,1,8,0:0:0:0:
152,77,27392,1,0,0:0:0:0:
104,276,27563,1,4,0:0:0:0:
266,248,27735,1,8,0:0:0:0:
33,254,27906,6,0,P|23:302|28:349,1,85,8|0,0:0|0:0,0:0:0:0:
200,192,28249,2,0,P|251:165|331:195,1,127.5,4|0,0:0|0:0,0:0:0:0:
345,220,28592,1,8,0:0:0:0:
207,94,28763,2,0,P|193:66|196:10,1,85,0|4,0:0|0:0,0:0:0:0:
447,69,29106,6,0,P|449:131|430:174,1,85,0|8,0:0|0:0,0:0:0:0:
335,304,29449,1,0,0:0:0:0:
309,136,29620,1,4,0:0:0:0:
459,266,29792,1,0,0:0:0:0:
186,220,29963,1,8,0:0:0:0:
384,168,30135,1,0,0:0:0:0:
253,302,30306,1,4,0:0:0:0:
234,122,30478,1,0,0:0:0:0:
162,304,30649,5,8,0:0:0:0:
70,225,30820,1,8,0:0:0:0:
255,226,30991,1,12,0:0:0:0:
77,317,31163,1,8,0:0:0:0:
77,317,31249,1,8,0:0:0:0:
77,317,31335,1,8,0:0:0:0:
137,158,31506,1,8,0:0:0:0:
212,370,31678,1,12,0:0:0:0:
70,225,31849,5,8,0:0:0:0:
51,186,31934,1,8,0:0:0:0:
52,144,32020,1,8,0:0:0:0:
70,106,32106,1,8,0:0:0:0:
103,80,32191,1,8,0:0:0:0:
144,71,32277,1,8,0:0:0:0:
185,80,32363,1,12,0:0:0:0:
154,269,32535,1,8,0:0:0:0:
327,80,32706,1,8,0:0:0:0:
368,71,32792,1,8,0:0:0:0:
409,80,32878,1,8,0:0:0:0:
442,106,32963,1,8,0:0:0:0:
460,144,33049,2,0,L|448:177,6,21.25,12|0|8|0|8|0|8,0:0|0:0|0:0|0:0|0:0|0:0|0:0,0:0:0:0:
441,206,33392,6,0,B|335:166|335:166|362:254|281:287|281:287|397:343,1,382.500014591218,6|4,0:0|0:0,0:0:0:0:
256,192,42992,12,8,44192,0:0:0:0:
334,230,44363,6,0,L|344:127,1,85,4|0,0:2|0:0,0:0:0:0:
175,66,44706,2,0,B|177:115|177:115|188:138|188:138|189:199,1,127.5,4|0,0:0|0:0,0:0:0:0:
193,243,45049,1,8,0:0:0:0:
74,126,45220,1,0,0:0:0:0:
256,67,45392,1,4,0:0:0:0:
96,236,45563,6,0,B|88:266|88:266|91:332,1,85,0|8,0:0|0:0,0:0:0:0:
297,188,45906,2,0,B|336:172|336:172|371:133,1,85,0|4,0:0|0:0,0:0:0:0:
195,150,46249,1,0,0:0:0:0:
269,319,46420,1,8,0:0:0:0:
419,209,46592,1,0,0:0:0:0:
203,243,46763,1,4,0:0:0:0:
361,282,46935,1,8,0:0:0:0:
316,70,47106,6,0,B|291:54|291:54|221:59,1,85,8|0,0:0|0:0,0:0:0:0:
84,188,47449,2,0,L|88:318,1,127.5,4|0,0:0|0:0,0:0:0:0:
120,356,47792,1,8,0:0:0:0:
9,131,47963,2,0,B|11:85|11:85|34:37,1,85,0|4,0:0|0:0,0:0:0:0:
218,132,48306,6,0,L|221:229,1,85,8|8,0:0|0:0,0:0:0:0:
258,291,48563,1,0,0:0:0:0:
258,291,48649,2,0,B|283:259|283:259|359:237,1,85,0|4,0:0|0:0,0:0:0:0:
148,203,48992,1,0,0:0:0:0:
316,154,49163,1,8,0:0:0:0:
198,347,49335,1,0,0:0:0:0:
228,90,49506,1,4,0:0:0:0:
252,250,49678,1,8,0:0:0:0:
211,63,49849,6,0,L|98:62,1,85,8|0,0:0|0:0,0:0:0:0:
74,231,50192,2,0,B|99:259|99:259|110:139,1,127.5,6|0,0:0|0:0,0:0:0:0:
74,231,50535,2,0,B|71:285|71:285|126:319|126:319|187:292,1,170,8|4,0:0|0:0,0:0:0:0:
357,144,51049,6,0,L|261:157,1,85,0|8,0:0|0:0,0:0:0:0:
444,219,51392,1,0,0:0:0:0:
378,25,51563,2,0,B|352:60|352:60|359:178,1,127.5,4|0,0:0|0:0,0:0:0:0:
373,182,51906,1,8,0:0:0:0:
201,108,52078,1,0,0:0:0:0:
222,301,52249,1,4,0:0:0:0:
270,153,52420,1,8,0:0:0:0:
139,241,52592,5,8,0:0:0:0:
280,236,52763,1,8,0:0:0:0:
110,118,52935,1,12,0:0:0:0:
222,301,53106,1,8,0:0:0:0:
222,301,53192,1,8,0:0:0:0:
222,301,53278,1,8,0:0:0:0:
220,106,53449,1,8,0:0:0:0:
47,204,53620,1,12,0:0:0:0:
281,198,53792,5,8,0:0:0:0:
311,168,53877,1,8,0:0:0:0:
328,129,53963,1,8,0:0:0:0:
328,87,54049,1,8,0:0:0:0:
313,48,54134,1,8,0:0:0:0:
283,18,54220,1,8,0:0:0:0:
244,1,54306,1,12,0:0:0:0:
408,177,54478,1,8,0:0:0:0:
220,106,54649,1,8,0:0:0:0:
179,94,54734,1,8,0:0:0:0:
138,103,54820,1,8,0:0:0:0:
106,130,54906,1,8,0:0:0:0:
91,170,54992,2,0,L|96:208,6,21.25,12|0|8|0|8|0|8,0:0|0:0|0:0|0:0|0:0|0:0|0:0,0:0:0:0:
93,234,55335,5,6,0:2:0:0:
230,204,55506,1,0,0:0:0:0:
230,204,55592,1,0,0:0:0:0:
230,204,55678,1,4,0:0:0:0:
170,334,55849,1,0,0:0:0:0:
165,128,56020,2,0,B|202:96|268:102|246:125|294:131|343:115,1,170,8|6,0:0|0:0,0:0:0:0:
469,26,56535,2,0,L|386:30,1,42.5,2|0,0:0|0:0,0:0:0:0:
486,132,56706,5,10,0:0:0:0:
336,61,56878,1,0,0:0:0:0:
336,61,56963,1,0,0:0:0:0:
336,61,57049,1,4,0:0:0:0:
380,210,57220,1,0,0:0:0:0:
336,61,57392,2,0,P|260:34|192:63,1,127.5,8|0,0:0|0:0,0:0:0:0:
187,73,57735,2,0,L|196:175,1,85,6|10,0:0|0:0,0:0:0:0:
222,247,57992,1,0,0:0:0:0:
222,247,58078,6,0,P|247:204|304:196,1,85,10|0,0:0|0:0,0:0:0:0:
356,280,58420,2,0,P|341:329|343:374,1,85,4|0,0:0|0:0,0:0:0:0:
461,233,58763,2,0,P|460:188|437:140,1,85,8|0,0:0|0:0,0:0:0:0:
237,165,59106,2,0,P|221:204|221:246,1,85,6|2,0:0|0:0,0:0:0:0:
245,173,59363,1,0,0:0:0:0:
245,173,59449,6,0,P|260:133|260:91,1,85,10|0,0:0|0:0,0:0:0:0:
161,30,59792,2,0,P|112:38|63:23,1,85,4|0,0:0|0:0,0:0:0:0:
35,234,60135,2,0,P|35:276|50:315,1,85,8|0,0:0|0:0,0:0:0:0:
293,281,60478,1,4,0:0:0:0:
154,166,60649,1,8,0:0:0:0:
138,345,60820,5,10,0:0:0:0:
255,194,60992,1,0,0:0:0:0:
255,194,61078,1,0,0:0:0:0:
255,194,61163,1,4,0:0:0:0:
85,242,61335,1,0,0:0:0:0:
293,281,61506,2,0,B|352:289|352:289|392:319|392:319|455:330,1,170,8|6,0:0|0:0,0:0:0:0:
169,201,62020,2,0,L|220:193,1,42.5,2|0,0:0|0:0,0:0:0:0:
153,285,62192,5,10,0:0:0:0:
180,106,62363,1,0,0:0:0:0:
180,106,62449,1,0,0:0:0:0:
180,106,62535,1,4,0:0:0:0:
50,189,62706,1,0,0:0:0:0:
270,123,62878,2,0,B|318:116|318:116|422:133,1,127.5,8|0,0:0|0:0,0:0:0:0:
408,169,63220,2,0,B|394:205|394:205|400:262,1,85,6|10,0:0|0:0,0:0:0:0:
419,293,63478,1,0,0:0:0:0:
419,293,63563,5,10,0:0:0:0:
279,216,63735,2,0,L|221:198,1,42.5,0|0,0:0|0:0,0:0:0:0:
303,351,63906,1,12,0:0:0:0:
340,151,64078,1,8,0:0:0:0:
340,151,64163,1,8,0:0:0:0:
340,151,64249,1,8,0:0:0:0:
243,290,64420,1,8,0:0:0:0:
452,225,64592,1,14,0:0:0:0:
312,37,64763,5,10,0:0:0:0:
273,53,64848,1,8,0:0:0:0:
243,83,64934,1,10,0:0:0:0:
228,123,65020,1,8,0:0:0:0:
230,165,65105,1,0,0:0:0:0:
248,203,65191,1,0,0:0:0:0:
280,231,65277,1,12,0:0:0:0:
136,123,65449,1,8,0:0:0:0:
378,159,65620,1,8,0:0:0:0:
396,197,65705,1,8,0:0:0:0:
403,238,65791,1,8,0:0:0:0:
398,280,65877,1,8,0:0:0:0:
382,320,65963,2,0,L|360:344,6,21.25,12|0|8|0|8|0|8,0:0|0:0|0:0|0:0|0:0|0:0|0:0,0:0:0:0:
289,329,66306,5,4,0:2:0:0:
470,224,66478,1,0,0:0:0:0:
278,47,66649,2,0,P|287:106|285:172,1,97.7500018644333,4|0,0:0|0:0,0:0:0:0:
98,289,66992,1,8,0:0:0:0:
140,64,67163,1,0,0:0:0:0:
219,260,67335,1,4,0:0:0:0:
35,108,67506,1,0,0:0:0:0:
369,152,67678,5,8,0:0:0:0:
278,322,67849,1,0,0:0:0:0:
129,193,68020,1,4,0:0:0:0:
224,24,68192,1,0,0:0:0:0:
196,324,68363,2,0,B|203:270|203:270|222:248|222:248|229:176,1,146.62500279665,8|0,0:0|0:0,0:0:0:0:
235,130,68706,1,4,0:0:0:0:
278,322,68878,1,8,0:0:0:0:
106,108,69049,5,8,0:0:0:0:
100,322,69220,1,0,0:0:0:0:
310,168,69392,2,0,P|365:141|447:178,1,146.62500279665,4|0,0:0|0:0,0:0:0:0:
452,222,69735,2,0,L|435:330,1,97.7500018644333,8|0,0:0|0:0,0:0:0:0:
217,40,70078,2,0,L|227:145,1,97.7500018644333,4|0,0:0|0:0,0:0:0:0:
305,326,70420,5,8,0:0:0:0:
374,105,70592,1,0,0:0:0:0:
140,261,70763,2,0,P|131:317|152:393,1,97.7500018644333,4|0,0:0|0:0,0:0:0:0:
55,173,71106,5,8,0:0:0:0:
301,214,71278,1,0,0:0:0:0:
128,19,71449,2,0,P|135:75|125:135,1,97.7500018644333,4|8,0:0|0:0,0:0:0:0:
32,290,71792,5,8,0:0:0:0:
62,59,71963,1,0,0:0:0:0:
235,272,72135,1,4,0:0:0:0:
38,156,72306,1,0,0:0:0:0:
281,39,72478,2,0,B|288:69|288:69|275:148,1,97.7500018644333,8|0,0:0|0:0,0:0:0:0:
115,364,72820,2,0,L|123:238,1,97.7500018644333,4|0,0:0|0:0,0:0:0:0:
273,31,73163,5,8,0:0:0:0:
319,241,73335,1,0,0:0:0:0:
163,151,73506,1,4,0:0:0:0:
427,117,73678,1,0,0:0:0:0:
229,288,73849,2,0,P|217:225|276:152,1,146.62500279665,8|0,0:0|0:0,0:0:0:0:
310,142,74192,1,4,0:0:0:0:
267,360,74363,1,8,0:0:0:0:
122,242,74535,5,8,0:0:0:0:
309,237,74706,1,8,0:0:0:0:
83,355,74878,1,12,0:0:0:0:
195,195,75049,1,8,0:0:0:0:
195,195,75135,1,8,0:0:0:0:
195,195,75220,1,8,0:0:0:0:
176,372,75392,1,8,0:0:0:0:
75,144,75563,1,12,0:0:0:0:
307,105,75735,5,8,0:0:0:0:
329,148,75820,1,8,0:0:0:0:
336,196,75906,1,8,0:0:0:0:
326,243,75992,1,8,0:0:0:0:
300,285,76077,1,8,0:0:0:0:
262,315,76163,1,8,0:0:0:0:
216,330,76249,1,12,0:0:0:0:
421,258,76420,1,8,0:0:0:0:
195,195,76592,1,8,0:0:0:0:
169,153,76677,1,8,0:0:0:0:
160,105,76763,1,8,0:0:0:0:
168,57,76849,1,8,0:0:0:0:
193,15,76935,2,0,L|231:-3,6,24.4375004661083,12|0|8|0|8|0|8,0:0|0:0|0:0|0:0|0:0|0:0|0:0,0:0:0:0:
259,104,77278,5,6,0:2:0:0:
256,192,86878,12,0,88078,0:0:0:0:
196,248,88249,6,0,L|204:133,1,85,4|4,0:2|0:0,0:0:0:0:
300,47,88592,2,0,L|294:131,1,85,8|4,0:0|0:0,0:0:0:0:
294,131,88849,1,0,0:0:0:0:
294,131,88935,1,8,0:0:0:0:
168,87,89106,1,4,0:0:0:0:
272,237,89278,1,10,0:0:0:0:
168,87,89449,2,0,L|139:31,1,42.5,6|0,0:0|0:0,0:0:0:0:
87,147,89620,6,0,B|79:197|79:197|86:291,1,127.5,10|0,0:0|0:0,0:0:0:0:
121,313,89963,2,0,B|153:295|153:295|232:299,1,85,8|4,0:0|0:0,0:0:0:0:
229,333,90220,1,0,0:0:0:0:
229,333,90306,1,8,0:0:0:0:
53,349,90478,1,4,0:0:0:0:
195,168,90649,1,10,0:0:0:0:
151,322,90820,2,0,L|140:373,1,42.5,14|0,0:0|0:0,0:0:0:0:
224,253,90992,6,0,P|283:233|334:252,1,85,10|4,0:0|0:0,0:0:0:0:
447,317,91335,2,0,P|459:269|451:219,1,85,8|4,0:0|0:0,0:0:0:0:
441,200,91592,1,0,0:0:0:0:
441,200,91678,1,8,0:0:0:0:
385,365,91849,1,4,0:0:0:0:
391,138,92020,1,10,0:0:0:0:
306,245,92192,2,0,L|299:302,1,42.5,6|0,0:0|0:0,0:0:0:0:
244,187,92363,6,0,P|228:133|269:45,1,127.5,10|0,0:0|0:0,0:0:0:0:
277,24,92706,2,0,P|230:17|178:17,1,85,8|4,0:0|0:0,0:0:0:0:
153,52,92963,1,0,0:0:0:0:
153,52,93049,1,8,0:0:0:0:
322,115,93220,1,4,0:0:0:0:
121,167,93392,1,8,0:0:0:0:
245,6,93563,1,12,0:0:0:0:
208,204,93735,6,0,B|198:241|198:241|201:328,1,85,10|4,0:0|0:0,0:0:0:0:
313,198,94078,2,0,B|323:161|323:161|320:74,1,85,8|4,0:0|0:0,0:0:0:0:
322,115,94335,1,0,0:0:0:0:
322,115,94420,1,8,0:0:0:0:
385,277,94592,1,4,0:0:0:0:
238,119,94763,2,0,P|246:80|283:45,1,85,10|6,0:0|0:0,0:0:0:0:
351,40,95020,1,0,0:0:0:0:
351,40,95106,6,0,L|451:46,1,85,10|4,0:0|0:0,0:0:0:0:
399,246,95449,2,0,P|379:300|387:346,1,85,8|4,0:0|0:0,0:0:0:0:
406,354,95706,1,0,0:0:0:0:
406,354,95792,1,8,0:0:0:0:
490,218,95963,1,4,0:0:0:0:
262,269,96135,1,10,0:0:0:0:
374,143,96306,2,0,L|403:113,1,42.5,14|0,0:0|0:0,0:0:0:0:
280,94,96478,5,10,0:0:0:0:
344,237,96649,1,12,0:0:0:0:
375,37,96820,1,8,0:0:0:0:
281,179,96992,1,12,0:0:0:0:
281,179,97078,1,8,0:0:0:0:
281,179,97163,1,8,0:0:0:0:
455,147,97335,1,12,0:0:0:0:
261,17,97506,1,10,0:0:0:0:
195,250,97678,5,14,0:0:0:0:
177,211,97763,1,8,0:0:0:0:
177,169,97849,1,10,0:0:0:0:
193,130,97935,1,8,0:0:0:0:
224,100,98020,1,12,0:0:0:0:
263,85,98106,1,8,0:0:0:0:
305,87,98192,1,8,0:0:0:0:
288,264,98363,1,12,0:0:0:0:
160,67,98535,1,8,0:0:0:0:
124,44,98620,1,8,0:0:0:0:
82,39,98706,1,12,0:0:0:0:
42,54,98792,1,8,0:0:0:0:
13,84,98878,2,0,L|19:123,6,21.25,8|0|8|0|12|0|8,0:0|0:0|0:0|0:0|0:0|0:0|0:0,0:0:0:0:
24,146,99220,5,4,0:2:0:0:
181,172,99392,1,0,0:0:0:0:
181,172,99478,1,0,0:0:0:0:
181,172,99563,1,4,0:0:0:0:
53,251,99735,1,0,0:0:0:0:
209,81,99906,2,0,B|183:170|237:142|204:263,1,170,8|6,0:0|0:0,0:0:0:0:
106,28,100420,2,0,L|161:12,1,42.5,2|0,0:0|0:0,0:0:0:0:
112,118,100592,5,10,0:0:0:0:
239,18,100763,1,0,0:0:0:0:
239,18,100849,1,0,0:0:0:0:
239,18,100935,1,4,0:0:0:0:
199,188,101106,1,0,0:0:0:0:
362,88,101278,2,0,P|416:72|469:144,1,127.5,8|0,0:0|0:0,0:0:0:0:
474,159,101620,2,0,P|460:200|462:254,1,85,6|10,0:0|0:0,0:0:0:0:
462,355,101878,1,0,0:0:0:0:
462,355,101963,6,0,P|413:334|359:342,1,85,10|0,0:0|0:0,0:0:0:0:
265,358,102306,2,0,P|219:366|170:343,1,85,4|0,0:0|0:0,0:0:0:0:
95,264,102649,2,0,L|102:170,1,85,8|0,0:0|0:0,0:0:0:0:
212,28,102992,2,0,L|218:112,1,85,6|2,0:0|0:0,0:0:0:0:
232,216,103249,1,0,0:0:0:0:
232,216,103335,6,0,P|270:187|318:185,1,85,10|0,0:0|0:0,0:0:0:0:
397,278,103678,2,0,P|387:330|393:392,1,85,4|0,0:0|0:0,0:0:0:0:
491,187,104020,2,0,P|487:144|475:104,1,85,8|0,0:0|0:0,0:0:0:0:
256,109,104363,1,4,0:0:0:0:
389,242,104535,1,8,0:0:0:0:
380,48,104706,5,10,0:0:0:0:
277,211,104878,1,0,0:0:0:0:
277,211,104963,1,0,0:0:0:0:
277,211,105049,1,4,0:0:0:0:
418,172,105220,1,0,0:0:0:0:
241,69,105392,2,0,B|188:77|188:77|138:61|138:61|53:74,1,170,8|6,0:0|0:0,0:0:0:0:
342,203,105906,2,0,L|331:141,1,42.5,2|0,0:0|0:0,0:0:0:0:
263,239,106078,5,10,0:0:0:0:
435,192,106249,1,0,0:0:0:0:
435,192,106335,1,0,0:0:0:0:
435,192,106420,1,4,0:0:0:0:
302,99,106592,1,0,0:0:0:0:
382,268,106763,2,0,B|326:240|326:240|227:252,1,127.5,8|0,0:0|0:0,0:0:0:0:
220,270,107106,2,0,B|224:360|224:359,1,85,6|10,0:0|0:0,0:0:0:0:
267,384,107363,1,0,0:0:0:0:
267,384,107449,5,10,0:0:0:0:
342,203,107620,2,0,L|356:150,1,42.5,8|0,0:0|0:0,0:0:0:0:
345,329,107792,1,12,0:0:0:0:
236,159,107963,1,8,0:0:0:0:
236,159,108049,1,8,0:0:0:0:
236,159,108135,1,8,0:0:0:0:
219,307,108306,1,8,0:0:0:0:
378,165,108478,1,14,0:0:0:0:
144,88,108649,5,10,0:0:0:0:
128,127,108734,1,8,0:0:0:0:
129,170,108820,1,10,0:0:0:0:
147,208,108906,1,8,0:0:0:0:
178,235,108991,1,8,0:0:0:0:
218,250,109077,1,8,0:0:0:0:
261,247,109163,1,12,0:0:0:0:
66,234,109335,1,8,0:0:0:0:
298,122,109506,1,8,0:0:0:0:
339,130,109591,1,8,0:0:0:0:
374,153,109677,1,8,0:0:0:0:
397,189,109763,1,8,0:0:0:0:
404,230,109849,2,0,L|399:262,6,21.25,12|0|8|0|8|0|8,0:0|0:0|0:0|0:0|0:0|0:0|0:0,0:0:0:0:
351,338,110192,5,4,0:2:0:0:
206,171,110363,1,0,0:0:0:0:
402,42,110535,2,0,L|388:144,1,97.7500018644333,4|0,0:0|0:0,0:0:0:0:
108,82,110878,1,8,0:0:0:0:
318,43,111049,1,0,0:0:0:0:
97,203,111220,1,4,0:0:0:0:
234,34,111392,1,0,0:0:0:0:
214,284,111563,5,8,0:0:0:0:
155,25,111735,1,0,0:0:0:0:
62,227,111906,1,4,0:0:0:0:
280,125,112078,1,0,0:0:0:0:
129,317,112249,2,0,B|130:275|130:275|147:230|147:230|144:139,1,146.62500279665,8|0,0:0|0:0,0:0:0:0:
149,102,112592,1,4,0:0:0:0:
214,284,112763,1,8,0:0:0:0:
66,118,112935,5,8,0:0:0:0:
285,87,113106,1,0,0:0:0:0:
100,209,113278,1,4,0:0:0:0:
238,20,113449,1,0,0:0:0:0:
214,284,113620,2,0,P|227:227|332:209,1,146.62500279665,8|0,0:0|0:0,0:0:0:0:
368,255,113963,2,0,L|373:354,1,97.7500018644333,4|0,0:0|0:0,0:0:0:0:
129,159,114306,5,8,0:0:0:0:
367,150,114478,1,0,0:0:0:0:
212,380,114649,2,0,P|218:323|210:270,1,97.7500018644333,4|0,0:0|0:0,0:0:0:0:
23,146,114992,5,8,0:0:0:0:
112,342,115163,1,0,0:0:0:0:
192,68,115335,2,0,P|217:23|273:-1,1,97.7500018644333,4|8,0:0|0:0,0:0:0:0:
213,243,115678,5,8,0:0:0:0:
73,77,115849,1,0,0:0:0:0:
350,113,116020,2,0,L|347:290,1,146.62500279665,4|0,0:0|0:0,0:0:0:0:
275,322,116363,2,0,P|258:269|276:206,1,97.7500018644333,8|0,0:0|0:0,0:0:0:0:
469,80,116706,2,0,P|471:140|447:196,1,97.7500018644333,4|0,0:0|0:0,0:0:0:0:
180,141,117049,5,8,0:0:0:0:
382,61,117220,1,0,0:0:0:0:
294,215,117392,1,4,0:0:0:0:
261,0,117563,1,0,0:0:0:0:
210,227,117735,2,0,B|171:259|171:259|80:228,1,146.62500279665,8|0,0:0|0:0,0:0:0:0:
27,167,118078,1,4,0:0:0:0:
294,215,118249,1,8,0:0:0:0:
151,330,118420,5,8,0:0:0:0:
179,139,118592,1,8,0:0:0:0:
286,342,118763,1,12,0:0:0:0:
106,208,118935,1,8,0:0:0:0:
106,208,119020,1,8,0:0:0:0:
106,208,119106,1,8,0:0:0:0:
285,123,119278,1,8,0:0:0:0:
218,361,119449,1,12,0:0:0:0:
176,125,119620,5,8,0:0:0:0:
189,78,119705,1,8,0:0:0:0:
220,41,119791,1,8,0:0:0:0:
265,21,119877,1,8,0:0:0:0:
313,23,119962,1,0,0:0:0:0:
357,44,120048,1,0,0:0:0:0:
391,86,120134,1,12,0:0:0:0:
137,19,120306,1,8,0:0:0:0:
391,86,120478,1,8,0:0:0:0:
399,133,120563,1,8,0:0:0:0:
386,180,120649,1,8,0:0:0:0:
355,217,120735,1,8,0:0:0:0:
311,236,120820,2,0,L|279:241,6,24.4375004661083,12|0|8|0|8|0|8,0:0|0:0|0:0|0:0|0:0|0:0|0:0,0:0:0:0:
286,116,121163,5,4,0:2:0:0:
436,260,121335,1,0,0:0:0:0:
182,143,121506,2,0,P|123:151|93:232,1,146.62500279665,4|0,0:0|0:0,0:0:0:0:
26,152,121849,2,0,L|14:43,1,97.7500018644333,8|0,0:0|0:0,0:0:0:0:
184,260,122192,2,0,L|172:357,1,97.7500018644333,4|0,0:0|0:0,0:0:0:0:
190,125,122535,5,8,0:0:0:0:
352,268,122706,1,0,0:0:0:0:
116,226,122878,1,4,0:0:0:0:
246,46,123049,1,0,0:0:0:0:
259,296,123220,2,0,P|263:230|343:170,1,146.62500279665,8|0,0:0|0:0,0:0:0:0:
405,157,123563,1,4,0:0:0:0:
326,354,123735,1,8,0:0:0:0:
206,137,123906,5,8,0:0:0:0:
433,116,124078,1,0,0:0:0:0:
223,229,124249,1,4,0:0:0:0:
280,48,124420,1,0,0:0:0:0:
396,287,124592,2,0,B|403:316|403:316|406:401,1,97.7500018644333,8|0,0:0|0:0,0:0:0:0:
206,137,124935,2,0,P|144:116|83:129,1,97.7500018644333,4|0,0:0|0:0,0:0:0:0:
268,268,125278,5,8,0:0:0:0:
384,105,125449,1,0,0:0:0:0:
140,206,125620,2,0,P|130:269|153:329,1,97.7500018644333,4|0,0:0|0:0,0:0:0:0:
261,44,125963,5,8,0:0:0:0:
36,127,126135,1,0,0:0:0:0:
289,309,126306,2,0,P|298:251|289:184,1,97.7500018644333,4|8,0:0|0:0,0:0:0:0:
127,35,126649,5,8,0:0:0:0:
207,236,126820,1,0,0:0:0:0:
365,50,126992,2,0,B|394:16|394:16|516:-1,1,146.62500279665,4|0,0:0|0:0,0:0:0:0:
466,103,127335,2,0,B|460:142|460:142|469:210,1,97.7500018644333,8|0,0:0|0:0,0:0:0:0:
192,118,127678,2,0,B|144:108|144:108|73:121,1,97.7500018644333,4|0,0:0|0:0,0:0:0:0:
259,325,128020,5,8,0:0:0:0:
326,146,128192,1,0,0:0:0:0:
172,10,128363,1,4,0:0:0:0:
111,215,128535,1,0,0:0:0:0:
247,30,128706,2,0,B|231:70|239:107|253:99|262:150|234:198,1,146.62500279665,8|0,0:0|0:0,0:0:0:0:
188,237,129049,1,4,0:0:0:0:
326,67,129220,1,8,0:0:0:0:
310,243,129392,5,8,0:0:0:0:
186,141,129563,1,8,0:0:0:0:
411,139,129735,1,8,0:0:0:0:
260,184,129906,1,8,0:0:0:0:
260,184,129992,1,8,0:0:0:0:
260,184,130078,1,8,0:0:0:0:
359,17,130249,1,8,0:0:0:0:
391,259,130420,1,8,0:0:0:0:
221,38,130592,1,8,0:0:0:0:
221,38,130678,1,8,0:0:0:0:
221,38,130763,6,0,P|161:31|125:39,1,85,8|0,0:0|0:0,0:0:0:0:
65,114,131106,2,0,L|71:211,1,85
281,342,131449,1,14,0:0:0:0:
281,126,131620,1,4,0:0:0:0:
156,320,131792,2,0,L|142:344,6,24.4375004661083,8|0|8|0|8|0|8,0:0|0:0|0:0|0:0|0:0|0:0|0:0,0:0:0:0:
155,197,132135,5,4,0:2:0:0:
