osu file format v14

[General]
AudioFilename: YELLOWTRICKPV.mp3
AudioLeadIn: 0
PreviewTime: 66306
Countdown: 0
SampleSet: None
StackLeniency: 0.6
Mode: 0
LetterboxInBreaks: 0
SkinPreference:Default
WidescreenStoryboard: 0

[Editor]
Bookmarks: 6306,11449,22420,34078,44020,55335,60820,66306,76935,88249,90992,93735,94420,95106,96478,99220,104706,110192,121163,132135
DistanceSpacing: 0.8
BeatDivisor: 4
GridSize: 8
TimelineZoom: 3.199999

[Metadata]
Title:YELLOW TRICK
TitleUnicode:YELLOW TRICK
Artist:YuugouP
ArtistUnicode:融合P
Creator:Noffy
Version:oko's Another
Source:
Tags:vocaloid rin len kagamine 鏡音リン 鏡音レン 融合電波 Yuugou Denpa 7:24 Akira Kenji 輝 naoyan Okoratu Okorin dorothy3242
BeatmapID:609853
BeatmapSetID:237515

[Difficulty]
HPDrainRate:7
CircleSize:4.8
OverallDifficulty:8
ApproachRate:9
SliderMultiplier:1.6
SliderTickRate:1

[Events]
//Background and Video events
Video,-1106,"Yellow Trick.avi"
0,0,"bowfix.png",0,0
//Break Periods
2,34620,42392
2,77478,86278
//Storyboard Layer 0 (Background)
//Storyboard Layer 1 (Fail)
//Storyboard Layer 2 (Pass)
//Storyboard Layer 3 (Foreground)
//Storyboard Sound Samples

[TimingPoints]
478,342.857142857143,4,3,1,40,1,0
478,-200,4,3,1,40,0,0
2878,-133.333333333333,4,3,1,20,0,0
3220,-133.333333333333,4,3,1,40,0,0
5620,-100,4,3,1,40,0,0
10078,-133.333333333333,4,3,1,40,0,0
11449,-100,4,3,1,70,0,0
33392,-133.333333333333,4,3,1,90,0,0
33478,-133.333333333333,4,3,1,70,0,0
44363,-100,4,3,1,70,0,0
50192,-100,4,3,2,70,0,0
50278,-100,4,3,1,70,0,0
66306,-90.9090909090909,4,3,1,70,0,1
77278,-100,4,3,1,70,0,0
110192,-90.9090909090909,4,3,1,70,0,1
120478,-90.9090909090909,4,3,1,70,0,0
121163,-90.9090909090909,4,3,1,70,0,1
130763,-133.333333333333,4,3,1,70,0,1
132135,-100,4,3,1,70,0,0

[Colours]
Combo1 : 222,178,222
Combo2 : 0,155,170
Combo3 : 64,208,13
Combo4 : 240,170,12
SliderBorder : 255,255,255

[HitObjects]
197,91,478,6,0,L|201:145,1,40,0|0,0:0|2:0,0:0:0:0:
299,170,820,2,0,L|295:224,1,40,0|0,0:0|2:0,0:0:0:0:
227,317,1163,2,0,L|222:267,1,40,0|0,0:0|2:0,0:0:0:0:
362,247,1506,2,0,L|358:286,1,40,0|0,0:0|2:0,0:0:0:0:
298,163,1849,6,0,L|352:162,1,40,0|0,0:0|2:0,0:0:0:0:
226,97,2192,2,0,L|280:96,1,40,0|0,0:0|2:0,0:0:0:0:
154,31,2535,2,0,L|208:30,1,40,0|0,0:0|2:0,0:0:0:0:
62,29,2878,2,2,L|71:134,1,90.0000034332277,2|0,0:1|2:0,0:3:0:0:
108,137,3220,6,0,P|115:182|107:217,1,60.0000022888184,0|0,0:0|2:0,0:0:0:0:
84,313,3563,2,0,P|129:306|164:314,1,60.0000022888184,0|0,0:0|2:0,0:0:0:0:
271,333,3906,2,0,P|264:288|272:253,1,60.0000022888184,0|0,0:0|2:0,0:0:0:0:
295,157,4249,2,0,P|250:164|215:155,1,60.0000022888184,0|0,0:0|2:0,0:0:0:0:
355,110,4592,6,0,P|371:153|367:193,1,60.0000022888184,0|0,0:0|2:0,0:0:0:0:
162,169,4935,2,0,P|165:139|178:112,1,60.0000022888184,0|0,0:0|2:0,0:0:0:0:
267,13,5278,2,0,L|270:87,1,60.0000022888184,0|0,0:0|2:0,0:0:0:0:
277,234,5620,1,8,0:0:0:0:
277,234,5706,1,8,2:3:0:0:
277,234,5792,1,8,2:3:0:0:
373,150,5963,6,0,B|411:141|411:141|473:139,1,80,8|0,0:0|2:0,0:0:0:0:
504,14,6306,2,0,B|466:24|466:24|410:51,1,80,8|0,0:0|0:2,0:0:0:0:
300,164,6649,2,0,B|301:125|301:125|314:64,1,80,8|0,0:0|2:0,0:0:0:0:
200,4,6992,2,0,B|201:43|201:43|214:104,1,80,8|0,0:0|2:0,0:0:0:0:
377,95,7335,6,0,P|364:47|311:24,1,80,8|0,0:0|2:0,0:0:0:0:
295,173,7678,2,0,L|389:168,1,80,8|0,0:0|2:0,0:0:0:0:
209,83,8020,2,0,L|115:86,1,80,8|0,0:0|2:0,0:0:0:0:
309,84,8363,1,8,0:0:0:0:
309,84,8535,1,8,0:0:0:0:
200,165,8706,6,0,B|190:202|190:202|207:272,1,80,8|0,0:0|2:0,0:0:0:0:
100,88,9049,2,0,B|90:125|90:125|107:195,1,80,8|0,0:0|2:0,0:0:0:0:
178,25,9392,2,0,P|227:26|271:1,1,80,8|0,0:0|2:0,0:0:0:0:
402,87,9735,2,0,P|353:86|309:111,1,80,8|0,0:0|2:0,0:0:0:0:
271,247,10078,6,0,P|282:175|261:125,2,120.000004577637,8|0|0,0:0|0:0|0:0,0:0:0:0:
209,67,11106,1,8,0:0:0:0:
230,45,11191,1,8,0:0:0:0:
256,32,11277,1,8,0:0:0:0:
286,28,11363,1,8,0:0:0:0:
315,34,11449,6,0,B|315:75|315:75|328:114,1,80,6|0,0:2|0:0,0:0:0:0:
367,120,11706,1,0,0:0:0:0:
367,120,11792,2,0,L|368:212,1,80,4|0,0:0|0:0,0:0:0:0:
156,182,12135,2,0,P|194:150|272:165,1,120,8|0,0:0|0:0,0:0:0:0:
284,190,12478,1,6,0:0:0:0:
121,112,12649,1,2,0:0:0:0:
121,112,12735,1,0,0:0:0:0:
121,112,12820,6,0,P|80:109|33:120,1,80,10|0,0:0|0:0,0:0:0:0:
168,28,13163,2,0,P|240:40|317:19,1,120,4|0,0:0|0:0,0:0:0:0:
333,17,13506,2,0,P|329:66|337:112,1,80,8|0,0:0|0:0,0:0:0:0:
479,276,13849,2,0,P|486:221|472:182,1,80,6|10,0:0|0:0,0:0:0:0:
461,167,14106,1,0,0:0:0:0:
461,167,14192,6,0,B|431:182|431:182|376:177,1,80,10|0,0:0|0:0,0:0:0:0:
349,163,14449,1,0,0:0:0:0:
349,163,14535,2,0,L|260:178,1,80,4|0,0:0|0:0,0:0:0:0:
84,130,14878,2,0,P|139:146|149:222,1,120,8|0,0:0|0:0,0:0:0:0:
141,242,15220,1,6,0:0:0:0:
15,134,15392,1,2,0:0:0:0:
15,134,15478,1,0,0:0:0:0:
15,134,15563,6,0,P|30:87|72:62,1,80,10|0,0:0|0:0,0:0:0:0:
214,15,15906,2,0,P|202:65|209:139,1,120,4|0,0:0|0:0,0:0:0:0:
227,168,16249,2,0,P|268:152|323:159,1,80,8|0,0:0|0:0,0:0:0:0:
428,280,16592,1,4,0:0:0:0:
254,284,16763,1,8,0:0:0:0:
404,106,16935,6,0,P|400:154|415:212,1,80,10|0,0:0|0:0,0:0:0:0:
428,212,17192,1,0,0:0:0:0:
428,212,17278,2,0,L|507:206,1,80,4|0,0:0|0:0,0:0:0:0:
407,32,17620,2,0,P|354:42|326:113,1,120,8|0,0:0|0:0,0:0:0:0:
332,139,17963,1,6,0:0:0:0:
217,28,18135,1,2,0:0:0:0:
217,28,18220,1,0,0:0:0:0:
217,28,18306,6,0,P|226:73|225:114,1,80,10|0,0:0|0:0,0:0:0:0:
115,300,18649,2,0,P|112:245|180:178,1,120,4|0,0:0|0:0,0:0:0:0:
178,191,18992,2,0,L|261:245,1,80,8|0,0:0|0:0,0:0:0:0:
37,264,19335,1,6,0:0:0:0:
88,117,19506,1,10,0:0:0:0:
88,117,19592,1,0,0:0:0:0:
88,117,19678,6,0,L|202:130,1,80,10|8,0:0|0:0,0:0:0:0:
359,40,20020,2,0,L|264:49,1,80,12|8,0:0|0:0,0:0:0:0:
256,73,20278,1,0,0:0:0:0:
256,73,20363,2,0,P|272:121|262:166,1,80,8|8,0:0|0:0,0:0:0:0:
148,280,20706,1,14,0:0:0:0:
317,189,20878,5,10,0:0:0:0:
352,170,20963,1,8,0:0:0:0:
391,172,21049,1,10,0:0:0:0:
425,192,21135,1,8,0:0:0:0:
445,226,21220,1,8,0:0:0:0:
445,266,21306,1,8,0:0:0:0:
427,301,21392,2,0,L|333:290,1,80,12|8,0:0|0:0,0:0:0:0:
353,108,21735,6,0,L|406:104,1,40,8|8,0:0|0:0,0:0:0:0:
281,43,21906,2,0,L|317:19,1,40,8|8,0:0|0:0,0:0:0:0:
217,126,22078,2,0,L|257:133,1,40,12|8,0:0|0:0,0:0:0:0:
159,33,22249,2,0,L|195:7,1,40,8|8,0:0|0:0,0:0:0:0:
97,150,22420,6,0,P|119:189|122:254,1,80,4|0,0:2|0:0,0:0:0:0:
29,100,22763,2,0,P|63:69|158:85,1,120,4|0,0:0|0:0,0:0:0:0:
174,91,23106,1,8,0:0:0:0:
43,209,23278,1,0,0:0:0:0:
246,182,23449,1,4,0:0:0:0:
131,282,23620,6,0,P|129:230|149:188,1,80,0|8,0:0|0:0,0:0:0:0:
348,217,23963,2,0,P|350:269|330:311,1,80,0|4,0:0|0:0,0:0:0:0:
251,78,24306,1,0,0:0:0:0:
353,31,24478,1,8,0:0:0:0:
293,187,24649,1,0,0:0:0:0:
395,140,24821,1,4,0:0:0:0:
279,0,24992,1,8,0:0:0:0:
218,147,25163,6,0,P|165:158|109:135,1,80,8|0,0:0|0:0,0:0:0:0:
276,78,25506,2,0,P|308:123|295:201,1,120,4|0,0:0|0:0,0:0:0:0:
282,214,25849,1,8,0:0:0:0:
179,78,26020,1,0,0:0:0:0:
389,103,26192,1,4,0:0:0:0:
203,220,26363,6,0,P|214:178|212:130,1,80,0|8,0:0|0:0,0:0:0:0:
68,43,26706,2,0,P|90:98|85:137,1,80,0|4,0:0|0:0,0:0:0:0:
47,320,27049,1,0,0:0:0:0:
112,208,27220,1,8,0:0:0:0:
222,375,27392,1,0,0:0:0:0:
132,297,27563,1,4,0:0:0:0:
330,335,27735,1,8,0:0:0:0:
263,149,27906,6,0,P|249:192|259:257,1,80,8|0,0:0|0:0,0:0:0:0:
426,178,28249,2,0,P|440:123|410:43,1,120,4|0,0:0|0:0,0:0:0:0:
388,28,28592,1,8,0:0:0:0:
336,190,28763,2,0,P|333:240|346:279,1,80,0|4,0:0|0:0,0:0:0:0:
202,160,29106,6,0,P|210:113|191:52,1,80,0|8,0:0|0:0,0:0:0:0:
107,250,29449,1,0,0:0:0:0:
226,253,29620,1,4,0:0:0:0:
52,139,29792,1,0,0:0:0:0:
74,316,29963,1,8,0:0:0:0:
199,128,30135,1,0,0:0:0:0:
221,305,30306,2,0,P|249:271|314:263,1,80,4|0,0:0|0:0,0:0:0:0:
426,210,30649,6,0,P|396:174|336:165,1,80,8|8,0:0|0:0,0:0:0:0:
454,302,30992,1,12,0:0:0:0:
490,160,31163,1,8,0:0:0:0:
490,160,31249,1,8,0:0:0:0:
490,160,31335,1,8,0:0:0:0:
378,276,31506,1,8,0:0:0:0:
420,52,31678,1,12,0:0:0:0:
313,128,31849,5,8,0:0:0:0:
274,135,31934,1,8,0:0:0:0:
235,127,32020,1,8,0:0:0:0:
197,112,32106,1,8,0:0:0:0:
158,104,32191,1,8,0:0:0:0:
119,109,32277,1,8,0:0:0:0:
82,125,32363,2,0,L|90:218,1,80,12|8,0:0|0:0,0:0:0:0:
303,202,32706,6,0,L|353:193,1,40,8|8,0:0|0:0,0:0:0:0:
268,57,32878,2,0,L|224:41,1,40,8|8,0:0|0:0,0:0:0:0:
193,181,33049,2,0,L|201:216,6,20,12|0|8|0|8|0|8,0:0|0:0|0:0|0:0|0:0|0:0|0:0,0:0:0:0:
178,147,33392,6,0,B|218:145|248:18|119:37|12:97|225:180|138:290,1,360.000013732911,6|4,0:2|0:0,0:0:0:0:
256,192,42992,12,8,44192,0:0:0:0:
186,129,44363,6,0,B|195:163|195:163|190:218,1,80,4|0,0:2|0:0,0:0:0:0:
290,93,44706,2,0,B|264:45|264:45|189:34,1,120,4|0,0:0|0:0,0:0:0:0:
162,46,45049,1,8,0:0:0:0:
278,164,45220,1,0,0:0:0:0:
410,23,45392,1,4,0:0:0:0:
266,84,45563,6,0,L|279:171,1,80,0|8,0:0|0:0,0:0:0:0:
361,251,45906,2,0,L|346:164,1,80,0|4,0:0|0:0,0:0:0:0:
299,337,46249,1,0,0:0:0:0:
440,295,46420,1,8,0:0:0:0:
252,250,46592,1,0,0:0:0:0:
410,188,46763,1,4,0:0:0:0:
392,384,46935,1,8,0:0:0:0:
306,184,47106,6,0,B|283:169|283:169|224:175,1,80,8|0,0:0|0:0,0:0:0:0:
56,40,47449,2,0,L|191:28,1,120,4|0,0:0|0:0,0:0:0:0:
223,40,47792,1,8,0:0:0:0:
205,185,47963,2,0,B|204:223|204:223|227:269,1,80,0|4,0:0|0:0,0:0:0:0:
407,265,48306,6,0,L|406:175,1,80,8|8,0:0|0:0,0:0:0:0:
191,234,48649,2,0,L|228:316,1,80,0|4,0:0|0:0,0:0:0:0:
274,121,48992,1,0,0:0:0:0:
100,162,49163,1,8,0:0:0:0:
282,226,49335,1,0,0:0:0:0:
214,45,49506,1,4,0:0:0:0:
170,255,49678,1,8,0:0:0:0:
228,31,49849,6,0,B|220:58|220:58|222:117,1,80,8|0,0:0|0:0,0:0:0:0:
156,269,50192,2,0,B|154:225|154:225|168:201|168:201|166:138,1,120,6|0,0:0|0:0,0:0:0:0:
86,197,50535,2,0,L|94:362,1,160,8|4,0:0|0:0,0:0:0:0:
238,201,51049,6,0,L|233:121,1,80,0|8,0:0|0:0,0:0:0:0:
261,280,51392,1,0,0:0:0:0:
346,84,51563,2,0,B|331:122|331:122|335:167,1,80,4|0,0:0|0:0,0:0:0:0:
440,59,51906,1,8,0:0:0:0:
271,29,52078,1,0,0:0:0:0:
173,170,52249,2,0,L|179:257,1,80,4|8,0:0|0:0,0:0:0:0:
74,86,52592,6,0,B|109:93|109:93|168:81,1,80,8|8,0:0|0:0,0:0:0:0:
353,30,52935,1,12,0:0:0:0:
242,155,53106,1,8,0:0:0:0:
242,155,53192,1,8,0:0:0:0:
242,155,53278,1,8,0:0:0:0:
271,46,53449,1,8,0:0:0:0:
279,259,53620,1,12,0:0:0:0:
167,187,53792,5,8,0:0:0:0:
130,172,53877,1,8,0:0:0:0:
91,178,53963,1,8,0:0:0:0:
60,203,54049,1,8,0:0:0:0:
46,240,54134,1,8,0:0:0:0:
53,279,54220,1,8,0:0:0:0:
78,309,54306,2,0,B|110:301|110:301|162:310,1,80,12|8,0:0|0:0,0:0:0:0:
360,223,54649,6,0,L|326:201,1,40,8|8,0:0|0:0,0:0:0:0:
469,126,54820,2,0,L|465:183,1,40,8|8,0:0|0:0,0:0:0:0:
348,66,54992,2,0,L|370:66,6,20,12|0|8|0|8|0|8,0:0|0:0|0:0|0:0|0:0|0:0|0:0,0:0:0:0:
385,19,55335,6,0,P|345:28|298:20,1,80,6|0,0:2|0:0,0:0:0:0:
259,15,55592,1,0,0:0:0:0:
259,15,55678,2,0,P|263:56|249:103,1,80,4|0,0:0|0:0,0:0:0:0:
35,58,56020,2,0,B|106:29|105:76|191:47,1,160,8|6,0:0|0:0,0:0:0:0:
73,136,56535,1,2,0:0:0:0:
73,136,56620,1,0,0:0:0:0:
73,136,56706,6,0,P|75:168|68:218,1,80,10|0,0:0|0:0,0:0:0:0:
63,262,56963,1,0,0:0:0:0:
63,262,57049,2,0,P|109:256|148:268,1,80,4|0,0:0|0:0,0:0:0:0:
308,159,57392,2,0,P|252:137|193:217,1,160,8|6,0:0|0:0,0:0:0:0:
365,257,57906,1,10,0:0:0:0:
365,257,57992,1,0,0:0:0:0:
365,257,58078,6,0,P|363:228|384:180,1,80,10|0,0:0|0:0,0:0:0:0:
343,48,58420,2,0,P|311:60|254:54,1,80,4|0,0:0|0:0,0:0:0:0:
225,217,58763,2,0,P|251:200|304:192,1,80,8|0,0:0|0:0,0:0:0:0:
92,41,59106,2,0,P|105:76|101:131,1,80,6|2,0:0|0:0,0:0:0:0:
89,152,59363,1,0,0:0:0:0:
89,152,59449,6,0,P|60:143|2:152,1,80,10|0,0:0|0:0,0:0:0:0:
167,217,59792,2,0,P|191:179|192:135,1,80,4|0,0:0|0:0,0:0:0:0:
28,10,60135,2,0,P|5:42|1:82,1,80,8|0,0:0|0:0,0:0:0:0:
207,29,60478,1,4,0:0:0:0:
100,82,60649,1,8,0:0:0:0:
290,70,60820,6,0,L|383:68,1,80,10|0,0:0|0:0,0:0:0:0:
411,98,61078,1,0,0:0:0:0:
411,98,61163,2,0,B|397:132|397:132|406:182,1,80,4|0,0:0|0:0,0:0:0:0:
431,319,61506,2,0,B|384:292|384:292|331:305|331:305|309:359,1,160,8|6,0:0|0:0,0:0:0:0:
214,224,62020,1,2,0:0:0:0:
214,224,62106,1,0,0:0:0:0:
214,224,62192,6,0,B|222:252|222:252|214:305,1,80,10|0,0:0|0:0,0:0:0:0:
184,330,62449,1,0,0:0:0:0:
184,330,62535,2,0,L|90:322,1,80,4|0,0:0|0:0,0:0:0:0:
255,122,62878,2,0,B|276:174|276:174|306:195|306:195|344:269,1,160,8|6,0:0|0:0,0:0:0:0:
150,159,63392,1,10,0:0:0:0:
150,159,63478,1,0,0:0:0:0:
150,159,63563,6,0,B|153:193|153:193|143:252,1,80,10|0,0:0|0:0,0:0:0:0:
34,106,63906,1,12,0:0:0:0:
159,62,64078,1,8,0:0:0:0:
159,62,64163,1,8,0:0:0:0:
159,62,64249,1,8,0:0:0:0:
58,198,64420,1,8,0:0:0:0:
86,5,64592,1,14,0:0:0:0:
226,118,64763,5,10,0:0:0:0:
263,131,64848,1,8,0:0:0:0:
303,132,64934,1,10,0:0:0:0:
340,120,65020,1,8,0:0:0:0:
372,96,65105,1,0,0:0:0:0:
394,63,65191,1,0,0:0:0:0:
404,24,65278,2,0,B|365:18|365:18|313:29,1,80,12|8,0:0|0:0,0:0:0:0:
405,201,65620,6,0,L|449:196,1,40,8|8,0:0|0:0,0:0:0:0:
304,291,65792,2,0,L|355:296,1,40,8|8,0:0|0:0,0:0:0:0:
230,213,65963,2,0,L|254:209,6,20,12|0|8|0|8|0|8,0:0|0:0|0:0|0:0|0:0|0:0|0:0,0:0:0:0:
317,221,66306,5,4,0:2:0:0:
188,95,66478,1,0,0:0:0:0:
141,298,66649,2,0,P|151:343|139:397,1,88.000002685547,4|0,0:0|0:0,0:0:0:0:
32,184,66992,1,8,0:0:0:0:
161,154,67163,1,0,0:0:0:0:
271,32,67335,1,4,0:0:0:0:
131,10,67506,1,0,0:0:0:0:
255,170,67678,5,8,0:0:0:0:
401,66,67849,1,0,0:0:0:0:
279,19,68020,1,4,0:0:0:0:
376,215,68192,1,0,0:0:0:0:
257,15,68363,2,0,B|217:90|303:102|240:196,1,176.000005371094,8|4,0:0|0:0,0:0:0:0:
166,117,68878,1,8,0:0:0:0:
348,141,69049,6,0,B|341:179|341:179|356:246,1,88.000002685547,8|0,0:0|0:0,0:0:0:0:
426,95,69392,2,0,P|398:64|302:60,1,132.00000402832,4|0,0:0|0:0,0:0:0:0:
270,82,69735,2,0,B|279:128|279:128|269:173,1,88.000002685547,8|0,0:0|0:0,0:0:0:0:
65,57,70078,2,0,P|86:29|151:14,1,88.000002685547,4|0,0:0|0:0,0:0:0:0:
87,253,70420,5,8,0:0:0:0:
19,122,70592,1,0,0:0:0:0:
208,205,70763,2,0,P|192:237|184:295,1,88.000002685547,4|0,0:0|0:0,0:0:0:0:
351,169,71106,5,8,0:0:0:0:
211,93,71278,1,0,0:0:0:0:
286,247,71449,1,4,0:0:0:0:
362,69,71620,1,8,0:0:0:0:
218,198,71792,6,0,P|183:199|137:165,1,88.000002685547,8|0,0:0|0:0,0:0:0:0:
255,13,72135,1,4,0:0:0:0:
326,156,72306,1,0,0:0:0:0:
88,48,72478,2,0,P|126:36|186:47,1,88.000002685547,8|0,0:0|0:0,0:0:0:0:
334,161,72820,2,0,B|300:137|300:137|233:130,1,88.000002685547,4|0,0:0|0:0,0:0:0:0:
433,225,73163,5,8,0:0:0:0:
412,79,73335,1,0,0:0:0:0:
354,281,73506,1,4,0:0:0:0:
457,146,73678,1,0,0:0:0:0:
305,132,73849,2,0,P|339:212|340:300,1,176.000005371094,8|4,0:0|0:0,0:0:0:0:
398,98,74363,1,8,0:0:0:0:
237,174,74535,6,0,B|202:182|202:182|138:164,1,88.000002685547,8|8,0:0|0:0,0:0:0:0:
308,63,74878,1,12,0:0:0:0:
215,256,75049,1,8,0:0:0:0:
215,256,75135,1,8,0:0:0:0:
215,256,75220,1,8,0:0:0:0:
339,187,75392,1,8,0:0:0:0:
216,352,75563,1,12,0:0:0:0:
138,226,75735,5,8,0:0:0:0:
113,190,75820,1,8,0:0:0:0:
73,174,75906,1,8,0:0:0:0:
31,185,75992,1,8,0:0:0:0:
3,219,76077,1,8,0:0:0:0:
0,262,76163,1,8,0:0:0:0:
23,299,76249,2,0,L|113:288,1,88.000002685547,12|8,0:0|0:0,0:0:0:0:
268,177,76592,6,0,L|223:142,1,44.0000013427735,8|8,0:0|0:0,0:0:0:0:
359,96,76763,2,0,L|363:153,1,44.0000013427735,8|8,0:0|0:0,0:0:0:0:
257,59,76935,2,0,L|287:48,6,22.0000006713867,12|0|8|0|8|0|8,0:0|0:0|0:0|0:0|0:0|0:0|0:0,0:0:0:0:
334,199,77278,5,6,0:2:0:0:
256,192,86878,12,0,88078,0:0:0:0:
313,233,88249,6,0,B|320:197|320:197|307:150,1,80,4|4,0:2|0:0,0:0:0:0:
430,86,88592,2,0,B|415:138|415:138|434:216,1,120,8|0,0:0|0:0,0:0:0:0:
446,245,88935,1,8,0:0:0:0:
498,132,89106,1,4,0:0:0:0:
365,297,89278,1,10,0:0:0:0:
343,136,89449,1,6,0:0:0:0:
343,136,89535,1,0,0:0:0:0:
343,136,89620,6,0,L|259:122,1,80,10|0,0:0|0:0,0:0:0:0:
126,56,89963,2,0,L|258:45,1,120,8|0,0:0|0:0,0:0:0:0:
290,55,90306,1,8,0:0:0:0:
175,130,90478,1,4,0:0:0:0:
373,63,90649,1,10,0:0:0:0:
253,178,90820,1,14,0:0:0:0:
253,178,90906,1,0,0:0:0:0:
253,178,90992,6,0,P|247:214|263:261,1,80,10|4,0:0|0:0,0:0:0:0:
116,359,91335,2,0,P|132:300|118:226,1,120,8|0,0:0|0:0,0:0:0:0:
105,200,91678,1,8,0:0:0:0:
26,328,91849,1,4,0:0:0:0:
219,250,92020,1,10,0:0:0:0:
26,229,92192,1,6,0:0:0:0:
26,229,92278,1,0,0:0:0:0:
26,229,92363,6,0,P|21:261|31:322,1,80,10|0,0:0|0:0,0:0:0:0:
145,132,92706,2,0,P|109:143|17:120,1,120,8|0,0:0|0:0,0:0:0:0:
1,96,93049,1,8,0:0:0:0:
157,42,93220,1,4,0:0:0:0:
130,213,93392,1,8,0:0:0:0:
89,79,93563,1,12,0:0:0:0:
251,172,93735,6,0,B|240:207|240:207|251:265,1,80,10|4,0:0|0:0,0:0:0:0:
347,83,94078,2,0,B|303:88|303:88|276:86|276:86|211:95,1,120,8|0,0:0|0:0,0:0:0:0:
185,108,94420,1,8,0:0:0:0:
311,22,94592,1,4,0:0:0:0:
237,212,94763,2,0,P|262:186|319:183,1,80,10|6,0:0|0:0,0:0:0:0:
340,192,95020,1,0,0:0:0:0:
340,192,95106,6,0,B|331:227|331:227|341:284,1,80,10|4,0:0|0:0,0:0:0:0:
454,358,95449,2,0,P|441:316|468:234,1,120,8|0,0:0|0:0,0:0:0:0:
488,215,95792,1,8,0:0:0:0:
356,333,95963,1,4,0:0:0:0:
504,302,96135,1,10,0:0:0:0:
380,164,96306,1,14,0:0:0:0:
380,164,96392,1,0,0:0:0:0:
380,164,96478,6,0,B|341:149|341:149|288:156,1,80,10|12,0:0|0:0,0:0:0:0:
115,178,96820,1,8,0:0:0:0:
245,51,96992,1,12,0:0:0:0:
245,51,97078,1,8,0:0:0:0:
245,51,97163,1,8,0:0:0:0:
185,200,97335,1,12,0:0:0:0:
67,22,97506,1,10,0:0:0:0:
245,51,97678,1,14,0:0:0:0:
245,51,97764,1,8,0:0:0:0:
245,51,97849,6,0,L|296:45,1,40,10|8,0:0|0:0,0:0:0:0:
376,136,98020,2,0,L|320:129,1,40,12|8,0:0|0:0,0:0:0:0:
450,35,98192,2,0,B|442:74|442:74|453:130,1,80,8|12,0:0|0:0,0:0:0:0:
353,238,98535,6,0,L|407:225,1,40,8|8,0:0|0:0,0:0:0:0:
285,334,98706,2,0,L|337:339,1,40,12|8,0:0|0:0,0:0:0:0:
246,230,98878,2,0,L|239:262,6,20,8|0|8|0|12|0|8,0:0|0:0|0:0|0:0|0:0|0:0|0:0,0:0:0:0:
189,289,99220,6,0,P|202:235|192:200,1,80,4|0,0:2|0:0,0:0:0:0:
176,173,99478,1,0,0:0:0:0:
176,173,99563,2,0,P|131:182|84:167,1,80,4|0,0:0|0:0,0:0:0:0:
306,46,99906,2,0,B|287:135|336:106|306:213,1,160,8|6,0:0|0:0,0:0:0:0:
127,82,100420,1,2,0:0:0:0:
127,82,100506,1,0,0:0:0:0:
127,82,100592,6,0,P|145:83|209:61,1,80,10|0,0:0|0:0,0:0:0:0:
242,66,100849,1,0,0:0:0:0:
242,66,100935,2,0,P|242:114|256:152,1,80,4|0,0:0|0:0,0:0:0:0:
96,12,101278,2,0,P|112:56|84:170,1,160,8|6,0:0|0:0,0:0:0:0:
22,302,101792,1,10,0:0:0:0:
22,302,101878,1,0,0:0:0:0:
22,302,101963,6,0,P|59:284|104:285,1,80,10|0,0:0|0:0,0:0:0:0:
265,227,102306,2,0,P|229:209|189:208,1,80,4|0,0:0|0:0,0:0:0:0:
313,287,102649,2,0,P|334:258|339:204,1,80,8|0,0:0|0:0,0:0:0:0:
133,160,102992,2,0,P|117:196|121:236,1,80,6|2,0:0|0:0,0:0:0:0:
154,277,103249,1,0,0:0:0:0:
154,277,103335,6,0,P|194:271|237:279,1,80,10|0,0:0|0:0,0:0:0:0:
343,138,103678,2,0,P|303:144|260:136,1,80,4|0,0:0|0:0,0:0:0:0:
472,64,104020,2,0,B|442:131|495:131|458:233,1,160,8|4,0:0|0:0,0:0:0:0:
390,329,104535,1,8,0:0:0:0:
378,123,104706,6,0,B|387:161|387:161|376:206,1,80,10|0,0:0|0:0,0:0:0:0:
352,230,104963,1,0,0:0:0:0:
352,230,105049,2,0,B|326:229|326:229|300:224|300:224|267:223,1,80,4|0,0:0|0:0,0:0:0:0:
113,133,105392,2,0,B|168:113|168:113|152:223,1,160,8|6,0:0|0:0,0:0:0:0:
32,77,105906,1,2,0:0:0:0:
32,77,105992,1,0,0:0:0:0:
32,77,106078,6,0,B|58:81|58:81|122:55,1,80,10|0,0:0|0:0,0:0:0:0:
125,35,106335,1,0,0:0:0:0:
125,35,106420,2,0,B|147:30|147:30|184:34|184:34|214:27,1,80,4|0,0:0|0:0,0:0:0:0:
387,111,106763,2,0,B|334:121|334:121|304:149|304:149|233:167,1,160,8|6,0:0|0:0,0:0:0:0:
466,156,107278,1,10,0:0:0:0:
466,156,107363,1,0,0:0:0:0:
466,156,107449,6,0,B|452:121|452:121|464:80,1,80,10|8,0:0|0:0,0:0:0:0:
400,217,107792,1,12,0:0:0:0:
344,56,107963,1,8,0:0:0:0:
344,56,108049,1,8,0:0:0:0:
344,56,108135,1,8,0:0:0:0:
311,177,108306,1,8,0:0:0:0:
473,48,108478,1,14,0:0:0:0:
278,19,108649,5,10,0:0:0:0:
239,27,108734,1,8,0:0:0:0:
199,26,108820,1,10,0:0:0:0:
159,19,108906,1,8,0:0:0:0:
120,15,108991,1,8,0:0:0:0:
80,19,109077,1,8,0:0:0:0:
44,35,109163,2,0,B|52:71|52:71|45:133,1,80,12|8,0:0|0:0,0:0:0:0:
118,292,109506,6,0,L|146:255,1,40,8|8,0:0|0:0,0:0:0:0:
269,226,109678,2,0,L|232:198,1,40,8|8,0:0|0:0,0:0:0:0:
165,118,109849,2,0,L|162:143,6,20,12|0|8|0|8|0|8,0:0|0:0|0:0|0:0|0:0|0:0|0:0,0:0:0:0:
249,101,110192,5,4,0:2:0:0:
84,84,110363,1,0,0:0:0:0:
256,14,110535,2,0,P|291:29|349:25,1,88.000002685547,4|0,0:0|0:0,0:0:0:0:
466,144,110878,1,8,0:0:0:0:
312,177,111049,1,0,0:0:0:0:
471,40,111220,1,4,0:0:0:0:
501,218,111392,1,0,0:0:0:0:
295,80,111563,6,0,B|256:73|256:73|201:95,1,88.000002685547,8|0,0:0|0:0,0:0:0:0:
443,127,111906,1,4,0:0:0:0:
309,9,112078,1,0,0:0:0:0:
370,222,112249,2,0,P|375:257|365:325,1,88.000002685547,8|0,0:0|0:0,0:0:0:0:
287,162,112592,1,4,0:0:0:0:
448,205,112763,1,8,0:0:0:0:
266,268,112935,5,8,0:0:0:0:
221,64,113106,1,0,0:0:0:0:
148,191,113278,1,4,0:0:0:0:
343,153,113449,1,0,0:0:0:0:
98,119,113620,2,0,P|116:164|105:255,1,132.00000402832,8|0,0:0|0:0,0:0:0:0:
87,282,113963,2,0,B|55:279|55:279|30:272|30:272|-1:269,1,88.000002685547,4|0,0:0|0:0,0:0:0:0:
275,216,114306,5,8,0:0:0:0:
179,320,114478,1,0,0:0:0:0:
204,123,114649,2,0,P|250:131|299:123,1,88.000002685547,4|0,0:0|0:0,0:0:0:0:
81,39,114992,5,8,0:0:0:0:
96,201,115163,1,0,0:0:0:0:
249,46,115335,1,4,0:0:0:0:
241,235,115506,1,8,0:0:0:0:
161,23,115678,6,0,B|169:53|169:53|162:123,1,88.000002685547,8|0,0:0|0:0,0:0:0:0:
254,261,116020,2,0,P|263:192|315:145,1,132.00000402832,4|0,0:0|0:0,0:0:0:0:
348,162,116363,2,0,B|381:171|381:171|443:168,1,88.000002685547,8|0,0:0|0:0,0:0:0:0:
237,17,116706,2,0,B|232:50|232:50|244:111,1,88.000002685547,4|0,0:0|0:0,0:0:0:0:
269,285,117049,5,8,0:0:0:0:
144,183,117220,1,0,0:0:0:0:
337,225,117392,1,4,0:0:0:0:
278,366,117563,1,0,0:0:0:0:
207,138,117735,2,0,P|248:121|378:155,1,176.000005371094,8|4,0:0|0:0,0:0:0:0:
218,225,118249,1,8,0:0:0:0:
192,48,118420,6,0,B|233:53|233:53|290:30,1,88.000002685547,8|8,0:0|0:0,0:0:0:0:
64,24,118763,1,12,0:0:0:0:
98,169,118935,1,8,0:0:0:0:
98,169,119020,1,8,0:0:0:0:
98,169,119106,1,8,0:0:0:0:
226,118,119278,1,8,0:0:0:0:
9,109,119449,1,12,0:0:0:0:
52,240,119620,5,8,0:0:0:0:
66,199,119705,1,8,0:0:0:0:
98,169,119791,1,8,0:0:0:0:
139,155,119877,1,8,0:0:0:0:
182,162,119962,1,0,0:0:0:0:
218,187,120048,1,0,0:0:0:0:
239,226,120135,2,0,B|234:262|234:262|242:322,1,88.000002685547,12|8,0:0|0:0,0:0:0:0:
344,154,120478,6,0,L|296:143,1,44.0000013427735,8|8,0:0|0:0,0:0:0:0:
397,71,120649,2,0,L|442:54,1,44.0000013427735,8|8,0:0|0:0,0:0:0:0:
428,195,120820,2,0,L|419:226,6,22.0000006713867,12|0|8|0|8|0|8,0:0|0:0|0:0|0:0|0:0|0:0|0:0,0:0:0:0:
507,150,121163,5,4,0:2:0:0:
418,297,121335,1,0,0:0:0:0:
313,140,121506,2,0,P|272:128|220:136,1,88.000002685547,4|0,0:0|0:0,0:0:0:0:
79,43,121849,2,0,P|119:19|216:27,1,132.00000402832,8|0,0:0|0:0,0:0:0:0:
228,46,122192,2,0,B|220:79|220:79|228:140,1,88.000002685547,4|0,0:0|0:0,0:0:0:0:
465,179,122535,5,8,0:0:0:0:
374,61,122706,1,0,0:0:0:0:
444,260,122878,1,4,0:0:0:0:
482,114,123049,1,0,0:0:0:0:
299,176,123220,2,0,B|338:263|267:262|297:353,1,176.000005371094,8|4,0:0|0:0,0:0:0:0:
379,180,123735,1,8,0:0:0:0:
213,219,123906,6,0,P|176:185|168:139,1,88.000002685547,8|0,0:0|0:0,0:0:0:0:
405,100,124249,1,4,0:0:0:0:
231,74,124420,1,0,0:0:0:0:
346,33,124592,2,0,P|320:87|341:167,1,132.00000402832,8|0,0:0|0:0,0:0:0:0:
370,191,124935,2,0,B|400:177|400:177|471:187,1,88.000002685547,4|0,0:0|0:0,0:0:0:0:
209,52,125278,5,8,0:0:0:0:
271,187,125449,1,0,0:0:0:0:
131,29,125620,2,0,P|78:46|38:33,1,88.000002685547,4|0,0:0|0:0,0:0:0:0:
277,27,125963,5,8,0:0:0:0:
154,168,126135,1,0,0:0:0:0:
204,24,126306,1,4,0:0:0:0:
280,213,126478,1,8,0:0:0:0:
156,94,126649,5,8,0:0:0:0:
310,146,126820,1,0,0:0:0:0:
136,93,126992,2,0,P|89:100|64:178,1,132.00000402832,4|0,0:0|0:0,0:0:0:0:
81,204,127335,2,0,L|180:194,1,88.000002685547,8|0,0:0|0:0,0:0:0:0:
378,71,127678,2,0,L|276:59,1,88.000002685547,4|0,0:0|0:0,0:0:0:0:
437,175,128020,5,8,0:0:0:0:
449,38,128192,1,0,0:0:0:0:
314,182,128363,1,4,0:0:0:0:
450,289,128535,1,0,0:0:0:0:
281,84,128706,2,0,L|276:280,1,176.000005371094,8|4,0:0|0:0,0:0:0:0:
378,136,129220,1,8,0:0:0:0:
186,225,129392,6,0,P|155:231|100:208,1,88.000002685547,8|8,0:0|0:0,0:0:0:0:
247,17,129735,2,0,P|278:11|333:34,1,88.000002685547,8|8,0:0|0:0,0:0:0:0:
356,66,129992,1,8,0:0:0:0:
356,66,130078,2,0,B|342:101|342:101|345:166,1,88.000002685547,8|8,0:0|0:0,0:0:0:0:
445,283,130420,1,8,0:0:0:0:
253,177,130592,1,8,0:0:0:0:
253,177,130678,1,8,0:0:0:0:
253,177,130763,6,0,P|220:175|187:180,1,60.0000022888184,8|0,0:0|0:0,0:0:0:0:
193,178,131106,2,0,L|198:250,1,60.0000022888184
115,111,131449,2,0,L|120:43,1,60.0000022888184,14|4,0:0|0:0,0:0:0:0:
344,105,131792,2,0,L|357:114,6,15.0000005722046,8|0|8|0|8|0|8,0:0|0:0|0:0|0:0|0:0|0:0|0:0,0:0:0:0:
300,33,132135,5,4,0:2:0:0:
