osu file format v14

[General]
AudioFilename: YELLOWTRICKPV.mp3
AudioLeadIn: 0
PreviewTime: 66306
Countdown: 0
SampleSet: Soft
StackLeniency: 0.7
Mode: 0
LetterboxInBreaks: 0
SkinPreference:Default
WidescreenStoryboard: 0

[Editor]
Bookmarks: 11449,22420,34078,44020,55335,66306,76935,88249,99220,114306,125278,132135
DistanceSpacing: 1.2
BeatDivisor: 4
GridSize: 8
TimelineZoom: 0.7999998

[Metadata]
Title:YELLOW TRICK
TitleUnicode:YELLOW TRICK
Artist:YuugouP
ArtistUnicode:融合P
Creator:Noffy
Version:Advanced
Source:
Tags:vocaloid rin len kagamine 鏡音リン 鏡音レン 融合電波 Yuugou Denpa 7:24 Akira Kenji 輝 naoyan Okoratu Okorin dorothy3242
BeatmapID:1121699
BeatmapSetID:237515

[Difficulty]
HPDrainRate:5
CircleSize:3.5
OverallDifficulty:5
ApproachRate:6
SliderMultiplier:1.3
SliderTickRate:1

[Events]
//Background and Video events
0,0,"bowfix.png",0,0
Video,-1106,"Yellow Trick.avi"
//Break Periods
2,34620,43313
2,77478,87199
//Storyboard Layer 0 (Background)
//Storyboard Layer 1 (Fail)
//Storyboard Layer 2 (Pass)
//Storyboard Layer 3 (Foreground)
//Storyboard Sound Samples

[TimingPoints]
478,342.857142857143,4,2,1,50,1,0
5620,-100,4,2,0,60,0,0
6306,-100,4,2,0,50,0,0
11449,-100,4,2,11,70,0,0
63563,-100,4,2,11,55,0,0
66306,-80,4,2,6,80,0,1
66478,-80,4,2,0,80,0,1
66649,-80,4,2,7,80,0,1
66992,-80,4,2,8,80,0,1
67335,-80,4,2,7,80,0,1
67678,-80,4,2,7,80,0,1
67849,-80,4,2,0,80,0,1
68020,-80,4,2,6,80,0,1
68192,-80,4,2,0,80,0,1
68363,-80,4,2,4,80,0,1
68706,-80,4,2,0,80,0,1
69049,-80,4,2,3,80,0,1
69220,-80,4,2,0,80,0,1
69392,-80,4,2,5,80,0,1
69563,-80,4,2,0,80,0,1
69735,-80,4,2,4,80,0,1
70078,-80,4,2,7,80,0,1
70420,-80,4,2,10,80,0,1
70592,-80,4,2,6,80,0,1
70763,-80,4,2,7,80,0,1
71106,-80,4,2,10,80,0,1
71278,-80,4,2,6,80,0,1
71449,-80,4,2,9,80,0,1
71792,-80,4,2,6,80,0,1
71963,-80,4,2,0,80,0,1
72135,-80,4,2,7,80,0,1
72306,-80,4,2,0,80,0,1
72478,-80,4,2,8,80,0,1
72820,-80,4,2,10,80,0,1
73163,-80,4,2,7,80,0,1
73335,-80,4,2,0,80,0,1
73506,-80,4,2,6,80,0,1
73849,-80,4,2,4,80,0,1
74192,-80,4,2,0,80,0,1
74535,-80,4,2,3,80,0,1
74706,-80,4,2,0,80,0,1
74878,-80,4,2,5,80,0,1
75049,-80,4,2,0,80,0,1
75220,-80,4,2,4,80,0,1
75563,-80,4,2,7,80,0,1
75906,-80,4,2,10,80,0,1
76078,-80,4,2,0,80,0,1
76249,-80,4,2,6,80,0,1
76420,-80,4,2,10,80,0,1
76592,-80,4,2,6,80,0,1
76935,-80,4,2,0,80,0,1
77278,-100,4,2,11,70,0,0
107449,-100,4,2,11,55,0,0
110192,-80,4,2,6,80,0,1
110363,-80,4,2,0,80,0,1
110535,-80,4,2,7,80,0,1
110878,-80,4,2,8,80,0,1
111220,-80,4,2,7,80,0,1
111563,-80,4,2,7,80,0,1
111735,-80,4,2,10,80,0,1
111906,-80,4,2,6,80,0,1
112078,-80,4,2,0,80,0,1
112249,-80,4,2,4,80,0,1
112592,-80,4,2,0,80,0,1
112935,-80,4,2,3,80,0,1
113106,-80,4,2,0,80,0,1
113278,-80,4,2,5,80,0,1
113449,-80,4,2,0,80,0,1
113620,-80,4,2,4,80,0,1
113963,-80,4,2,7,80,0,1
114306,-80,4,2,10,80,0,1
114478,-80,4,2,6,80,0,1
114649,-80,4,2,7,80,0,1
114992,-80,4,2,10,80,0,1
115163,-80,4,2,6,80,0,1
115335,-80,4,2,9,80,0,1
115678,-80,4,2,6,80,0,1
115849,-80,4,2,0,80,0,1
116020,-80,4,2,7,80,0,1
116192,-80,4,2,0,80,0,1
116363,-80,4,2,8,80,0,1
116706,-80,4,2,7,80,0,1
117049,-80,4,2,7,80,0,1
117220,-80,4,2,0,80,0,1
117392,-80,4,2,10,80,0,1
117563,-80,4,2,6,80,0,1
117735,-80,4,2,4,80,0,1
118078,-80,4,2,0,80,0,1
118420,-80,4,2,3,80,0,1
118592,-80,4,2,0,80,0,1
118763,-80,4,2,5,80,0,1
118935,-80,4,2,0,80,0,1
119106,-80,4,2,4,80,0,1
119449,-80,4,2,7,80,0,1
119792,-80,4,2,10,80,0,1
119963,-80,4,2,0,80,0,1
120135,-80,4,2,10,80,0,1
120478,-80,4,2,6,70,0,0
120820,-80,4,2,0,70,0,0
121163,-80,4,2,6,80,0,1
121335,-80,4,2,0,80,0,1
121506,-80,4,2,7,80,0,1
121849,-80,4,2,8,80,0,1
122192,-80,4,2,10,80,0,1
122535,-80,4,2,7,80,0,1
122706,-80,4,2,10,80,0,1
122878,-80,4,2,6,80,0,1
123049,-80,4,2,0,80,0,1
123220,-80,4,2,4,80,0,1
123563,-80,4,2,0,80,0,1
123906,-80,4,2,3,80,0,1
124078,-80,4,2,4,80,0,1
124249,-80,4,2,5,80,0,1
124420,-80,4,2,0,80,0,1
124592,-80,4,2,4,80,0,1
124935,-80,4,2,7,80,0,1
125278,-80,4,2,10,80,0,1
125449,-80,4,2,6,80,0,1
125620,-80,4,2,7,80,0,1
125963,-80,4,2,10,80,0,1
126135,-80,4,2,6,80,0,1
126306,-80,4,2,9,80,0,1
126649,-80,4,2,6,80,0,1
126820,-80,4,2,0,80,0,1
126992,-80,4,2,7,80,0,1
127163,-80,4,2,0,80,0,1
127335,-80,4,2,8,80,0,1
127678,-80,4,2,7,80,0,1
128020,-80,4,2,7,80,0,1
128192,-80,4,2,0,80,0,1
128363,-80,4,2,6,80,0,1
128535,-80,4,2,0,80,0,1
128706,-80,4,2,4,80,0,1
129049,-80,4,2,0,80,0,1
129392,-80,4,2,3,80,0,1
129735,-80,4,2,5,80,0,1
130078,-80,4,2,4,80,0,1
130420,-80,4,2,7,80,0,1
130763,-80,4,2,6,80,0,1
132135,-100,4,2,0,70,0,0

[Colours]
Combo1 : 222,178,222
Combo2 : 0,155,170
Combo3 : 64,208,13
Combo4 : 240,170,12
SliderBorder : 255,255,255

[HitObjects]
414,253,478,6,0,P|350:244|302:202,1,130,2|0,0:0|0:0,0:0:0:0:
256,137,992,1,0,0:0:0:0:
212,201,1163,2,0,P|163:243|100:251,1,130,2|0,0:0|0:0,0:0:0:0:
70,97,1849,6,0,P|118:54|181:46,1,130,2|0,0:0|0:0,0:0:0:0:
256,68,2363,1,0,0:0:0:0:
330,46,2535,2,0,P|393:54|442:97,1,130,2|0,0:0|0:0,0:0:0:0:
328,204,3220,6,0,L|251:318,1,130,2|0,0:0|0:0,0:0:0:0:
190,355,3735,1,0,0:0:0:0:
125,311,3906,2,0,L|84:253,2,65,2|0|0,0:0|0:0|0:0,0:0:0:0:
201,174,4592,6,0,L|278:288,1,130,2|0,0:0|0:0,0:0:0:0:
339,325,5107,1,0,0:0:0:0:
404,281,5278,2,0,L|453:344,2,65,2|0|0,0:0|0:0|0:0,0:0:0:0:
398,125,5963,6,0,P|357:71|295:39,1,130,8|8,0:3|0:3,0:0:0:0:
224,37,6478,1,0,0:3:0:0:
154,72,6649,1,8,0:3:0:0:
256,192,6992,1,8,0:3:0:0:
113,258,7335,6,0,P|155:313|217:345,1,130,8|8,0:3|0:3,0:0:0:0:
288,347,7850,1,0,0:3:0:0:
358,312,8021,1,8,0:3:0:0:
256,192,8364,1,8,0:3:0:0:
256,192,8706,12,0,10763,0:0:0:0:
336,184,11449,6,0,P|348:248|334:311,1,130,6|8,0:0|0:0,0:0:0:0:
177,311,12135,2,0,P|163:248|175:184,1,130,8|8,0:3|0:0,0:0:0:0:
266,58,12820,6,0,L|327:36,1,65,10|0,0:3|0:0,0:0:0:0:
401,11,13163,1,8,0:0:0:0:
491,138,13506,2,0,L|450:188,1,65,8|0,0:3|0:0,0:0:0:0:
402,250,13849,1,8,0:0:0:0:
274,340,14192,6,0,P|209:355|148:336,1,130,10|8,0:3|0:0,0:0:0:0:
52,215,14878,2,8,P|53:151|91:98,1,130,8|8,0:3|0:0,0:0:0:0:
232,163,15563,6,8,L|252:224,1,65,10|0,0:3|0:0,0:0:0:0:
277,297,15906,1,8,0:0:0:0:
433,290,16249,2,8,L|447:226,1,65,8|0,0:3|0:0,0:0:0:0:
467,150,16592,1,8,0:0:0:0:
348,48,16935,6,0,P|273:29|212:49,1,130,10|8,0:3|0:0,0:0:0:0:
102,142,17620,2,0,P|74:213|86:276,1,130,8|8,0:3|0:0,0:0:0:0:
225,328,18306,6,0,L|286:349,1,65,10|0,0:3|0:0,0:0:0:0:
360,375,18649,1,8,0:0:0:0:
450,248,18992,2,0,L|409:197,1,65,8|0,0:3|0:0,0:0:0:0:
361,136,19335,1,8,0:0:0:0:
223,62,19678,6,0,B|196:125|252:125|225:187,1,130,10|8,0:3|0:0,0:0:0:0:
284,332,20363,2,0,P|220:343|158:329,1,130,8|8,0:3|0:0,0:0:0:0:
26,240,21049,6,0,P|15:178|43:108,1,130,10|8,0:3|0:0,0:0:0:0:
92,58,21563,1,0,0:0:0:0:
167,76,21735,2,2,P|223:91|295:76,1,130,8|8,0:3|0:0,0:0:0:0:
438,32,22420,6,0,B|472:166,1,130,4|8,0:0|0:0,0:0:0:0:
490,234,22935,1,0,0:0:0:0:
412,220,23106,2,0,P|366:213|272:252,1,130,8|8,0:3|0:0,0:0:0:0:
160,329,23792,6,0,L|125:197,1,130,8|8,0:3|0:0,0:0:0:0:
103,128,24306,1,0,0:0:0:0:
49,185,24478,2,0,P|27:219|21:257,2,65,8|0|8,0:3|0:0|0:0,0:0:0:0:
192,123,25163,6,0,B|256:143|266:89|331:114,1,130,8|8,0:3|0:0,0:0:0:0:
393,131,25678,1,0,0:0:0:0:
448,185,25849,2,0,P|458:262|427:325,1,130,8|8,0:3|0:0,0:0:0:0:
300,236,26535,6,0,P|241:258|168:251,1,130,8|8,0:3|0:0,0:0:0:0:
97,240,27049,1,0,0:0:0:0:
70,313,27221,2,0,L|42:405,2,65,8|0|8,0:3|0:0|0:0,0:0:0:0:
44,159,27906,6,0,P|28:126|26:76,1,65,8|0,0:3|0:0,0:0:0:0:
99,74,28249,2,0,P|121:30|147:12,1,65,8|0,0:0|0:0,0:0:0:0:
204,51,28592,2,0,P|265:38|311:110,1,130,8|8,0:3|0:0,0:0:0:0:
350,233,29278,6,0,P|375:267|412:281,1,65,8|0,0:3|0:0,0:0:0:0:
472,270,29620,2,0,P|495:234|495:195,1,65,8|0,0:0|0:0,0:0:0:0:
475,138,29963,2,0,L|483:48,2,65,8|0|8,0:3|0:0|0:0,0:0:0:0:
350,233,30649,6,0,P|312:240|262:227,1,65,8|8,0:3|0:3,0:0:0:0:
214,205,30992,2,0,P|181:201|150:208,1,65,8|8,0:0|0:3,0:0:0:0:
95,264,31335,2,0,L|109:345,2,65,8|8|8,0:3|0:3|0:0,0:0:0:0:
83,108,32020,6,0,P|132:51|187:26,1,130,8|8,0:3|0:0,0:0:0:0:
259,27,32535,2,0,P|316:56|356:107,1,130,8|8,0:3|0:3,0:0:0:0:
381,181,33049,1,8,0:0:0:0:
315,322,33392,6,0,B|169:352|147:219|219:170|293:221|266:358|118:322,1,390,6|8,0:0|0:0,0:0:0:0:
74,32,44363,6,0,B|40:166,1,130,4|8,0:0|0:0,0:0:0:0:
22,234,44878,1,0,0:0:0:0:
100,220,45049,2,0,P|146:213|240:252,1,130,8|8,0:3|0:0,0:0:0:0:
370,311,45735,6,0,P|398:271|409:179,1,130,8|8,0:3|0:0,0:0:0:0:
389,116,46249,1,0,0:0:0:0:
444,61,46421,2,0,L|508:22,2,65,8|0|8,0:3|0:0|0:0,0:0:0:0:
288,53,47106,6,0,P|218:65|141:39,1,130,8|8,0:3|0:0,0:0:0:0:
87,23,47621,1,0,0:0:0:0:
63,97,47792,2,0,L|80:232,1,130,8|8,0:3|0:0,0:0:0:0:
224,283,48478,6,0,P|272:299|358:273,1,130,8|8,0:3|0:0,0:0:0:0:
415,240,48992,1,0,0:0:0:0:
442,313,49164,2,0,L|470:405,2,65,8|0|8,0:3|0:0|0:0,0:0:0:0:
482,159,49849,6,0,P|497:126|499:76,1,65,8|0,0:3|0:0,0:0:0:0:
427,74,50192,2,0,P|404:30|378:12,1,65,8|0,0:0|0:0,0:0:0:0:
322,51,50535,2,0,P|260:38|214:110,1,130,8|8,0:3|0:0,0:0:0:0:
255,233,51221,6,0,P|291:242|333:234,1,65,8|0,0:3|0:0,0:0:0:0:
384,200,51563,2,0,L|399:128,1,65,8|0,0:0|0:0,0:0:0:0:
440,71,51906,2,0,P|472:74|506:90,2,65,8|0|8,0:3|0:0|0:0,0:0:0:0:
284,85,52592,6,0,P|246:97|220:116,1,65,8|8,0:3|0:3,0:0:0:0:
169,166,52935,2,0,P|136:180|90:182,1,65,8|8,0:0|0:3,0:0:0:0:
33,157,53278,2,0,L|17:82,2,65,8|8|8,0:3|0:3|0:0,0:0:0:0:
86,304,53963,6,0,P|148:288|211:302,1,130,8|8,0:3|0:0,0:0:0:0:
279,345,54478,2,0,P|343:348|411:314,1,130,8|8,0:3|0:3,0:0:0:0:
451,260,54992,1,8,0:0:0:0:
310,192,55335,6,0,P|287:169|275:127,1,65,6|0,0:0|0:0,0:0:0:0:
282,62,55678,2,0,P|305:35|336:21,1,65,8|0,0:0|0:3,0:0:0:0:
408,26,56020,2,0,P|455:90|456:144,1,130,8|8,0:3|0:0,0:0:0:0:
310,192,56706,6,0,P|287:215|275:257,1,65,10|0,0:3|0:0,0:0:0:0:
282,322,57049,2,0,P|305:349|336:363,1,65,8|0,0:0|0:3,0:0:0:0:
408,358,57392,2,0,P|455:294|456:240,1,130,8|8,0:3|0:0,0:0:0:0:
407,96,58078,6,0,L|354:161,1,65,10|0,0:3|0:0,0:0:0:0:
315,206,58420,1,8,0:0:0:0:
158,206,58763,2,0,L|211:141,1,65,8|0,0:3|0:0,0:0:0:0:
250,96,59105,1,8,0:0:0:0:
407,96,59449,6,0,L|455:161,1,65,10|0,0:3|0:0,0:0:0:0:
497,206,59791,1,8,0:0:0:0:
398,327,60135,2,0,P|328:345|252:314,1,130,8|8,0:3|0:0,0:0:0:0:
202,191,60820,6,0,P|224:169|236:139,1,65,10|0,0:3|0:0,0:0:0:0:
229,61,61163,2,0,P|209:36|180:22,1,65,8|0,0:0|0:3,0:0:0:0:
104,26,61506,2,0,P|57:90|56:144,1,130,8|8,0:3|0:0,0:0:0:0:
202,192,62191,6,0,P|224:214|236:244,1,65,10|0,0:3|0:0,0:0:0:0:
229,322,62534,2,0,P|209:347|180:361,1,65,8|0,0:0|0:3,0:0:0:0:
104,358,62878,2,0,P|57:294|56:240,1,130,8|8,0:3|0:0,0:0:0:0:
40,88,63563,6,0,L|124:60,1,65,10|8,0:3|0:3,0:0:0:0:
179,67,63906,2,0,L|240:87,1,65,8|8,0:0|0:3,0:0:0:0:
312,53,64249,2,0,P|391:52|444:99,1,130,8|8,0:3|0:0,0:0:0:0:
468,231,64935,6,0,L|397:274,1,65,10|8,0:3|0:3,0:0:0:0:
347,307,65278,1,8,0:0:0:0:
284,260,65449,1,8,0:3:0:0:
226,312,65620,2,0,P|162:317|107:285,1,130,8|8,0:3|0:0,0:0:0:0:
50,131,66306,6,0,P|62:87|102:42,1,81.25,4|0,0:0|0:0,0:0:0:0:
153,18,66649,1,8,0:0:0:0:
301,83,66992,2,0,B|383:113|386:53|473:95,1,162.5,8|8,0:3|0:0,0:0:0:0:
496,248,67678,5,8,0:3:0:0:
448,313,67849,1,0,0:0:0:0:
377,353,68020,2,0,P|335:361|291:352,1,81.25,8|0,0:0|0:0,0:0:0:0:
220,327,68363,2,0,B|141:355|141:355|58:326,1,162.5,8|8,0:3|0:0,0:0:0:0:
3,178,69049,5,8,0:3:0:0:
35,103,69220,1,0,0:0:0:0:
101,56,69392,2,0,P|156:50|204:65,1,81.25,8|0,0:0|0:0,0:0:0:0:
247,102,69735,2,0,P|321:134|393:100,1,162.5,8|8,0:3|0:0,0:0:0:0:
504,218,70420,6,2,L|474:305,1,81.25,8|0,0:3|0:0,0:1:0:0:
452,371,70762,1,8,0:0:0:0:
333,258,71106,2,2,P|298:237|249:233,1,81.25,8|0,0:3|0:0,0:1:0:0:
179,246,71448,1,8,0:0:0:0:
50,346,71792,6,0,L|17:264,1,81.25,8|0,0:3|0:0,0:0:0:0:
69,206,72135,2,0,L|102:124,1,81.25,8|0,0:0|0:0,0:0:0:0:
82,50,72478,2,0,P|169:45|236:103,1,162.5,8|8,0:3|0:0,0:0:0:0:
313,226,73164,6,0,L|340:302,1,81.25,8|0,0:3|0:0,0:0:0:0:
392,366,73506,2,0,P|409:343|420:292,1,81.25,8|0,0:0|0:0,0:0:0:0:
398,213,73849,2,0,L|336:41,1,162.5,8|8,0:3|0:0,0:0:0:0:
185,16,74535,5,8,0:3:0:0:
115,57,74706,1,0,0:0:0:0:
65,121,74878,2,0,P|55:169|76:229,1,81.25,8|8,0:0|0:3,0:0:0:0:
99,271,75220,2,0,B|174:247|178:294|260:265,1,162.5,0|8,0:0|0:0,0:0:0:0:
395,186,75906,6,0,L|416:277,2,81.25,8|8|8,0:3|0:3|0:0,0:0:0:0:
373,107,76420,1,8,0:3:0:0:
294,88,76592,2,0,B|258:88|228:130|228:130|198:88|162:89,1,162.5,8|8,0:3|0:0,0:0:0:0:
29,101,77278,1,4,0:0:0:0:
78,304,88249,6,0,B|118:313|118:313|208:281,1,130,6|8,0:0|0:3,0:0:0:0:
275,256,88763,1,8,0:0:0:0:
352,269,88935,2,0,P|370:308|376:352,2,65,8|8|8,0:3|0:0|0:3,0:0:0:0:
307,119,89620,6,0,B|219:104|219:104|183:122,1,130,10|8,0:3|0:3,0:0:0:0:
115,162,90135,1,8,0:0:0:0:
52,116,90306,2,0,P|29:80|26:41,2,65,8|8|8,0:3|0:0|0:3,0:0:0:0:
59,272,90992,6,0,P|125:289|183:266,1,130,10|8,0:3|0:3,0:0:0:0:
240,216,91506,1,8,0:0:0:0:
284,280,91678,2,0,L|323:343,2,65,8|8|8,0:3|0:0|0:3,0:0:0:0:
297,124,92363,6,0,P|231:107|173:130,1,130,10|8,0:3|0:3,0:0:0:0:
116,180,92877,1,8,0:0:0:0:
72,116,93049,2,0,L|33:53,2,65,8|8|8,0:3|0:0|0:3,0:0:0:0:
122,264,93735,6,0,B|202:306|202:306|245:296,1,130,10|8,0:3|0:3,0:0:0:0:
315,272,94249,1,8,0:0:0:0:
387,241,94421,2,0,P|412:219|429:190,2,65,8|8|8,0:3|0:0|0:3,0:0:0:0:
304,108,95106,6,0,P|224:78|112:115,1,195,10|8,0:3|0:0,0:0:0:0:
44,114,95792,2,0,L|16:50,2,65,8|8|8,0:3|0:0|0:3,0:0:0:0:
52,271,96478,6,0,P|115:285|183:266,1,130,10|8,0:3|0:3,0:3:0:0:
299,172,97163,2,0,P|361:156|424:170,1,130,8|8,0:3|0:3,0:0:0:0:
424,326,97849,6,0,P|361:340|298:324,1,130,10|8,0:3|0:3,0:0:0:0:
230,284,98363,2,0,P|162:319|106:318,1,130,8|8,0:0|0:3,0:0:0:0:
33,304,98878,1,8,0:0:0:0:
24,153,99220,6,0,P|50:177|84:188,1,65,6|0,0:0|0:0,0:0:0:0:
156,191,99563,2,0,P|190:172|219:139,1,65,8|0,0:0|0:0,0:0:0:0:
256,91,99906,2,0,P|329:50|394:51,1,130,8|8,0:3|0:0,0:0:0:0:
488,153,100592,6,0,P|461:177|427:188,1,65,10|0,0:3|0:0,0:0:0:0:
356,191,100935,2,0,P|322:172|293:139,1,65,8|0,0:0|0:0,0:0:0:0:
256,91,101278,2,0,P|183:50|118:51,1,130,8|8,0:3|0:0,0:0:0:0:
53,178,101963,6,0,L|123:219,1,65,10|0,0:3|0:0,0:0:0:0:
177,247,102305,1,8,0:0:0:0:
333,247,102649,2,0,L|403:206,1,65,8|0,0:3|0:0,0:0:0:0:
457,178,102991,1,8,0:0:0:0:
467,21,103335,6,0,L|397:62,1,65,10|0,0:3|0:0,0:0:0:0:
343,90,103677,1,8,0:0:0:0:
186,79,104020,2,0,P|132:66|43:93,1,130,8|8,0:3|0:0,0:0:0:0:
24,231,104706,6,0,P|50:206|84:195,1,65,10|0,0:3|0:0,0:0:0:0:
156,193,105049,2,0,P|190:212|219:245,1,65,8|0,0:0|0:0,0:0:0:0:
256,293,105392,2,0,P|329:334|394:333,1,130,8|8,0:3|0:0,0:0:0:0:
488,231,106078,6,0,P|461:206|427:195,1,65,10|0,0:3|0:0,0:0:0:0:
356,193,106420,2,0,P|322:212|293:245,1,65,8|0,0:0|0:0,0:0:0:0:
256,293,106764,2,0,P|183:334|118:333,1,130,8|8,0:3|0:0,0:0:0:0:
18,236,107448,6,0,P|32:199|61:176,1,65,10|8,0:3|0:3,0:0:0:0:
119,146,107791,2,0,L|119:66,1,65,8|8,0:0|0:3,0:0:0:0:
182,34,108135,2,0,P|253:51|292:91,1,130,8|8,0:3|0:0,0:0:0:0:
356,233,108820,6,0,L|375:304,1,65,10|8,0:3|0:3,0:0:0:0:
399,369,109163,1,8,0:0:0:0:
465,328,109334,1,8,0:3:0:0:
502,259,109506,2,0,P|505:184|489:133,1,130,8|8,0:3|0:0,0:0:0:0:
346,53,110192,6,0,P|298:46|246:64,1,81.25,4|0,0:0|0:0,0:0:0:0:
193,90,110535,1,8,0:0:0:0:
143,244,110878,2,0,B|225:274|228:214|315:256,1,162.5,8|8,0:3|0:0,0:0:0:0:
438,338,111564,5,8,0:3:0:0:
470,263,111735,1,0,0:0:0:0:
486,183,111906,2,0,P|484:146|458:98,1,81.25,8|0,0:0|0:0,0:0:0:0:
393,68,112249,2,0,P|320:103|249:67,1,162.5,8|8,0:3|0:0,0:0:0:0:
97,16,112935,5,8,0:3:0:0:
79,95,113106,1,0,0:0:0:0:
83,176,113278,2,0,P|102:227|127:256,1,81.25,8|0,0:0|0:0,0:0:0:0:
183,297,113621,2,0,B|256:325|256:325|336:296,1,162.5,8|8,0:3|0:0,0:0:0:0:
449,180,114306,6,2,P|429:147|390:114,1,81.25,8|0,0:3|0:0,0:1:0:0:
328,75,114648,1,8,0:0:0:0:
164,75,114992,2,2,P|129:96|102:126,1,81.25,8|0,0:3|0:0,0:1:0:0:
60,195,115334,1,8,0:0:0:0:
119,346,115678,6,0,P|160:353|208:343,1,81.25,8|0,0:3|0:0,0:0:0:0:
272,312,116021,2,0,P|313:305|361:315,1,81.25,8|0,0:0|0:0,0:0:0:0:
427,342,116364,2,0,P|464:269|467:189,1,162.5,8|8,0:3|0:0,0:0:0:0:
388,47,117050,6,0,L|346:130,1,81.25,8|0,0:3|0:0,0:0:0:0:
272,139,117392,2,0,L|235:66,1,81.25,8|0,0:0|0:0,0:0:0:0:
163,28,117735,2,0,P|79:31|13:92,1,162.5,8|8,0:3|0:0,0:0:0:0:
0,249,118420,5,8,0:3:0:0:
39,320,118591,1,0,0:0:0:0:
120,319,118763,2,0,P|153:293|169:259,1,81.25,8|8,0:0|0:3,0:0:0:0:
197,181,119106,2,0,P|259:131|339:130,1,162.5,8|8,0:3|0:0,0:0:0:0:
502,129,119792,6,0,L|511:48,2,81.25,8|8|8,0:3|0:3|0:0,0:0:0:0:
478,207,120306,1,8,0:3:0:0:
440,279,120478,2,0,P|386:338|308:353,1,162.5,8|8,0:3|0:0,0:0:0:0:
145,341,121163,6,0,P|104:321|77:288,1,81.25,4|0,0:0|0:0,0:0:0:0:
44,221,121506,1,8,0:0:0:0:
202,186,121849,2,0,P|290:207|359:182,1,162.5,8|8,0:3|0:0,0:0:0:0:
280,39,122535,5,8,0:3:0:0:
352,3,122706,1,0,0:0:0:0:
429,26,122877,2,0,P|465:64|486:114,1,81.25,8|0,0:0|0:0,0:0:0:0:
499,168,123220,2,0,B|500:250|500:250|436:314,1,162.5,8|8,0:3|0:0,0:0:0:0:
290,364,123906,5,8,0:3:0:0:
209,376,124077,1,0,0:0:0:0:
127,372,124249,2,0,P|84:351|62:316,1,81.25,8|0,0:0|0:0,0:0:0:0:
54,243,124592,2,0,P|120:198|200:198,1,162.5,8|8,0:3|0:0,0:0:0:0:
339,287,125278,6,2,L|381:202,1,81.25,8|0,0:3|0:0,0:1:0:0:
409,141,125620,1,8,0:0:0:0:
271,53,125963,2,2,L|229:138,1,81.25,8|0,0:3|0:0,0:1:0:0:
201,199,126305,1,8,0:0:0:0:
72,299,126649,6,0,P|76:258|70:218,1,81.25,8|0,0:3|0:0,0:0:0:0:
23,152,126992,2,0,P|17:116|21:72,1,81.25,8|0,0:0|0:0,0:0:0:0:
93,33,127335,2,0,B|135:39|163:70|163:70|197:38|235:31,1,162.5,8|8,0:3|0:0,0:0:0:0:
363,129,128021,6,0,L|364:231,1,81.25,8|0,0:3|0:0,0:0:0:0:
346,289,128363,2,0,P|317:327|280:349,1,81.25,8|0,0:0|0:0,0:0:0:0:
209,354,128706,2,0,B|124:350|75:273,1,162.5,8|8,0:3|0:0,0:0:0:0:
75,111,129392,6,0,B|124:34|237:27,1,162.5,8|8,0:3|0:0,0:0:0:0:
366,68,130078,2,0,B|434:120|450:216,1,162.5,8|8,0:3|0:0,0:0:0:0:
377,351,130763,6,0,B|293:351|293:351|366:263|366:160|272:75|178:75|98:162|99:252|140:303|209:303|248:278|235:230,1,650,8|4,0:3|0:0,0:0:0:0:
