osu file format v14

[General]
AudioFilename: YELLOWTRICKPV.mp3
AudioLeadIn: 0
PreviewTime: 66306
Countdown: 0
SampleSet: Soft
StackLeniency: 0.7
Mode: 0
LetterboxInBreaks: 0
SkinPreference:Default
WidescreenStoryboard: 0

[Editor]
Bookmarks: 11449,22420,34078,44020,55335,66306,76935,88249,99220,114306,125278,132135
DistanceSpacing: 1
BeatDivisor: 4
GridSize: 8
TimelineZoom: 0.8000001

[Metadata]
Title:YELLOW TRICK
TitleUnicode:YELLOW TRICK
Artist:YuugouP
ArtistUnicode:融合P
Creator:Noffy
Version:Normal
Source:
Tags:vocaloid rin len kagamine 鏡音リン 鏡音レン 融合電波 Yuugou Denpa 7:24 Akira Kenji 輝 naoyan Okoratu Okorin dorothy3242
BeatmapID:549709
BeatmapSetID:237515

[Difficulty]
HPDrainRate:4
CircleSize:3
OverallDifficulty:4
ApproachRate:5
SliderMultiplier:1.1
SliderTickRate:1

[Events]
//Background and Video events
0,0,"bowfix.png",0,0
Video,-1106,"Yellow Trick.avi"
//Break Periods
2,34620,43163
2,77478,87049
//Storyboard Layer 0 (Background)
//Storyboard Layer 1 (Fail)
//Storyboard Layer 2 (Pass)
//Storyboard Layer 3 (Foreground)
//Storyboard Sound Samples

[TimingPoints]
478,342.857142857143,4,2,1,50,1,0
5620,-100,4,2,0,60,0,0
5963,-100,4,2,0,50,0,0
10763,-100,4,2,0,5,0,0
11449,-100,4,2,11,70,0,0
63563,-100,4,2,11,55,0,0
66306,-100,4,2,6,80,0,1
66649,-100,4,2,7,80,0,1
66992,-100,4,2,8,80,0,1
67335,-100,4,2,7,80,0,1
68020,-100,4,2,6,80,0,1
68363,-100,4,2,4,80,0,1
68706,-100,4,2,0,80,0,1
69049,-100,4,2,3,80,0,1
69392,-100,4,2,5,80,0,1
69735,-100,4,2,4,80,0,1
70078,-100,4,2,7,80,0,1
70420,-100,4,2,10,80,0,1
70592,-100,4,2,6,80,0,1
70763,-100,4,2,7,80,0,1
71106,-100,4,2,10,80,0,1
71278,-100,4,2,6,80,0,1
71449,-100,4,2,9,80,0,1
71792,-100,4,2,6,80,0,1
72135,-100,4,2,7,80,0,1
72306,-100,4,2,0,80,0,1
72478,-100,4,2,8,80,0,1
72820,-100,4,2,10,80,0,1
73163,-100,4,2,7,80,0,1
73506,-100,4,2,6,80,0,1
73849,-100,4,2,4,80,0,1
74192,-100,4,2,0,80,0,1
74535,-100,4,2,3,80,0,1
75220,-100,4,2,4,80,0,1
75563,-100,4,2,7,80,0,1
75906,-100,4,2,10,80,0,1
76249,-100,4,2,6,80,0,1
76420,-100,4,2,10,80,0,1
76592,-100,4,2,6,80,0,1
76935,-100,4,2,0,80,0,1
77278,-100,4,2,11,70,0,0
107449,-100,4,2,11,55,0,0
110192,-100,4,2,6,80,0,1
110535,-100,4,2,7,80,0,1
110878,-100,4,2,8,80,0,1
111220,-100,4,2,7,80,0,1
111906,-100,4,2,6,80,0,1
112249,-100,4,2,4,80,0,1
112592,-100,4,2,0,80,0,1
112935,-100,4,2,3,80,0,1
113278,-100,4,2,5,80,0,1
113620,-100,4,2,4,80,0,1
113963,-100,4,2,7,80,0,1
114306,-100,4,2,10,80,0,1
114478,-100,4,2,6,80,0,1
114649,-100,4,2,7,80,0,1
114992,-100,4,2,10,80,0,1
115163,-100,4,2,6,80,0,1
115335,-100,4,2,9,80,0,1
115678,-100,4,2,6,80,0,1
116020,-100,4,2,7,80,0,1
116363,-100,4,2,8,80,0,1
116706,-100,4,2,7,80,0,1
117392,-100,4,2,10,80,0,1
117735,-100,4,2,4,80,0,1
118078,-100,4,2,0,80,0,1
118420,-100,4,2,3,80,0,1
119106,-100,4,2,4,80,0,1
119449,-100,4,2,7,80,0,1
119792,-100,4,2,10,80,0,1
120478,-100,4,2,6,70,0,0
121163,-100,4,2,6,80,0,1
121506,-100,4,2,7,80,0,1
121678,-100,4,2,0,80,0,1
121849,-100,4,2,8,80,0,1
122192,-100,4,2,10,80,0,1
122535,-100,4,2,7,80,0,1
122878,-100,4,2,6,80,0,1
123220,-100,4,2,4,80,0,1
123563,-100,4,2,0,80,0,1
123906,-100,4,2,3,80,0,1
124249,-100,4,2,5,80,0,1
124592,-100,4,2,4,80,0,1
124935,-100,4,2,7,80,0,1
125278,-100,4,2,10,80,0,1
125449,-100,4,2,6,80,0,1
125620,-100,4,2,7,80,0,1
125963,-100,4,2,10,80,0,1
126135,-100,4,2,6,80,0,1
126306,-100,4,2,9,80,0,1
126649,-100,4,2,6,80,0,1
126992,-100,4,2,7,80,0,1
127335,-100,4,2,8,80,0,1
127678,-100,4,2,7,80,0,1
128363,-100,4,2,6,80,0,1
128706,-100,4,2,4,80,0,1
129049,-100,4,2,0,80,0,1
129392,-100,4,2,3,80,0,1
129735,-100,4,2,5,80,0,1
130078,-100,4,2,4,80,0,1
130420,-100,4,2,7,80,0,1
130763,-100,4,2,6,80,0,1
132135,-100,4,2,0,70,0,0

[Colours]
Combo1 : 222,178,222
Combo2 : 0,155,170
Combo3 : 64,208,13
Combo4 : 240,170,12
SliderBorder : 255,255,255

[HitObjects]
378,111,478,6,0,P|332:141|267:133,1,110,2|0,0:0|0:1,0:0:0:0:
178,96,1163,2,0,P|123:92|70:132,1,110,2|0,0:0|0:1,0:0:0:0:
36,224,1849,2,0,L|165:250,1,110,2|0,0:0|0:1,0:0:0:0:
177,350,2535,2,0,L|306:376,1,110,2|0,0:0|0:1,0:0:0:0:
394,371,3220,6,0,P|405:317|389:265,1,110,2|0,0:0|0:0,0:0:0:0:
295,207,3906,2,0,L|186:187,1,110,2|0,0:0|0:0,0:0:0:0:
80,158,4592,2,0,P|69:104|85:52,1,110,2|0,0:0|0:0,0:0:0:0:
189,16,5278,2,0,L|312:38,1,110,2|0,0:0|0:0,0:0:0:0:
385,102,5963,6,0,P|395:155|380:208,1,110,8|8,0:3|0:3,0:0:0:0:
311,294,6648,1,8,0:3:0:0:
200,294,6992,1,8,0:3:0:0:
132,208,7335,2,0,P|117:155|127:102,1,110,8|8,0:3|0:3,0:0:0:0:
201,21,8020,1,8,0:3:0:0:
312,21,8364,1,8,0:3:0:0:
256,192,8706,12,0,10763,0:0:0:0:
86,182,11449,6,0,P|136:202|191:200,1,110,6|8,0:0|0:0,0:0:0:0:
290,155,12135,2,0,P|344:149|396:165,1,110,8|8,0:3|0:0,0:0:0:0:
493,223,12820,2,0,L|482:334,2,110,10|8|8,0:3|0:0|0:3,0:0:0:0:
493,112,13849,1,8,0:0:0:0:
397,166,14192,6,0,P|341:170|285:153,1,110,10|8,0:3|0:0,0:0:0:0:
182,129,14878,2,0,P|146:189|145:235,1,110,8|8,0:3|0:0,0:0:0:0:
150,337,15563,2,0,L|33:375,2,110,10|8|8,0:3|0:0|0:3,0:0:0:0:
256,298,16592,1,8,0:0:0:0:
203,202,16935,6,0,B|217:152|188:152|202:91,1,110,10|8,0:3|0:0,0:0:0:0:
310,93,17620,2,0,B|324:152|295:152|309:202,1,110,8|8,0:3|0:0,0:0:0:0:
306,312,18306,2,0,P|253:325|200:310,2,110,10|8|8,0:3|0:0|0:3,0:0:0:0:
255,215,19335,1,8,0:0:0:0:
145,210,19678,6,0,P|163:154|209:114,1,110,10|8,0:3|0:0,0:0:0:0:
309,118,20363,2,0,P|348:157|364:209,1,110,8|8,0:3|0:0,0:0:0:0:
256,250,21049,2,0,P|391:319|477:195,1,330,10|8,0:3|0:0,0:0:0:0:
458,89,22420,6,0,B|429:94|405:115|405:115|343:115,1,110,4|8,0:0|0:0,0:0:0:0:
256,64,23106,2,0,L|256:-13,2,55,8|0|8,0:3|0:0|0:0,0:0:0:0:
161,120,23792,2,0,P|109:150|80:201,1,110,8|8,0:3|0:0,0:0:0:0:
45,295,24478,1,8,0:3:0:0:
130,363,24820,1,8,0:0:0:0:
239,369,25163,6,0,L|269:252,1,110,8|8,0:3|0:0,0:0:0:0:
260,152,25849,2,0,L|213:96,2,55,8|0|8,0:3|0:0|0:0,0:0:0:0:
357,204,26535,2,0,P|426:203|466:177,1,110,8|8,0:3|0:0,0:0:0:0:
508,85,27220,1,8,0:3:0:0:
441,0,27563,1,8,0:0:0:0:
359,73,27906,6,0,B|308:73|308:73|284:94|255:99,1,110,8|8,0:3|0:0,0:0:0:0:
146,113,28592,2,0,L|95:79,2,55,8|0|8,0:3|0:0|0:0,0:0:0:0:
212,201,29278,2,0,P|222:261|203:321,1,110,8|8,0:3|0:0,0:0:0:0:
124,376,29963,1,8,0:3:0:0:
20,337,30306,1,8,0:0:0:0:
5,227,30649,6,0,P|33:176|92:140,1,110,8|8,0:3|0:0,0:3:0:0:
152,68,31335,2,0,B|140:7,2,55,8|8|8,0:3|0:3|0:0,0:0:0:0:
252,112,32020,2,0,P|306:117|353:145,1,110,8|8,0:3|0:0,0:3:0:0:
373,196,32535,2,0,L|338:320,1,110,8|8,0:3|0:3,0:0:0:0:
326,354,33049,1,8,0:0:0:0:
222,316,33392,6,0,B|208:284|185:255|128:243|84:257|84:257|104:211|102:159|73:132|31:109,1,330,6|8,0:0|0:0,0:0:0:0:
47,123,44363,6,0,B|76:118|100:97|100:97|162:97,1,110,4|8,0:0|0:0,0:0:0:0:
256,64,45049,2,0,L|256:-13,2,55,8|0|8,0:3|0:0|0:0,0:0:0:0:
351,120,45735,2,0,P|403:150|432:201,1,110,8|8,0:3|0:0,0:0:0:0:
418,301,46421,1,8,0:3:0:0:
329,365,46763,1,8,0:0:0:0:
218,368,47106,6,0,P|168:326|158:270,1,110,8|8,0:3|0:0,0:0:0:0:
147,174,47792,2,0,L|117:120,2,55,8|0|8,0:3|0:0|0:0,0:0:0:0:
247,221,48478,2,0,L|353:193,1,110,8|8,0:3|0:0,0:0:0:0:
460,167,49163,1,8,0:3:0:0:
439,58,49506,1,8,0:0:0:0:
333,86,49849,6,0,B|282:86|282:86|258:65|229:60,1,110,8|8,0:3|0:0,0:0:0:0:
151,137,50535,2,0,L|162:202,2,55,8|0|8,0:3|0:0|0:0,0:0:0:0:
43,110,51220,2,0,P|10:155|10:225,1,110,8|8,0:3|0:0,0:0:0:0:
41,312,51906,1,8,0:3:0:0:
145,347,52249,1,8,0:0:0:0:
253,324,52592,6,0,P|299:295|321:247,1,110,8|8,0:3|0:0,0:0:0:0:
328,135,53278,2,0,L|387:99,2,55,8|0|8,0:3|0:0|0:0,0:0:0:0:
227,91,53963,2,0,P|173:94|130:126,1,110,8|8,0:3|0:0,0:0:0:0:
123,182,54478,2,0,L|173:295,1,110,8|8,0:3|0:3,0:0:0:0:
227,293,54992,1,8,0:0:0:0:
272,192,55335,5,4,0:0:0:0:
227,91,55678,1,8,0:0:0:0:
316,26,56021,2,0,L|361:126,1,110,8|8,0:3|0:0,0:0:0:0:
272,192,56706,1,10,0:3:0:0:
227,293,57049,1,8,0:0:0:0:
316,358,57392,2,0,L|361:258,1,110,8|8,0:3|0:0,0:0:0:0:
371,147,58078,6,0,P|351:89|307:46,1,110,10|8,0:3|0:0,0:0:0:0:
212,38,58763,2,0,L|113:86,1,110,8|8,0:3|0:0,0:0:0:0:
20,145,59449,2,0,P|14:199|30:251,1,110,10|8,0:3|0:0,0:0:0:0:
85,347,60135,2,0,L|183:298,1,110,8|8,0:3|0:0,0:0:0:0:
240,192,60820,5,8,0:3:0:0:
285,91,61163,1,8,0:0:0:0:
196,26,61506,2,0,L|151:126,1,110,8|8,0:3|0:0,0:0:0:0:
240,192,62191,1,10,0:3:0:0:
285,293,62534,1,8,0:0:0:0:
196,358,62877,2,0,L|151:258,1,110,8|8,0:3|0:0,0:0:0:0:
162,147,63563,6,8,P|194:103|240:75,1,110,10|8,0:3|0:0,0:0:0:0:
297,71,64078,1,0,0:0:0:0:
344,100,64249,2,0,P|361:151|358:206,1,110,8|8,0:3|0:0,0:0:0:0:
277,281,64935,1,10,0:3:0:0:
361,351,65278,1,8,0:0:0:0:
445,281,65620,2,0,P|468:228|476:173,1,110,8|8,0:3|0:0,0:0:0:0:
475,66,66306,6,0,P|418:55|358:68,1,110,4|8,0:0|0:0,0:0:0:0:
273,122,66992,1,8,0:3:0:0:
199,203,67335,1,8,0:0:0:0:
114,133,67678,2,0,L|114:19,2,110,8|8|8,0:3|0:0|0:3,0:0:0:0:
29,203,68706,1,8,0:0:0:0:
61,297,69049,6,0,P|111:310|180:291,1,110,8|8,0:3|0:0,0:0:0:0:
244,220,69735,2,0,P|297:208|350:221,1,110,8|8,0:3|0:0,0:0:0:0:
451,265,70420,2,2,L|486:190,1,55,8|0,0:3|0:0,0:1:0:0:
498,165,70763,1,8,0:0:0:0:
420,86,71106,2,2,L|385:161,1,55,8|0,0:3|0:0,0:1:0:0:
373,186,71449,1,8,0:0:0:0:
306,273,71792,6,0,B|269:283|269:283|256:318|216:333,1,110,8|8,0:3|0:0,0:0:0:0:
165,342,72306,1,0,0:0:0:0:
111,329,72478,2,0,P|67:272|73:197,1,110,8|8,0:3|0:0,0:0:0:0:
110,136,73163,2,0,B|127:77|89:90|111:27,2,110,8|8|8,0:3|0:0|0:3,0:0:0:0:
63,235,74192,1,8,0:0:0:0:
140,313,74535,6,0,B|172:349|284:349|207:281|313:282|357:324,1,220,8|8,0:3|0:3,0:0:0:0:
440,367,75563,1,8,0:0:0:0:
449,257,75906,6,0,B|458:220|458:220|493:207|508:167,1,110,8|8,0:3|0:0,0:0:0:0:
512,110,76420,1,8,0:3:0:0:
493,58,76592,2,0,P|439:24|379:29,1,110,8|8,0:3|0:0,0:0:0:0:
290,64,77278,1,4,0:0:0:0:
127,197,88249,6,0,P|164:237|216:253,1,110,14|8,0:0|0:0,0:0:0:0:
224,144,88935,2,0,L|280:63,2,55,8|8|8,0:0|0:0|0:0,0:0:0:0:
321,211,89620,2,0,P|362:246|415:257,1,110,10|8,0:0|0:0,0:0:0:0:
411,147,90306,2,0,L|458:60,2,55,8|8|8,0:0|0:0|0:0,0:0:0:0:
308,104,90992,6,0,P|256:87|204:104,1,110,10|8,0:0|0:0,0:0:0:0:
135,192,91678,2,0,L|80:192,2,55,8|8|8,0:0|0:0|0:0,0:0:0:0:
204,279,92363,2,0,P|256:296|308:280,1,110,10|8,0:0|0:0,0:0:0:0:
377,192,93049,2,0,L|432:192,2,55,8|8|8,0:0|0:0|0:0,0:0:0:0:
308,104,93735,6,0,B|253:104|253:104|208:141,1,110,10|8,0:0|0:0,0:0:0:0:
210,245,94420,2,0,B|253:280|253:280|308:280,1,110,8|8,0:0|0:0,0:0:0:0:
377,192,95106,2,0,P|439:198|491:240,1,110,10|8,0:0|0:0,0:0:0:0:
476,334,95792,2,0,P|430:362|376:365,1,110,8|8,0:0|0:0,0:0:0:0:
265,365,96478,6,0,B|210:365|210:365|160:342,1,110,10|8,0:0|0:0,0:0:0:0:
112,314,96992,1,8,0:0:0:0:
77,271,97163,2,0,P|65:224|92:153,1,110,8|8,0:0|0:0,0:0:0:0:
160,88,97849,2,0,B|251:29|251:29|307:29,2,165,10|8|8,0:3|0:0|0:3,0:0:0:0:
82,170,99220,5,6,0:0:0:0:
172,232,99563,1,8,0:0:0:0:
256,160,99906,2,0,P|316:113|377:86,1,110,8|8,0:3|0:0,0:0:0:0:
430,170,100592,1,10,0:3:0:0:
340,232,100935,1,8,0:0:0:0:
256,160,101278,2,0,P|196:113|135:86,1,110,8|8,0:3|0:0,0:0:0:0:
87,174,101963,6,0,L|86:297,1,110,10|8,0:3|0:0,0:0:0:0:
179,342,102649,2,0,P|223:317|258:228,1,110,8|8,0:3|0:0,0:0:0:0:
270,158,103335,2,0,L|270:22,1,110,10|8,0:3|0:0,0:0:0:0:
162,31,104020,2,0,P|115:59|87:106,1,110,8|8,0:3|0:0,0:0:0:0:
88,217,104706,5,10,0:3:0:0:
180,158,105049,1,8,0:0:0:0:
256,224,105392,2,0,P|316:271|377:298,1,110,8|8,0:3|0:0,0:0:0:0:
430,214,106078,1,10,0:3:0:0:
340,152,106421,1,8,0:0:0:0:
256,224,106764,2,0,P|196:271|135:298,1,110,8|8,0:3|0:0,0:0:0:0:
56,272,107449,6,0,P|19:231|2:179,1,110,10|8,0:3|0:0,0:0:0:0:
6,124,107962,1,0,0:0:0:0:
49,89,108135,2,0,P|101:77|155:88,1,110,8|8,0:3|0:0,0:0:0:0:
257,131,108820,1,10,0:3:0:0:
190,218,109163,1,8,0:0:0:0:
254,310,109506,2,0,P|299:345|352:356,1,110,8|8,0:3|0:0,0:0:0:0:
455,325,110192,6,0,P|471:262|457:203,1,110,4|8,0:0|0:0,0:0:0:0:
420,116,110878,1,8,0:3:0:0:
333,48,111220,1,8,0:0:0:0:
243,111,111563,2,0,B|243:227,2,110,8|8|8,0:3|0:0|0:3,0:0:0:0:
152,48,112592,1,8,0:0:0:0:
77,128,112935,6,0,L|109:269,1,110,8|8,0:3|0:0,0:0:0:0:
134,340,113620,1,8,0:3:0:0:
241,318,113963,1,8,0:0:0:0:
338,266,114306,2,2,P|354:240|362:213,1,55,8|0,0:3|0:0,0:1:0:0:
374,161,114649,1,8,0:0:0:0:
304,77,114992,2,2,P|274:78|250:87,1,55,8|0,0:3|0:0,0:1:0:0:
199,116,115335,1,8,0:0:0:0:
166,221,115678,6,0,P|180:296|215:328,1,110,8|8,0:3|0:0,0:0:0:0:
311,318,116363,2,0,P|342:274|346:219,1,110,8|8,0:3|0:0,0:0:0:0:
279,132,117049,2,0,P|255:83|260:29,2,110,8|8|8,0:3|0:0|0:3,0:0:0:0:
385,161,118078,1,8,0:0:0:0:
484,114,118420,6,0,P|516:182|477:334,1,220,8|8,0:3|0:3,0:0:0:0:
387,362,119449,1,8,0:0:0:0:
285,319,119792,2,0,P|251:274|249:205,1,110,8|8,0:3|0:0,0:0:0:0:
247,112,120478,1,8,0:3:0:0:
61,228,121163,6,0,P|63:285|96:324,1,110,4|8,0:0|0:0,0:0:0:0:
150,337,121678,1,0,0:0:0:0:
203,323,121849,2,0,P|237:281|237:227,1,110,8|8,0:3|0:0,0:0:0:0:
293,132,122535,2,0,B|351:157|346:111|407:131,2,110,8|8|8,0:3|0:0|0:3,0:0:0:0:
198,75,123563,1,8,0:0:0:0:
92,106,123906,6,0,P|50:173|46:209,1,110,8|8,0:3|0:0,0:0:0:0:
72,309,124592,1,8,0:3:0:0:
176,276,124935,1,8,0:0:0:0:
283,252,125278,2,2,P|279:287|300:322,1,55,8|0,0:3|0:0,0:1:0:0:
317,350,125620,1,8,0:0:0:0:
392,269,125963,2,2,P|396:241|388:215,1,55,8|0,0:3|0:0,0:1:0:0:
358,169,126305,1,8,0:0:0:0:
275,95,126649,6,0,P|210:72|167:76,1,110,8|8,0:3|0:0,0:0:0:0:
60,90,127335,1,8,0:3:0:0:
18,192,127678,1,8,0:0:0:0:
90,274,128020,2,0,P|133:327|185:351,2,110,8|8|8,0:3|0:0|0:3,0:0:0:0:
92,164,129049,1,8,0:0:0:0:
164,81,129392,6,0,P|216:62|270:62,1,110,8|8,0:3|0:0,0:0:0:0:
369,112,130078,2,0,P|398:160|409:223,1,110,8|8,0:3|0:0,0:0:0:0:
340,298,130763,2,0,B|283:298|283:298|332:239|332:168|268:110|204:110|146:175|146:232|179:264|217:264|243:258|243:220,1,440,8|4,0:3|0:0,0:0:0:0:
