osu file format v14

[General]
AudioFilename: YELLOWTRICKPV.mp3
AudioLeadIn: 0
PreviewTime: 66306
Countdown: 0
SampleSet: Soft
StackLeniency: 0.7
Mode: 0
LetterboxInBreaks: 0
SkinPreference:Default
WidescreenStoryboard: 0

[Editor]
Bookmarks: 11449,22420,34078,44020,55335,66306,76935,88249,99220,110192,121163,132135
DistanceSpacing: 0.7
BeatDivisor: 4
GridSize: 8
TimelineZoom: 0.9999999

[Metadata]
Title:YELLOW TRICK
TitleUnicode:YELLOW TRICK
Artist:YuugouP
ArtistUnicode:融合P
Creator:Noffy
Version:Easy
Source:
Tags:vocaloid rin len kagamine 鏡音リン 鏡音レン 融合電波 Yuugou Denpa 7:24 Akira Kenji 輝 naoyan Okoratu Okorin dorothy3242
BeatmapID:549707
BeatmapSetID:237515

[Difficulty]
HPDrainRate:2
CircleSize:3
OverallDifficulty:2
ApproachRate:3
SliderMultiplier:0.8
SliderTickRate:1

[Events]
//Background and Video events
0,0,"bowfix.png",0,0
Video,-1106,"Yellow Trick.avi"
//Break Periods
2,34620,42924
2,77477,86809
//Storyboard Layer 0 (Background)
//Storyboard Layer 1 (Fail)
//Storyboard Layer 2 (Pass)
//Storyboard Layer 3 (Foreground)
//Storyboard Sound Samples

[TimingPoints]
478,342.857142857143,4,2,1,50,1,0
5963,-100,4,2,0,50,0,0
11449,-100,4,2,11,70,0,0
22420,-100,4,2,0,70,0,0
55335,-100,4,2,11,70,0,0
63563,-100,4,2,11,55,0,0
66306,-100,4,2,6,80,0,1
66992,-100,4,2,8,80,0,1
67678,-100,4,2,7,80,0,1
68363,-100,4,2,4,80,0,1
69049,-100,4,2,3,80,0,1
69735,-100,4,2,4,80,0,1
70420,-100,4,2,10,80,0,1
70763,-100,4,2,7,80,0,1
71106,-100,4,2,10,80,0,1
71449,-100,4,2,9,80,0,1
71792,-100,4,2,6,80,0,1
72478,-100,4,2,8,80,0,1
73163,-100,4,2,7,80,0,1
73849,-100,4,2,4,80,0,1
74535,-100,4,2,3,80,0,1
75220,-100,4,2,4,80,0,1
75906,-100,4,2,10,80,0,1
76592,-100,4,2,6,80,0,1
76935,-100,4,2,0,80,0,1
77278,-100,4,2,11,70,0,0
99220,-100,4,2,11,70,0,0
107449,-100,4,2,11,55,0,0
110192,-100,4,2,6,80,0,1
110878,-100,4,2,8,80,0,1
111563,-100,4,2,7,80,0,1
112249,-100,4,2,4,80,0,1
112935,-100,4,2,3,80,0,1
113620,-100,4,2,4,80,0,1
114306,-100,4,2,10,80,0,1
114649,-100,4,2,7,80,0,1
114992,-100,4,2,10,80,0,1
115335,-100,4,2,9,80,0,1
115678,-100,4,2,6,80,0,1
116363,-100,4,2,8,80,0,1
117049,-100,4,2,7,80,0,1
117735,-100,4,2,4,80,0,1
118420,-100,4,2,3,80,0,1
119106,-100,4,2,4,80,0,1
119792,-100,4,2,10,80,0,1
120478,-100,4,2,6,70,0,0
121163,-100,4,2,6,80,0,1
121849,-100,4,2,8,80,0,1
122535,-100,4,2,7,80,0,1
123220,-100,4,2,4,80,0,1
123906,-100,4,2,3,80,0,1
124592,-100,4,2,4,80,0,1
125278,-100,4,2,10,80,0,1
125620,-100,4,2,7,80,0,1
125963,-100,4,2,10,80,0,1
126306,-100,4,2,9,80,0,1
126649,-100,4,2,6,80,0,1
127335,-100,4,2,8,80,0,1
128020,-100,4,2,7,80,0,1
128706,-100,4,2,4,80,0,1
129392,-100,4,2,3,80,0,1
130078,-100,4,2,4,80,0,1
130763,-100,4,2,6,80,0,1
132135,-100,4,2,0,70,0,0

[Colours]
Combo1 : 222,178,222
Combo2 : 0,155,170
Combo3 : 64,208,13
Combo4 : 240,170,12
SliderBorder : 255,255,255

[HitObjects]
96,231,478,54,0,L|199:352,1,160,2|0,0:0|0:0,0:0:0:0:
312,352,1850,2,0,L|416:231,1,160,2|0,0:0|0:0,0:0:0:0:
430,119,3221,6,0,P|361:84|291:117,1,160,2|0,0:0|0:0,0:0:0:0:
214,199,4592,2,0,P|144:233|73:203,1,160,2|0,0:0|0:0,0:0:0:0:
14,107,5964,5,8,0:3:0:0:
90,25,6650,1,8,0:3:0:0:
203,23,7335,1,8,0:3:0:0:
302,73,8021,1,8,0:3:0:0:
366,164,8707,6,0,P|335:301|205:247,1,320,8|8,0:3|0:3,0:0:0:0:
50,83,11450,5,6,0:0:0:0:
27,192,12135,1,8,0:3:0:0:
88,285,12821,2,0,P|162:313|235:285,1,160,10|8,0:3|0:3,0:0:0:0:
307,200,14192,5,10,0:3:0:0:
379,285,14878,1,8,0:3:0:0:
457,204,15564,2,0,P|474:127|438:57,1,160,10|8,0:3|0:3,0:0:0:0:
331,27,16935,5,10,0:3:0:0:
218,27,17621,1,8,0:3:0:0:
126,93,18307,2,0,P|106:168|141:238,1,160,10|8,0:3|0:3,0:0:0:0:
218,157,19678,5,10,0:3:0:0:
287,69,20364,1,8,0:3:0:0:
397,53,21050,2,0,P|443:160|410:273,1,240,10|8,0:3|0:0,0:0:0:0:
378,320,22421,5,4,0:0:0:0:
274,362,23107,1,8,0:3:0:0:
177,305,23792,2,0,L|130:153,1,160,10|8,0:3|0:3,0:0:0:0:
102,44,25163,5,8,0:3:0:0:
210,75,25850,1,8,0:3:0:0:
130,153,26535,2,0,P|198:187|297:146,1,160,10|8,0:3|0:3,0:0:0:0:
360,92,27907,5,8,0:3:0:0:
444,18,28592,1,8,0:3:0:0:
505,111,29278,2,0,P|516:209|480:282,1,160,10|8,0:3|0:3,0:0:0:0:
420,348,30650,5,8,0:3:0:0:
308,352,31335,1,8,0:3:0:0:
211,294,32020,2,0,P|180:214|200:140,1,160,10|8,0:3|0:3,0:0:0:0:
243,42,33392,6,0,B|286:55|303:88|309:133|309:133|339:97|380:84|418:96,1,240,6|8,0:0|0:0,0:0:0:0:
447,232,44364,5,4,0:0:0:0:
356,298,45050,1,8,0:3:0:0:
246,283,45735,2,0,P|182:203|198:123,1,160,10|8,0:3|0:3,0:0:0:0:
230,47,47107,5,8,0:3:0:0:
340,75,47792,1,8,0:3:0:0:
447,40,48478,2,0,P|480:110|458:185,1,160,10|8,0:3|0:3,0:0:0:0:
371,255,49850,5,8,0:3:0:0:
281,187,50535,1,8,0:3:0:0:
256,296,51221,2,0,P|205:352|120:361,1,160,10|8,0:3|0:3,0:0:0:0:
37,292,52592,5,8,0:3:0:0:
87,192,53278,1,8,0:3:0:0:
39,92,53964,2,0,P|89:35|174:26,1,160,10|8,0:3|0:3,0:0:0:0:
281,33,55335,6,0,L|406:134,1,160,6|8,0:0|0:3,0:0:0:0:
406,250,56707,2,0,L|281:350,1,160,10|8,0:3|0:3,0:0:0:0:
176,308,58078,5,10,0:3:0:0:
202,199,58764,1,8,0:3:0:0:
313,199,59449,1,10,0:3:0:0:
336,308,60135,1,8,0:3:0:0:
230,350,60821,6,0,L|106:250,1,160,10|8,0:3|0:3,0:0:0:0:
106,134,62192,2,0,L|230:33,1,160,10|8,0:3|0:3,0:0:0:0:
334,72,63564,6,0,B|404:147|355:215|355:215|301:183|242:196|208:247,1,320,10|10,0:3|0:3,0:0:0:0:
297,310,65621,1,8,0:3:0:0:
407,290,66307,6,0,P|452:221|463:144,1,160,4|8,0:0|0:3,0:0:0:0:
434,37,67678,1,8,0:3:0:0:
336,92,68364,1,8,0:3:0:0:
235,39,69050,6,0,P|159:19|82:46,1,160,8|8,0:3|0:3,0:0:0:0:
35,144,70421,2,2,P|28:188|38:235,1,80,8|8,0:3|0:0,0:1:0:0:
63,269,71107,2,2,P|106:292|159:295,1,80,8|8,0:3|0:0,0:1:0:0:
189,277,71792,6,0,P|256:240|326:273,1,160,8|8,0:3|0:3,0:0:0:0:
398,358,73164,1,8,0:3:0:0:
453,260,73850,1,8,0:3:0:0:
410,156,74535,6,0,P|355:94|251:87,1,160,8|8,0:3|0:3,0:0:0:0:
177,120,75907,2,0,P|128:181|127:260,1,160,8|8,0:3|0:3,0:0:0:0:
151,310,76935,2,0,L|239:333,1,80,8|4,0:0|0:0,0:0:0:0:
115,267,88249,6,12,P|179:313|258:314,1,160,14|8,0:0|0:0,0:0:0:0:
345,244,89621,1,10,0:0:0:0:
345,131,90307,1,8,0:0:0:0:
258,62,90992,6,8,P|168:67|106:122,1,160,10|8,0:0|0:0,0:0:0:0:
64,208,92364,1,8,0:0:0:0:
105,310,93050,1,8,0:0:0:0:
152,208,93735,6,0,P|112:133|42:121,2,160,10|8|10,0:0|0:0|0:0,0:0:0:0:
197,310,95792,1,8,0:0:0:0:
270,225,96478,6,0,P|286:166|240:68,1,160,10|8,0:0|0:0,0:0:0:0:
142,45,97850,1,10,0:0:0:0:
56,116,98535,1,8,0:0:0:0:
74,227,99221,6,0,P|126:287|237:317,1,160,6|8,0:0|0:3,0:0:0:0:
312,316,100592,2,0,P|386:286|438:227,1,160,10|8,0:3|0:3,0:0:0:0:
391,124,101963,5,10,0:3:0:0:
291,176,102650,1,8,0:3:0:0:
190,224,103335,1,10,0:3:0:0:
87,268,104020,1,8,0:3:0:0:
74,157,104707,6,0,P|126:97|237:67,1,160,10|8,0:3|0:3,0:0:0:0:
312,67,106078,2,0,P|386:97|437:156,1,160,10|8,0:3|0:3,0:0:0:0:
335,204,107450,6,0,B|298:169|268:164|235:164|235:164|199:164|166:179|74:128|95:24,1,320,10|10,0:3|0:3,0:0:0:0:
205,52,109507,1,8,0:3:0:0:
315,32,110192,6,0,P|406:70|428:134,1,160,4|8,0:0|0:3,0:0:0:0:
356,209,111564,1,8,0:3:0:0:
273,130,112250,1,8,0:3:0:0:
161,134,112935,6,0,P|110:204|137:285,1,160,8|8,0:3|0:3,0:0:0:0:
202,353,114307,2,2,P|244:364|290:346,1,80,8|8,0:3|0:0,0:1:0:0:
326,325,114992,2,2,P|366:315|410:332,1,80,8|8,0:3|0:0,0:1:0:0:
454,349,115678,6,0,B|495:180,1,160,8|8,0:3|0:3,0:0:0:0:
508,82,117050,1,8,0:3:0:0:
399,56,117735,1,8,0:3:0:0:
362,161,118421,6,0,P|325:229|236:263,1,160,8|8,0:3|0:3,0:3:0:0:
141,276,119792,1,8,0:3:0:0:
34,242,120478,1,8,0:3:0:0:
31,128,121164,6,0,P|90:76|181:85,1,160,4|8,0:0|0:3,0:0:0:0:
240,163,122535,1,8,0:3:0:0:
209,270,123221,1,8,0:3:0:0:
98,291,123907,6,0,P|32:224|36:134,1,160,8|8,0:3|0:3,0:0:0:0:
79,63,125278,2,2,P|114:49|153:60,1,80,8|8,0:3|0:0,0:1:0:0:
198,93,125964,2,2,P|235:104|272:90,1,80,8|8,0:3|0:0,0:1:0:0:
313,51,126650,6,0,P|395:83|437:171,1,160,8|8,0:3|0:3,0:0:0:0:
454,251,128021,1,0,0:0:0:0:
383,338,128707,1,8,0:3:0:0:
271,342,129392,5,8,0:3:0:0:
174,285,130078,1,8,0:3:0:0:
168,173,130764,2,0,B|179:43|351:31|357:150|323:198|254:198|254:125,1,320,8|4,0:3|0:0,0:0:0:0:
