osu file format v14

[General]
AudioFilename: MagicalChristmas.mp3
AudioLeadIn: 0
PreviewTime: 49724
Countdown: 0
SampleSet: Soft
StackLeniency: 0.7
Mode: 3
LetterboxInBreaks: 0
SpecialStyle: 0
WidescreenStoryboard: 1

[Editor]
Bookmarks: 49863,64520,79176,82840,93833,108489,137802
DistanceSpacing: 1
BeatDivisor: 4
GridSize: 4
TimelineZoom: 2

[Metadata]
Title:Magical Christmas
TitleUnicode:マジカルクリスマス
Artist:YuugouP
ArtistUnicode:融合P
Creator:paperlens
Version:NM
Source:
Tags:vocaloid 鏡音リン 鏡音レン Kagamine Rin Kagamine Len 融合P Yuugou-P
BeatmapID:1035728
BeatmapSetID:485704

[Difficulty]
HPDrainRate:7
CircleSize:7
OverallDifficulty:7
ApproachRate:5
SliderMultiplier:1.4
SliderTickRate:1

[Events]
//Background and Video events
0,0,"bg2.jpg",0,0
//Break Periods
//Storyboard Layer 0 (Background)
//Storyboard Layer 1 (Fail)
//Storyboard Layer 2 (Pass)
//Storyboard Layer 3 (Foreground)
//Storyboard Sound Samples

[TimingPoints]
2320,458.015267175573,4,2,0,10,1,0
49953,-100,4,2,0,10,0,1
64610,-100,4,2,0,10,0,0
79266,-100,4,2,0,10,0,1
93923,-100,4,2,0,10,0,0
108579,-100,4,2,0,10,0,1
137892,-100,4,2,0,10,0,0

[HitObjects]
182,192,5984,5,0,0:0:0:0:
329,192,6213,1,0,0:0:0:0:
475,192,6442,1,0,0:0:0:0:
182,192,6900,1,0,0:0:0:0:
329,192,7129,1,0,0:0:0:0:
475,192,7358,1,0,0:0:0:0:
36,192,7816,1,0,0:0:0:0:
182,192,8045,1,0,0:0:0:0:
329,192,8274,1,0,0:0:0:0:
36,192,8732,1,0,0:0:0:0:
182,192,8961,1,0,0:0:0:0:
329,192,9190,1,0,0:0:0:0:
109,192,9648,1,0,0:0:0:0:
329,192,9877,1,0,0:0:0:0:
475,192,10106,1,0,0:0:0:0:
109,192,10564,1,0,0:0:0:0:
329,192,10793,1,0,0:0:0:0:
475,192,11022,1,0,0:0:0:0:
36,192,11480,1,0,0:0:0:0:
109,192,11709,1,0,0:0:0:0:
329,192,11938,1,0,0:0:0:0:
36,192,12396,1,0,0:0:0:0:
109,192,12625,1,0,0:0:0:0:
329,192,12854,1,0,0:0:0:0:
329,192,13312,1,0,0:0:0:0:
182,192,13541,1,0,0:0:0:0:
36,192,13770,1,0,0:0:0:0:
329,192,14228,1,0,0:0:0:0:
182,192,14457,1,0,0:0:0:0:
36,192,14686,1,0,0:0:0:0:
475,192,15144,1,0,0:0:0:0:
329,192,15373,1,0,0:0:0:0:
182,192,15602,1,0,0:0:0:0:
475,192,16060,1,0,0:0:0:0:
329,192,16289,1,0,0:0:0:0:
182,192,16518,1,0,0:0:0:0:
402,192,16976,1,0,0:0:0:0:
182,192,17205,1,0,0:0:0:0:
36,192,17434,1,0,0:0:0:0:
402,192,17892,1,0,0:0:0:0:
182,192,18121,1,0,0:0:0:0:
36,192,18350,1,0,0:0:0:0:
475,192,18808,1,0,0:0:0:0:
402,192,19037,1,0,0:0:0:0:
182,192,19266,1,0,0:0:0:0:
109,192,19495,1,0,0:0:0:0:
36,192,19724,1,0,0:0:0:0:
109,192,19953,1,0,0:0:0:0:
329,192,20182,1,0,0:0:0:0:
402,192,20411,1,0,0:0:0:0:
475,192,20640,1,0,0:0:0:0:
182,192,20640,1,0,0:0:0:0:
36,192,20640,1,0,0:0:0:0:
329,192,21098,1,0,0:0:0:0:
475,192,21098,1,0,0:0:0:0:
182,192,21556,1,0,0:0:0:0:
36,192,21556,1,0,0:0:0:0:
329,192,22014,1,0,0:0:0:0:
475,192,22014,1,0,0:0:0:0:
109,192,22472,1,0,0:0:0:0:
36,192,22472,1,0,0:0:0:0:
329,192,22930,1,0,0:0:0:0:
475,192,22930,1,0,0:0:0:0:
109,192,23388,1,0,0:0:0:0:
36,192,23388,1,0,0:0:0:0:
329,192,23846,1,0,0:0:0:0:
475,192,23846,1,0,0:0:0:0:
36,192,24075,1,0,0:0:0:0:
109,192,24304,1,0,0:0:0:0:
182,192,24304,1,0,0:0:0:0:
402,192,24762,1,0,0:0:0:0:
256,192,24762,1,0,0:0:0:0:
182,192,25220,1,0,0:0:0:0:
109,192,25220,1,0,0:0:0:0:
402,192,25678,1,0,0:0:0:0:
256,192,25678,1,0,0:0:0:0:
182,192,26136,1,0,0:0:0:0:
36,192,26136,1,0,0:0:0:0:
329,192,26594,1,0,0:0:0:0:
402,192,26594,1,0,0:0:0:0:
182,192,27052,1,0,0:0:0:0:
36,192,27052,1,0,0:0:0:0:
329,192,27510,1,0,0:0:0:0:
402,192,27510,1,0,0:0:0:0:
256,192,27739,1,0,0:0:0:0:
109,192,27968,1,0,0:0:0:0:
36,192,27968,1,0,0:0:0:0:
329,192,28426,1,0,0:0:0:0:
475,192,28426,1,0,0:0:0:0:
109,192,28884,1,0,0:0:0:0:
36,192,28884,1,0,0:0:0:0:
329,192,29342,1,0,0:0:0:0:
475,192,29342,1,0,0:0:0:0:
109,192,29800,1,0,0:0:0:0:
256,192,29800,1,0,0:0:0:0:
402,192,30258,1,0,0:0:0:0:
475,192,30258,1,0,0:0:0:0:
109,192,30716,1,0,0:0:0:0:
256,192,30716,1,0,0:0:0:0:
475,192,31174,1,0,0:0:0:0:
329,192,31174,1,0,0:0:0:0:
36,192,31403,1,0,0:0:0:0:
402,192,31632,1,0,0:0:0:0:
182,192,31632,1,0,0:0:0:0:
109,192,32090,1,0,0:0:0:0:
329,192,32090,1,0,0:0:0:0:
182,192,32549,1,0,0:0:0:0:
402,192,32549,1,0,0:0:0:0:
109,192,33007,1,0,0:0:0:0:
329,192,33007,1,0,0:0:0:0:
475,192,33465,1,0,0:0:0:0:
256,192,33465,1,0,0:0:0:0:
36,192,33923,1,0,0:0:0:0:
182,192,33923,1,0,0:0:0:0:
256,192,34381,1,0,0:0:0:0:
475,192,34381,1,0,0:0:0:0:
182,192,34839,1,0,0:0:0:0:
36,192,34839,1,0,0:0:0:0:
329,192,35068,1,0,0:0:0:0:
402,192,35297,1,0,0:0:0:0:
475,192,35297,128,0,36213:0:0:0:0:
36,192,35297,1,0,0:0:0:0:
182,192,35755,1,0,0:0:0:0:
329,192,35755,1,0,0:0:0:0:
36,192,35984,1,0,0:0:0:0:
256,192,36213,1,0,0:0:0:0:
109,192,36213,1,0,0:0:0:0:
329,192,36671,1,0,0:0:0:0:
475,192,36671,1,0,0:0:0:0:
182,192,36900,1,0,0:0:0:0:
109,192,37129,1,0,0:0:0:0:
36,192,37129,128,0,38045:0:0:0:0:
475,192,37129,1,0,0:0:0:0:
329,192,37358,1,0,0:0:0:0:
182,192,37587,1,0,0:0:0:0:
329,192,37816,1,0,0:0:0:0:
256,192,38045,1,0,0:0:0:0:
402,192,38045,1,0,0:0:0:0:
329,192,38503,1,0,0:0:0:0:
475,192,38503,1,0,0:0:0:0:
182,192,38732,1,0,0:0:0:0:
36,192,38961,1,0,0:0:0:0:
256,192,38961,1,0,0:0:0:0:
329,192,39419,1,0,0:0:0:0:
475,192,39419,1,0,0:0:0:0:
182,192,39648,1,0,0:0:0:0:
256,192,39877,1,0,0:0:0:0:
36,192,39877,1,0,0:0:0:0:
182,192,40106,1,0,0:0:0:0:
329,192,40335,1,0,0:0:0:0:
475,192,40335,1,0,0:0:0:0:
182,192,40564,1,0,0:0:0:0:
36,192,40793,1,0,0:0:0:0:
402,192,40793,1,0,0:0:0:0:
256,192,41022,1,0,0:0:0:0:
36,192,41251,1,0,0:0:0:0:
109,192,41251,1,0,0:0:0:0:
402,192,41480,1,0,0:0:0:0:
475,192,41709,1,0,0:0:0:0:
182,192,41709,1,0,0:0:0:0:
329,192,42167,1,0,0:0:0:0:
475,192,42167,1,0,0:0:0:0:
182,192,42396,1,0,0:0:0:0:
109,192,42625,1,0,0:0:0:0:
475,192,42625,1,0,0:0:0:0:
36,192,42625,128,0,43541:0:0:0:0:
182,192,43083,1,0,0:0:0:0:
329,192,43083,1,0,0:0:0:0:
475,192,43312,1,0,0:0:0:0:
402,192,43541,1,0,0:0:0:0:
256,192,43541,1,0,0:0:0:0:
36,192,43999,1,0,0:0:0:0:
182,192,43999,1,0,0:0:0:0:
329,192,44228,1,0,0:0:0:0:
475,192,44457,128,0,45373:0:0:0:0:
402,192,44457,1,0,0:0:0:0:
36,192,44457,1,0,0:0:0:0:
182,192,44915,1,0,0:0:0:0:
109,192,44915,1,0,0:0:0:0:
36,192,45144,1,0,0:0:0:0:
256,192,45373,1,0,0:0:0:0:
402,192,45373,1,0,0:0:0:0:
109,192,45602,1,0,0:0:0:0:
36,192,45831,1,0,0:0:0:0:
182,192,45831,1,0,0:0:0:0:
329,192,46060,1,0,0:0:0:0:
256,192,46289,1,0,0:0:0:0:
475,192,46289,1,0,0:0:0:0:
329,192,46518,1,0,0:0:0:0:
36,192,46747,1,0,0:0:0:0:
475,192,46747,1,0,0:0:0:0:
182,192,46976,1,0,0:0:0:0:
256,192,47205,1,0,0:0:0:0:
36,192,47205,1,0,0:0:0:0:
329,192,47434,1,0,0:0:0:0:
402,192,47663,1,0,0:0:0:0:
109,192,47663,1,0,0:0:0:0:
182,192,47892,1,0,0:0:0:0:
256,192,48121,1,0,0:0:0:0:
256,192,48579,1,0,0:0:0:0:
256,192,49037,1,0,0:0:0:0:
109,192,49266,1,0,0:0:0:0:
402,192,49266,1,0,0:0:0:0:
402,192,49495,1,0,0:0:0:0:
109,192,49495,1,0,0:0:0:0:
256,192,49953,1,0,0:0:0:0:
475,192,49953,1,0,0:0:0:0:
36,192,49953,1,0,0:0:0:0:
182,192,50182,1,0,0:0:0:0:
329,192,50411,1,0,0:0:0:0:
475,192,50411,1,0,0:0:0:0:
36,192,50640,1,0,0:0:0:0:
256,192,50869,1,0,0:0:0:0:
475,192,50869,1,0,0:0:0:0:
109,192,51098,1,0,0:0:0:0:
329,192,51327,1,0,0:0:0:0:
475,192,51327,1,0,0:0:0:0:
109,192,51556,1,0,0:0:0:0:
256,192,51785,1,0,0:0:0:0:
36,192,51785,1,0,0:0:0:0:
402,192,52014,1,0,0:0:0:0:
182,192,52243,1,0,0:0:0:0:
36,192,52243,1,0,0:0:0:0:
402,192,52472,1,0,0:0:0:0:
475,192,52701,1,0,0:0:0:0:
256,192,52701,1,0,0:0:0:0:
109,192,52930,1,0,0:0:0:0:
329,192,53159,1,0,0:0:0:0:
475,192,53159,1,0,0:0:0:0:
402,192,53388,1,0,0:0:0:0:
109,192,53388,1,0,0:0:0:0:
256,192,53617,1,0,0:0:0:0:
36,192,53617,1,0,0:0:0:0:
329,192,53846,1,0,0:0:0:0:
182,192,54075,1,0,0:0:0:0:
36,192,54075,1,0,0:0:0:0:
475,192,54304,1,0,0:0:0:0:
256,192,54533,1,0,0:0:0:0:
36,192,54533,1,0,0:0:0:0:
402,192,54762,1,0,0:0:0:0:
36,192,54991,1,0,0:0:0:0:
182,192,54991,1,0,0:0:0:0:
402,192,55220,1,0,0:0:0:0:
256,192,55449,1,0,0:0:0:0:
109,192,55449,1,0,0:0:0:0:
182,192,55678,1,0,0:0:0:0:
402,192,55907,1,0,0:0:0:0:
256,192,55907,1,0,0:0:0:0:
329,192,56136,1,0,0:0:0:0:
36,192,56365,1,0,0:0:0:0:
256,192,56365,1,0,0:0:0:0:
109,192,56594,1,0,0:0:0:0:
256,192,56823,1,0,0:0:0:0:
475,192,56823,1,0,0:0:0:0:
109,192,57052,1,0,0:0:0:0:
402,192,57052,1,0,0:0:0:0:
256,192,57281,1,0,0:0:0:0:
36,192,57281,1,0,0:0:0:0:
475,192,57281,1,0,0:0:0:0:
182,192,57510,1,0,0:0:0:0:
329,192,57739,1,0,0:0:0:0:
475,192,57739,1,0,0:0:0:0:
36,192,57968,1,0,0:0:0:0:
475,192,58197,1,0,0:0:0:0:
256,192,58197,1,0,0:0:0:0:
109,192,58426,1,0,0:0:0:0:
475,192,58655,1,0,0:0:0:0:
329,192,58655,1,0,0:0:0:0:
109,192,58884,1,0,0:0:0:0:
36,192,59113,1,0,0:0:0:0:
256,192,59113,1,0,0:0:0:0:
402,192,59342,1,0,0:0:0:0:
36,192,59571,1,0,0:0:0:0:
182,192,59571,1,0,0:0:0:0:
402,192,59800,1,0,0:0:0:0:
475,192,60029,1,0,0:0:0:0:
256,192,60029,1,0,0:0:0:0:
109,192,60258,1,0,0:0:0:0:
329,192,60487,1,0,0:0:0:0:
475,192,60487,1,0,0:0:0:0:
402,192,60716,1,0,0:0:0:0:
109,192,60716,1,0,0:0:0:0:
36,192,60945,1,0,0:0:0:0:
256,192,60945,1,0,0:0:0:0:
329,192,61174,1,0,0:0:0:0:
182,192,61403,1,0,0:0:0:0:
36,192,61403,1,0,0:0:0:0:
475,192,61632,1,0,0:0:0:0:
256,192,61861,1,0,0:0:0:0:
36,192,61861,1,0,0:0:0:0:
402,192,62090,1,0,0:0:0:0:
36,192,62320,1,0,0:0:0:0:
182,192,62320,1,0,0:0:0:0:
402,192,62549,1,0,0:0:0:0:
36,192,62778,1,0,0:0:0:0:
475,192,62778,1,0,0:0:0:0:
402,192,63007,1,0,0:0:0:0:
36,192,63236,1,0,0:0:0:0:
329,192,63236,1,0,0:0:0:0:
109,192,63465,1,0,0:0:0:0:
475,192,63694,1,0,0:0:0:0:
329,192,63808,1,0,0:0:0:0:
182,192,63923,1,0,0:0:0:0:
36,192,64152,1,0,0:0:0:0:
182,192,64266,1,0,0:0:0:0:
329,192,64381,1,0,0:0:0:0:
36,192,64610,1,0,0:0:0:0:
475,192,64610,1,0,0:0:0:0:
256,192,64610,1,0,0:0:0:0:
329,192,64839,1,0,0:0:0:0:
182,192,65068,1,0,0:0:0:0:
36,192,65068,1,0,0:0:0:0:
475,192,65297,1,0,0:0:0:0:
256,192,65526,1,0,0:0:0:0:
36,192,65526,1,0,0:0:0:0:
329,192,65755,1,0,0:0:0:0:
182,192,65984,1,0,0:0:0:0:
36,192,65984,1,0,0:0:0:0:
475,192,66213,1,0,0:0:0:0:
329,192,66327,1,0,0:0:0:0:
109,192,66442,1,0,0:0:0:0:
182,192,66442,1,0,0:0:0:0:
36,192,66671,1,0,0:0:0:0:
182,192,66785,1,0,0:0:0:0:
329,192,66900,1,0,0:0:0:0:
402,192,66900,1,0,0:0:0:0:
475,192,67129,1,0,0:0:0:0:
329,192,67243,1,0,0:0:0:0:
109,192,67358,128,0,67816:0:0:0:0:
182,192,67358,1,0,0:0:0:0:
36,192,67816,1,0,0:0:0:0:
475,192,67816,1,0,0:0:0:0:
329,192,68045,1,0,0:0:0:0:
256,192,68274,1,0,0:0:0:0:
36,192,68274,1,0,0:0:0:0:
182,192,68503,1,0,0:0:0:0:
329,192,68732,1,0,0:0:0:0:
475,192,68732,1,0,0:0:0:0:
182,192,68961,1,0,0:0:0:0:
36,192,69075,1,0,0:0:0:0:
256,192,69190,1,0,0:0:0:0:
475,192,69190,1,0,0:0:0:0:
329,192,69419,1,0,0:0:0:0:
182,192,69648,1,0,0:0:0:0:
36,192,69648,1,0,0:0:0:0:
475,192,69877,1,0,0:0:0:0:
182,192,70106,1,0,0:0:0:0:
109,192,70106,1,0,0:0:0:0:
402,192,70335,1,0,0:0:0:0:
109,192,70564,1,0,0:0:0:0:
256,192,70564,1,0,0:0:0:0:
329,192,70793,1,0,0:0:0:0:
402,192,71022,128,0,71480:0:0:0:0:
109,192,71022,1,0,0:0:0:0:
36,192,71480,1,0,0:0:0:0:
475,192,71480,1,0,0:0:0:0:
182,192,71709,1,0,0:0:0:0:
256,192,71938,1,0,0:0:0:0:
475,192,71938,1,0,0:0:0:0:
329,192,72167,1,0,0:0:0:0:
36,192,72396,1,0,0:0:0:0:
182,192,72396,1,0,0:0:0:0:
475,192,72625,1,0,0:0:0:0:
256,192,72854,1,0,0:0:0:0:
36,192,72854,1,0,0:0:0:0:
329,192,73083,1,0,0:0:0:0:
36,192,73312,1,0,0:0:0:0:
182,192,73312,1,0,0:0:0:0:
475,192,73541,1,0,0:0:0:0:
329,192,73655,1,0,0:0:0:0:
109,192,73770,1,0,0:0:0:0:
182,192,73770,1,0,0:0:0:0:
475,192,73884,1,0,0:0:0:0:
329,192,73999,1,0,0:0:0:0:
182,192,74228,1,0,0:0:0:0:
36,192,74228,1,0,0:0:0:0:
475,192,74457,1,0,0:0:0:0:
329,192,74457,1,0,0:0:0:0:
182,192,74686,1,0,0:0:0:0:
109,192,74686,1,0,0:0:0:0:
329,192,75029,1,0,0:0:0:0:
475,192,75144,1,0,0:0:0:0:
36,192,75144,1,0,0:0:0:0:
256,192,75373,1,0,0:0:0:0:
109,192,75373,1,0,0:0:0:0:
329,192,75602,1,0,0:0:0:0:
402,192,75602,128,0,75945:0:0:0:0:
182,192,75945,1,0,0:0:0:0:
36,192,76060,1,0,0:0:0:0:
475,192,76060,1,0,0:0:0:0:
402,192,76289,1,0,0:0:0:0:
182,192,76518,1,0,0:0:0:0:
109,192,76518,128,0,76861:0:0:0:0:
329,192,76861,1,0,0:0:0:0:
36,192,76976,1,0,0:0:0:0:
475,192,76976,1,0,0:0:0:0:
182,192,77205,1,0,0:0:0:0:
109,192,77320,1,0,0:0:0:0:
36,192,77434,128,0,78350:0:0:0:0:
475,192,77434,1,0,0:0:0:0:
329,192,77663,1,0,0:0:0:0:
475,192,77892,1,0,0:0:0:0:
329,192,78121,1,0,0:0:0:0:
475,192,78350,1,0,0:0:0:0:
109,192,78350,1,0,0:0:0:0:
329,192,78579,1,0,0:0:0:0:
182,192,78579,1,0,0:0:0:0:
402,192,78808,1,0,0:0:0:0:
36,192,78808,1,0,0:0:0:0:
182,192,79037,1,0,0:0:0:0:
329,192,79037,1,0,0:0:0:0:
36,192,79266,1,0,0:0:0:0:
475,192,79266,128,0,79724:0:0:0:0:
182,192,79495,1,0,0:0:0:0:
402,192,79724,1,0,0:0:0:0:
182,192,79953,1,0,0:0:0:0:
475,192,80182,1,0,0:0:0:0:
36,192,80182,128,0,80640:0:0:0:0:
329,192,80411,1,0,0:0:0:0:
109,192,80640,1,0,0:0:0:0:
329,192,80869,1,0,0:0:0:0:
36,192,81098,1,0,0:0:0:0:
475,192,81098,128,0,81556:0:0:0:0:
182,192,81327,1,0,0:0:0:0:
402,192,81556,1,0,0:0:0:0:
182,192,81785,1,0,0:0:0:0:
36,192,82014,128,0,82472:0:0:0:0:
475,192,82014,1,0,0:0:0:0:
329,192,82243,1,0,0:0:0:0:
109,192,82472,1,0,0:0:0:0:
329,192,82701,1,0,0:0:0:0:
36,192,82930,1,0,0:0:0:0:
475,192,82930,128,0,83388:0:0:0:0:
182,192,83159,1,0,0:0:0:0:
402,192,83388,1,0,0:0:0:0:
182,192,83617,1,0,0:0:0:0:
36,192,83846,128,0,84304:0:0:0:0:
475,192,83846,1,0,0:0:0:0:
329,192,84075,1,0,0:0:0:0:
182,192,84304,128,0,84762:0:0:0:0:
329,192,84533,1,0,0:0:0:0:
36,192,84762,1,0,0:0:0:0:
329,192,84991,1,0,0:0:0:0:
182,192,84991,1,0,0:0:0:0:
36,192,85220,1,0,0:0:0:0:
182,192,85449,1,0,0:0:0:0:
329,192,85449,1,0,0:0:0:0:
36,192,85678,1,0,0:0:0:0:
256,192,85907,1,0,0:0:0:0:
402,192,85907,1,0,0:0:0:0:
36,192,86136,1,0,0:0:0:0:
256,192,86365,1,0,0:0:0:0:
402,192,86365,1,0,0:0:0:0:
36,192,86594,1,0,0:0:0:0:
475,192,86594,128,0,87052:0:0:0:0:
182,192,86823,1,0,0:0:0:0:
402,192,87052,1,0,0:0:0:0:
182,192,87281,1,0,0:0:0:0:
36,192,87510,128,0,87968:0:0:0:0:
475,192,87510,1,0,0:0:0:0:
329,192,87739,1,0,0:0:0:0:
109,192,87968,1,0,0:0:0:0:
329,192,88197,1,0,0:0:0:0:
402,192,88426,128,0,88884:0:0:0:0:
36,192,88426,1,0,0:0:0:0:
182,192,88655,1,0,0:0:0:0:
475,192,88884,1,0,0:0:0:0:
182,192,89113,1,0,0:0:0:0:
109,192,89342,128,0,89800:0:0:0:0:
475,192,89342,1,0,0:0:0:0:
329,192,89571,1,0,0:0:0:0:
36,192,89800,1,0,0:0:0:0:
329,192,90029,1,0,0:0:0:0:
256,192,90258,1,0,0:0:0:0:
475,192,90258,1,0,0:0:0:0:
256,192,90716,1,0,0:0:0:0:
36,192,90716,1,0,0:0:0:0:
256,192,91174,1,0,0:0:0:0:
402,192,91174,1,0,0:0:0:0:
256,192,91632,1,0,0:0:0:0:
109,192,91632,1,0,0:0:0:0:
475,192,92090,1,0,0:0:0:0:
182,192,92090,1,0,0:0:0:0:
329,192,92320,1,0,0:0:0:0:
36,192,92549,1,0,0:0:0:0:
182,192,92549,1,0,0:0:0:0:
329,192,92778,1,0,0:0:0:0:
109,192,93007,1,0,0:0:0:0:
402,192,93007,1,0,0:0:0:0:
329,192,93236,1,0,0:0:0:0:
109,192,93465,1,0,0:0:0:0:
329,192,93694,1,0,0:0:0:0:
256,192,93923,1,0,0:0:0:0:
36,192,93923,1,0,0:0:0:0:
475,192,93923,1,0,0:0:0:0:
182,192,94381,1,0,0:0:0:0:
475,192,94839,1,0,0:0:0:0:
182,192,95297,1,0,0:0:0:0:
36,192,95755,1,0,0:0:0:0:
329,192,96213,1,0,0:0:0:0:
36,192,96671,1,0,0:0:0:0:
329,192,97129,1,0,0:0:0:0:
109,192,97587,1,0,0:0:0:0:
402,192,98045,1,0,0:0:0:0:
109,192,98503,1,0,0:0:0:0:
402,192,98961,1,0,0:0:0:0:
329,192,99419,1,0,0:0:0:0:
182,192,99877,1,0,0:0:0:0:
329,192,100335,1,0,0:0:0:0:
182,192,100793,1,0,0:0:0:0:
475,192,101251,1,0,0:0:0:0:
329,192,101480,1,0,0:0:0:0:
182,192,101709,1,0,0:0:0:0:
475,192,102167,1,0,0:0:0:0:
329,192,102396,1,0,0:0:0:0:
182,192,102625,1,0,0:0:0:0:
36,192,103083,1,0,0:0:0:0:
182,192,103312,1,0,0:0:0:0:
329,192,103541,1,0,0:0:0:0:
36,192,103999,1,0,0:0:0:0:
182,192,104228,1,0,0:0:0:0:
329,192,104457,1,0,0:0:0:0:
109,192,104915,1,0,0:0:0:0:
329,192,105144,1,0,0:0:0:0:
402,192,105373,1,0,0:0:0:0:
182,192,105602,1,0,0:0:0:0:
109,192,105831,1,0,0:0:0:0:
329,192,106060,1,0,0:0:0:0:
402,192,106289,1,0,0:0:0:0:
109,192,106518,1,0,0:0:0:0:
256,192,106518,1,0,0:0:0:0:
329,192,106747,1,0,0:0:0:0:
475,192,106747,1,0,0:0:0:0:
182,192,107205,1,0,0:0:0:0:
36,192,107205,1,0,0:0:0:0:
182,192,107663,1,0,0:0:0:0:
329,192,107663,1,0,0:0:0:0:
402,192,107892,1,0,0:0:0:0:
109,192,107892,1,0,0:0:0:0:
109,192,108121,1,0,0:0:0:0:
402,192,108121,1,0,0:0:0:0:
475,192,108579,1,0,0:0:0:0:
36,192,108579,1,0,0:0:0:0:
256,192,108579,1,0,0:0:0:0:
182,192,108808,1,0,0:0:0:0:
475,192,109037,1,0,0:0:0:0:
329,192,109037,1,0,0:0:0:0:
36,192,109266,1,0,0:0:0:0:
475,192,109495,1,0,0:0:0:0:
256,192,109495,1,0,0:0:0:0:
182,192,109724,1,0,0:0:0:0:
109,192,109724,1,0,0:0:0:0:
329,192,109953,1,0,0:0:0:0:
475,192,109953,1,0,0:0:0:0:
109,192,110182,1,0,0:0:0:0:
36,192,110411,1,0,0:0:0:0:
256,192,110411,1,0,0:0:0:0:
402,192,110640,1,0,0:0:0:0:
329,192,110640,1,0,0:0:0:0:
36,192,110869,1,0,0:0:0:0:
182,192,110869,1,0,0:0:0:0:
402,192,111098,1,0,0:0:0:0:
475,192,111327,1,0,0:0:0:0:
256,192,111327,1,0,0:0:0:0:
182,192,111556,1,0,0:0:0:0:
109,192,111556,1,0,0:0:0:0:
475,192,111785,1,0,0:0:0:0:
329,192,111785,1,0,0:0:0:0:
109,192,112014,1,0,0:0:0:0:
402,192,112014,1,0,0:0:0:0:
256,192,112243,1,0,0:0:0:0:
36,192,112243,1,0,0:0:0:0:
329,192,112472,1,0,0:0:0:0:
36,192,112701,1,0,0:0:0:0:
182,192,112701,1,0,0:0:0:0:
475,192,112930,1,0,0:0:0:0:
36,192,113159,1,0,0:0:0:0:
256,192,113159,1,0,0:0:0:0:
402,192,113388,1,0,0:0:0:0:
182,192,113617,1,0,0:0:0:0:
36,192,113617,1,0,0:0:0:0:
402,192,113846,1,0,0:0:0:0:
329,192,113846,1,0,0:0:0:0:
256,192,114075,1,0,0:0:0:0:
109,192,114075,1,0,0:0:0:0:
182,192,114304,1,0,0:0:0:0:
256,192,114533,1,0,0:0:0:0:
402,192,114533,1,0,0:0:0:0:
329,192,114762,1,0,0:0:0:0:
36,192,114991,1,0,0:0:0:0:
256,192,114991,1,0,0:0:0:0:
109,192,115220,1,0,0:0:0:0:
256,192,115449,1,0,0:0:0:0:
475,192,115449,1,0,0:0:0:0:
402,192,115678,1,0,0:0:0:0:
109,192,115678,1,0,0:0:0:0:
36,192,115907,1,0,0:0:0:0:
475,192,115907,1,0,0:0:0:0:
256,192,115907,1,0,0:0:0:0:
182,192,116136,1,0,0:0:0:0:
329,192,116365,1,0,0:0:0:0:
475,192,116365,1,0,0:0:0:0:
36,192,116594,1,0,0:0:0:0:
256,192,116823,1,0,0:0:0:0:
475,192,116823,1,0,0:0:0:0:
182,192,117052,1,0,0:0:0:0:
109,192,117052,1,0,0:0:0:0:
329,192,117281,1,0,0:0:0:0:
475,192,117281,1,0,0:0:0:0:
109,192,117510,1,0,0:0:0:0:
36,192,117739,1,0,0:0:0:0:
256,192,117739,1,0,0:0:0:0:
329,192,117968,1,0,0:0:0:0:
402,192,117968,1,0,0:0:0:0:
182,192,118197,1,0,0:0:0:0:
36,192,118197,1,0,0:0:0:0:
402,192,118426,1,0,0:0:0:0:
475,192,118655,1,0,0:0:0:0:
256,192,118655,1,0,0:0:0:0:
182,192,118884,1,0,0:0:0:0:
109,192,118884,1,0,0:0:0:0:
329,192,119113,1,0,0:0:0:0:
475,192,119113,1,0,0:0:0:0:
109,192,119342,1,0,0:0:0:0:
402,192,119342,1,0,0:0:0:0:
256,192,119571,1,0,0:0:0:0:
36,192,119571,1,0,0:0:0:0:
329,192,119800,1,0,0:0:0:0:
36,192,120029,1,0,0:0:0:0:
182,192,120029,1,0,0:0:0:0:
475,192,120258,1,0,0:0:0:0:
256,192,120487,1,0,0:0:0:0:
36,192,120487,1,0,0:0:0:0:
402,192,120716,1,0,0:0:0:0:
36,192,120945,1,0,0:0:0:0:
182,192,120945,1,0,0:0:0:0:
329,192,121174,1,0,0:0:0:0:
402,192,121174,1,0,0:0:0:0:
475,192,121403,1,0,0:0:0:0:
36,192,121403,1,0,0:0:0:0:
402,192,121632,1,0,0:0:0:0:
36,192,121861,1,0,0:0:0:0:
329,192,121861,1,0,0:0:0:0:
109,192,122090,1,0,0:0:0:0:
182,192,122320,1,0,0:0:0:0:
475,192,122320,1,0,0:0:0:0:
329,192,122434,1,0,0:0:0:0:
109,192,122549,1,0,0:0:0:0:
36,192,122778,1,0,0:0:0:0:
329,192,122778,1,0,0:0:0:0:
182,192,122892,1,0,0:0:0:0:
402,192,123007,1,0,0:0:0:0:
256,192,123236,1,0,0:0:0:0:
475,192,123236,1,0,0:0:0:0:
36,192,123236,1,0,0:0:0:0:
182,192,123465,1,0,0:0:0:0:
475,192,123694,1,0,0:0:0:0:
329,192,123694,1,0,0:0:0:0:
36,192,123923,1,0,0:0:0:0:
475,192,124152,1,0,0:0:0:0:
256,192,124152,1,0,0:0:0:0:
182,192,124381,1,0,0:0:0:0:
109,192,124381,1,0,0:0:0:0:
329,192,124610,1,0,0:0:0:0:
475,192,124610,1,0,0:0:0:0:
109,192,124839,1,0,0:0:0:0:
36,192,125068,1,0,0:0:0:0:
256,192,125068,1,0,0:0:0:0:
402,192,125297,1,0,0:0:0:0:
329,192,125297,1,0,0:0:0:0:
36,192,125526,1,0,0:0:0:0:
182,192,125526,1,0,0:0:0:0:
402,192,125755,1,0,0:0:0:0:
256,192,125984,1,0,0:0:0:0:
475,192,125984,1,0,0:0:0:0:
109,192,126213,1,0,0:0:0:0:
182,192,126213,1,0,0:0:0:0:
329,192,126442,1,0,0:0:0:0:
475,192,126442,1,0,0:0:0:0:
402,192,126671,1,0,0:0:0:0:
109,192,126671,1,0,0:0:0:0:
36,192,126900,1,0,0:0:0:0:
256,192,126900,1,0,0:0:0:0:
329,192,127129,1,0,0:0:0:0:
182,192,127358,1,0,0:0:0:0:
36,192,127358,1,0,0:0:0:0:
475,192,127587,1,0,0:0:0:0:
256,192,127816,1,0,0:0:0:0:
36,192,127816,1,0,0:0:0:0:
402,192,128045,1,0,0:0:0:0:
182,192,128274,1,0,0:0:0:0:
36,192,128274,1,0,0:0:0:0:
329,192,128503,1,0,0:0:0:0:
402,192,128503,1,0,0:0:0:0:
256,192,128732,1,0,0:0:0:0:
109,192,128732,1,0,0:0:0:0:
182,192,128961,1,0,0:0:0:0:
256,192,129190,1,0,0:0:0:0:
402,192,129190,1,0,0:0:0:0:
329,192,129419,1,0,0:0:0:0:
36,192,129648,1,0,0:0:0:0:
256,192,129648,1,0,0:0:0:0:
109,192,129877,1,0,0:0:0:0:
475,192,130106,1,0,0:0:0:0:
256,192,130106,1,0,0:0:0:0:
109,192,130335,1,0,0:0:0:0:
402,192,130335,1,0,0:0:0:0:
475,192,130564,1,0,0:0:0:0:
36,192,130564,1,0,0:0:0:0:
256,192,130564,1,0,0:0:0:0:
182,192,130793,1,0,0:0:0:0:
329,192,131022,1,0,0:0:0:0:
475,192,131022,1,0,0:0:0:0:
36,192,131251,1,0,0:0:0:0:
256,192,131480,1,0,0:0:0:0:
475,192,131480,1,0,0:0:0:0:
109,192,131709,1,0,0:0:0:0:
182,192,131823,1,0,0:0:0:0:
475,192,131938,1,0,0:0:0:0:
329,192,131938,1,0,0:0:0:0:
109,192,132167,1,0,0:0:0:0:
36,192,132396,1,0,0:0:0:0:
256,192,132396,1,0,0:0:0:0:
402,192,132625,1,0,0:0:0:0:
329,192,132739,1,0,0:0:0:0:
182,192,132854,1,0,0:0:0:0:
36,192,132854,1,0,0:0:0:0:
402,192,133083,1,0,0:0:0:0:
256,192,133312,1,0,0:0:0:0:
475,192,133312,1,0,0:0:0:0:
109,192,133541,1,0,0:0:0:0:
182,192,133655,1,0,0:0:0:0:
475,192,133770,1,0,0:0:0:0:
329,192,133770,1,0,0:0:0:0:
109,192,133999,1,0,0:0:0:0:
402,192,133999,1,0,0:0:0:0:
256,192,134228,1,0,0:0:0:0:
36,192,134228,1,0,0:0:0:0:
329,192,134457,1,0,0:0:0:0:
36,192,134686,1,0,0:0:0:0:
182,192,134686,1,0,0:0:0:0:
475,192,134915,1,0,0:0:0:0:
36,192,135144,1,0,0:0:0:0:
256,192,135144,1,0,0:0:0:0:
402,192,135373,1,0,0:0:0:0:
36,192,135602,1,0,0:0:0:0:
182,192,135602,1,0,0:0:0:0:
329,192,135831,1,0,0:0:0:0:
402,192,135831,1,0,0:0:0:0:
36,192,136060,1,0,0:0:0:0:
475,192,136060,1,0,0:0:0:0:
402,192,136289,1,0,0:0:0:0:
182,192,136289,1,0,0:0:0:0:
329,192,136518,1,0,0:0:0:0:
36,192,136518,1,0,0:0:0:0:
109,192,136747,1,0,0:0:0:0:
475,192,136747,1,0,0:0:0:0:
182,192,136976,1,0,0:0:0:0:
329,192,136976,1,0,0:0:0:0:
475,192,137090,1,0,0:0:0:0:
109,192,137205,1,0,0:0:0:0:
36,192,137434,1,0,0:0:0:0:
329,192,137434,1,0,0:0:0:0:
182,192,137549,1,0,0:0:0:0:
402,192,137663,1,0,0:0:0:0:
36,192,137892,1,0,0:0:0:0:
475,192,137892,1,0,0:0:0:0:
256,192,137892,1,0,0:0:0:0:
182,192,138121,1,0,0:0:0:0:
329,192,138350,1,0,0:0:0:0:
36,192,138808,1,0,0:0:0:0:
182,192,139037,1,0,0:0:0:0:
329,192,139266,1,0,0:0:0:0:
475,192,139724,1,0,0:0:0:0:
329,192,139953,1,0,0:0:0:0:
182,192,140182,1,0,0:0:0:0:
402,192,140640,1,0,0:0:0:0:
329,192,140869,1,0,0:0:0:0:
182,192,141098,1,0,0:0:0:0:
109,192,141556,1,0,0:0:0:0:
329,192,141785,1,0,0:0:0:0:
475,192,142014,1,0,0:0:0:0:
109,192,142472,1,0,0:0:0:0:
329,192,142701,1,0,0:0:0:0:
475,192,142930,1,0,0:0:0:0:
475,192,143388,1,0,0:0:0:0:
402,192,143617,1,0,0:0:0:0:
182,192,143846,1,0,0:0:0:0:
475,192,144304,1,0,0:0:0:0:
402,192,144533,1,0,0:0:0:0:
182,192,144762,1,0,0:0:0:0:
36,192,145220,1,0,0:0:0:0:
182,192,145449,1,0,0:0:0:0:
329,192,145678,1,0,0:0:0:0:
36,192,146136,1,0,0:0:0:0:
182,192,146365,1,0,0:0:0:0:
329,192,146594,1,0,0:0:0:0:
475,192,147052,1,0,0:0:0:0:
329,192,147281,1,0,0:0:0:0:
182,192,147510,1,0,0:0:0:0:
402,192,147968,1,0,0:0:0:0:
329,192,148197,1,0,0:0:0:0:
182,192,148426,1,0,0:0:0:0:
109,192,148884,1,0,0:0:0:0:
329,192,149113,1,0,0:0:0:0:
475,192,149342,1,0,0:0:0:0:
109,192,149800,1,0,0:0:0:0:
329,192,150029,1,0,0:0:0:0:
475,192,150258,1,0,0:0:0:0:
402,192,150716,1,0,0:0:0:0:
329,192,150945,1,0,0:0:0:0:
109,192,151174,1,0,0:0:0:0:
182,192,151403,1,0,0:0:0:0:
402,192,151632,1,0,0:0:0:0:
329,192,151861,1,0,0:0:0:0:
109,192,152090,1,0,0:0:0:0:
329,192,152320,1,0,0:0:0:0:
36,192,152549,1,0,0:0:0:0:
182,192,152778,1,0,0:0:0:0:
329,192,153007,1,0,0:0:0:0:
475,192,153465,1,0,0:0:0:0:
329,192,153694,1,0,0:0:0:0:
182,192,153923,1,0,0:0:0:0:
36,192,154381,1,0,0:0:0:0:
182,192,154610,1,0,0:0:0:0:
109,192,154839,1,0,0:0:0:0:
256,192,155068,1,0,0:0:0:0:
182,192,155297,1,0,0:0:0:0:
329,192,155526,1,0,0:0:0:0:
256,192,155755,1,0,0:0:0:0:
402,192,155984,1,0,0:0:0:0:
329,192,156213,1,0,0:0:0:0:
475,192,156213,1,0,0:0:0:0:
