osu file format v14

[General]
AudioFilename: audio.mp3
AudioLeadIn: 0
PreviewTime: 49384
Countdown: 0
SampleSet: Soft
StackLeniency: 0.7
Mode: 0
LetterboxInBreaks: 0
WidescreenStoryboard: 1

[Editor]
DistanceSpacing: 1
BeatDivisor: 4
GridSize: 32
TimelineZoom: 2.1

[Metadata]
Title:Denpa CANDY
TitleUnicode:電波CANDY
Artist:YuugouP
ArtistUnicode:融合P
Creator:Mafumafu
Version:Normal
Source:
Tags:regraz vocaloid Kagamine Rin Kagamine Len 鏡音リン 鏡音レン 融合電波 novelty japanese Yuugou 7:24 radio wave synth electro pop
BeatmapID:2389483
BeatmapSetID:1144409

[Difficulty]
HPDrainRate:3.7
CircleSize:3.4
OverallDifficulty:4
ApproachRate:5
SliderMultiplier:1.1
SliderTickRate:1

[Events]
//Background and Video events
0,0,"Denpa Candy.jpg",0,0
//Break Periods
2,23921,25413
//Storyboard Layer 0 (Background)
//Storyboard Layer 1 (Fail)
//Storyboard Layer 2 (Pass)
//Storyboard Layer 3 (Foreground)
//Storyboard Layer 4 (Overlay)
//Storyboard Sound Samples

[TimingPoints]
589,361.44578313253,4,2,1,80,1,0
26613,-100,4,2,1,67,0,0
49745,-100,4,2,1,92,0,1
60950,-100,4,2,1,92,0,0
61311,-100,4,2,1,92,0,1
72878,-100,4,2,1,80,0,0

[Colours]
Combo1 : 84,239,177
Combo2 : 150,245,54
Combo3 : 68,150,204
Combo4 : 186,80,147

[HitObjects]
238,52,10709,5,2,2:2:0:0:
130,27,11070,1,2,2:2:0:0:
22,19,11432,2,0,L|30:81,1,55,8|8,2:3|2:3,0:0:0:0:
62,117,11793,2,0,L|55:182,1,55,8|8,2:3|2:3,0:0:0:0:
36,223,12155,6,0,P|96:233|144:194,1,110,6|10,2:2|2:2,0:0:0:0:
146,153,12697,1,2,2:0:0:0:
146,153,12878,2,0,L|257:154,1,110,8|10,2:3|2:2,0:0:0:0:
315,61,13601,1,8,2:3:0:0:
407,120,13962,1,10,2:2:0:0:
365,221,14323,2,0,P|388:271|383:347,1,110,8|10,2:3|2:2,0:0:0:0:
340,352,14866,1,0,0:0:0:0:
340,352,15046,6,0,P|276:350|226:361,2,110,8|10|8,2:3|2:2|2:3,0:0:0:0:
440,305,16131,1,10,2:2:0:0:
392,205,16492,2,0,L|278:210,1,110,8|10,2:3|2:2,0:0:0:0:
180,163,17215,1,8,2:3:0:0:
84,216,17576,2,0,L|89:281,1,55,8|8,2:2|2:3,0:0:0:0:
90,326,17938,6,0,P|144:345|197:308,1,110,8|10,2:3|2:2,0:0:0:0:
277,257,18661,2,0,L|402:265,1,110,8|10,2:3|2:2,0:0:0:0:
434,291,19203,1,0,2:0:0:0:
434,291,19384,2,0,L|502:297,2,55,8|2|10,2:3|2:0|2:2,0:0:0:0:
436,180,20107,2,0,P|458:107|447:65,1,110,8|10,2:3|2:2,0:0:0:0:
408,40,20649,1,0,0:0:0:0:
408,40,20829,6,0,P|340:59|294:38,1,110,8|10,2:3|2:2,0:0:0:0:
209,100,21552,1,8,2:3:0:0:
113,44,21914,2,0,L|53:43,1,55,10|2,2:2|2:0,0:0:0:0:
10,70,22275,2,0,P|33:137|22:178,1,110,8|10,2:3|2:2,0:0:0:0:
75,270,22998,2,0,L|66:344,2,55,8|10|10,2:3|2:2|2:2,0:0:0:0:
174,222,23721,5,4,2:2:0:0:
91,187,26613,6,0,P|134:206|209:173,1,110,12|10,2:2|2:2,0:0:0:0:
226,146,27155,1,0,2:0:0:0:
226,146,27335,2,0,L|341:144,1,110,8|10,2:3|2:2,0:0:0:0:
429,202,28058,1,8,2:3:0:0:
481,105,28420,1,10,2:2:0:0:
392,43,28781,2,0,P|339:30|273:47,1,110,8|10,2:3|2:2,0:0:0:0:
244,77,29323,1,8,2:3:0:0:
244,77,29504,6,0,L|254:210,2,110,8|10|8,2:3|2:2|2:3,0:0:0:0:
135,59,30588,2,0,L|74:65,1,55,10|2,2:2|2:0,0:0:0:0:
25,60,30950,2,0,P|53:125|48:176,1,110,8|10,2:3|2:2,0:0:0:0:
21,209,31492,1,0,2:0:0:0:
21,209,31673,2,0,P|81:195|140:209,1,110,8|10,2:3|2:2,0:0:0:0:
187,296,32396,6,0,P|255:324|309:315,1,110,8|10,2:3|2:2,0:0:0:0:
339,297,32938,2,0,L|414:300,1,55,0|8,2:0|2:3,0:0:0:0:
458,209,33480,1,10,2:2:0:0:
381,129,33842,2,0,P|345:110|274:120,1,110,8|8,2:3|2:2,0:0:0:0:
234,151,34384,1,0,2:0:0:0:
234,151,34564,2,0,P|240:88|230:34,1,110,8|10,2:3|2:2,0:0:0:0:
122,37,35287,6,0,L|49:40,1,55,8|0,2:3|2:0,0:0:0:0:
12,29,35649,2,0,L|21:101,1,55,10|2,2:2|2:0,0:0:0:0:
46,131,36010,2,0,P|26:186|41:237,1,110,8|10,2:3|2:2,0:0:0:0:
87,260,36552,1,2,2:0:0:0:
87,260,36733,2,0,P|140:245|208:266,1,110,8|10,2:3|2:2,0:0:0:0:
296,292,37456,2,0,L|295:172,1,110,8|10,2:3|2:2,0:0:0:0:
295,126,37998,1,8,2:3:0:0:
295,126,38179,6,0,L|220:126,2,55,8|2|10,2:3|2:0|2:2,0:0:0:0:
386,65,38902,2,0,P|454:68|492:93,1,110,8|10,2:3|2:2,0:0:0:0:
467,140,39444,1,2,2:0:0:0:
467,140,39625,2,0,P|477:212|493:256,1,110,8|10,2:3|2:2,0:0:0:0:
414,328,40348,1,8,2:3:0:0:
316,277,40709,1,10,2:2:0:0:
215,320,41070,6,0,P|167:308|94:328,2,110,8|10|8,2:3|2:2|2:3,0:0:0:0:
316,277,42155,2,0,L|310:205,1,55,8|0,2:2|2:0,0:0:0:0:
305,167,42516,2,0,P|374:165|417:199,1,110,8|10,2:3|2:2,0:0:0:0:
452,216,43058,1,0,2:0:0:0:
452,216,43239,2,0,L|442:89,1,110,8|10,2:3|2:2,0:0:0:0:
346,54,43962,6,0,P|290:67|237:37,1,110,8|8,2:3|2:2,0:0:0:0:
194,22,44504,1,0,2:0:0:0:
194,22,44685,2,0,L|66:29,1,110,8|10,2:3|2:2,0:0:0:0:
84,138,45408,2,0,L|8:134,2,55,8|0|10,2:3|2:0|2:2,0:0:0:0:
137,124,45950,1,2,2:0:0:0:
137,124,46131,2,0,P|125:187|137:241,1,110,8|10,2:3|2:2,0:0:0:0:
217,301,46854,6,0,L|347:287,1,110,8|10,2:3|2:2,0:0:0:0:
376,311,47396,1,2,2:0:0:0:
376,311,47576,2,0,L|454:302,2,55,8|8|10,2:3|2:3|2:2,0:0:0:0:
365,201,48299,2,0,P|379:125|370:74,1,110,8|10,2:2|2:2,0:0:0:0:
336,53,48842,1,4,2:3:0:0:
336,53,49022,2,0,P|279:55|221:29,1,110,8|10,2:3|2:2,0:0:0:0:
123,62,49745,6,0,P|102:138|125:169,1,110,12|10,2:2|2:2,0:0:0:0:
162,187,50287,1,0,0:0:0:0:
162,187,50468,2,0,P|183:250|163:296,1,110,8|10,2:3|2:2,0:0:0:0:
134,332,51010,1,0,0:0:0:0:
134,332,51191,2,0,L|1:324,2,110,8|10|8,2:3|2:2|2:3,0:0:0:0:
242,315,52275,2,0,L|311:315,1,55,10|8,2:2|2:3,0:0:0:0:
350,328,52637,6,0,P|342:276|351:200,1,110,8|10,2:3|2:2,0:0:0:0:
377,173,53179,1,2,0:0:0:0:
377,173,53360,2,0,P|321:147|257:157,1,110,8|10,2:3|2:2,0:0:0:0:
182,90,54082,2,0,L|110:84,1,55,8|2,2:3|2:0,0:0:0:0:
72,76,54444,2,0,L|76:140,1,55,10|0,2:2|2:0,0:0:0:0:
70,185,54805,2,0,P|124:212|144:271,1,110,8|10,2:3|2:2,0:0:0:0:
117,304,55348,1,8,2:3:0:0:
117,304,55528,6,0,P|149:332|222:341,1,110,8|10,2:3|2:2,0:0:0:0:
262,316,56070,2,0,L|334:317,1,55,0|8,2:0|2:3,0:0:0:0:
423,344,56613,1,10,2:2:0:0:
396,237,56974,2,0,L|392:173,2,55,8|2|10,2:3|2:0|2:2,0:0:0:0:
442,266,57516,1,0,2:0:0:0:
442,266,57697,2,0,P|490:214|492:164,1,110,8|10,2:3|2:2,0:0:0:0:
445,78,58420,6,0,L|318:77,1,110,8|10,2:3|2:2,0:0:0:0:
289,46,58962,1,2,2:0:0:0:
289,46,59143,2,0,L|169:47,1,110,8|10,2:3|2:2,0:0:0:0:
68,52,59866,2,0,L|78:117,1,55,8|2,2:3|2:0,0:0:0:0:
118,141,60227,2,0,L|106:210,1,55,10|2,2:2|2:0,0:0:0:0:
99,249,60588,1,8,2:3:0:0:
199,293,60950,1,8,2:2:0:0:
246,264,61131,1,8,2:3:0:0:
294,289,61311,6,0,P|348:313|405:284,2,110,12|10|8,2:2|2:2|2:3,0:0:0:0:
300,178,62396,2,0,L|296:108,1,55,10|0,2:2|0:0,0:0:0:0:
296,68,62757,2,0,P|350:46|412:72,1,110,8|10,2:3|2:2,0:0:0:0:
444,88,63299,1,2,2:0:0:0:
444,88,63480,2,0,P|440:163|471:204,1,110,8|10,2:3|2:2,0:0:0:0:
417,293,64203,6,0,P|347:277|295:285,1,110,8|10,2:3|2:2,0:0:0:0:
217,341,64926,2,0,P|150:355|100:342,1,110,8|10,2:3|2:2,0:0:0:0:
78,301,65468,1,0,0:0:0:0:
78,301,65649,2,0,L|82:231,1,55,8|2,2:3|2:0,0:0:0:0:
68,192,66010,2,0,L|132:200,1,55,10|2,2:2|2:0,0:0:0:0:
177,207,66372,1,8,2:3:0:0:
268,146,66733,2,0,L|262:81,1,55,10|8,2:2|2:3,0:0:0:0:
247,37,67095,6,0,P|186:53|133:37,1,110,8|10,2:3|2:2,0:0:0:0:
86,35,67637,1,2,0:0:0:0:
86,35,67817,2,0,P|48:78|43:146,1,110,8|10,2:3|2:2,0:0:0:0:
82,163,68360,1,2,2:0:0:0:
82,163,68540,2,0,P|115:197|125:269,2,110,8|10|8,2:3|2:2|2:3,0:0:0:0:
188,135,69625,2,0,L|256:141,1,55,8|8,2:2|2:3,0:0:0:0:
292,164,69986,6,0,L|419:156,1,110,8|10,2:3|2:2,0:0:0:0:
453,176,70528,1,2,2:0:0:0:
453,176,70709,2,0,P|432:118|458:68,1,110,8|10,2:3|2:2,0:0:0:0:
343,48,71432,2,0,L|266:38,1,55,8|2,2:3|2:0,0:0:0:0:
247,78,71793,2,0,L|177:80,1,55,10|2,2:2|2:0,0:0:0:0:
147,46,72155,1,8,2:3:0:0:
57,109,72516,2,0,L|62:175,1,55,8|8,2:2|2:3,0:0:0:0:
66,219,72878,6,0,P|110:246|166:223,1,110,12|8,2:2|2:2,0:0:0:0:
205,194,73420,1,2,2:0:0:0:
205,194,73601,2,0,L|208:322,1,110,8|10,2:3|2:2,0:0:0:0:
309,343,74323,2,0,L|311:233,1,110,8|10,2:3|2:2,0:0:0:0:
355,266,74865,1,0,0:0:0:0:
355,266,75046,2,0,P|404:284|450:257,1,110,8|10,2:3|2:2,0:0:0:0:
462,147,75769,6,0,L|465:77,2,55,8|0|10,2:3|2:0|2:2,0:0:0:0:
419,182,76311,1,2,2:0:0:0:
419,182,76492,2,0,P|360:158|310:166,1,110,8|10,2:3|2:2,0:0:0:0:
213,120,77215,2,0,L|199:58,2,55,8|2|10,2:3|2:0|2:2,0:0:0:0:
104,140,77938,2,0,P|48:168|27:231,1,110,8|10,2:3|2:2,0:0:0:0:
14,261,78480,1,0,0:0:0:0:
41,308,78661,6,0,P|78:337|149:334,1,110,8|10,2:3|2:2,0:0:0:0:
234,283,79384,2,0,L|225:211,1,55,8|0,2:3|2:0,0:0:0:0:
207,177,79745,2,0,L|266:174,1,55,10|0,2:2|2:0,0:0:0:0:
305,139,80107,2,0,L|430:140,1,110,8|10,2:3|2:2,0:0:0:0:
457,174,80649,1,0,0:0:0:0:
457,174,80829,2,0,P|467:265|458:300,1,110,8|10,2:3|2:2,0:0:0:0:
354,299,81552,6,0,L|300:295,1,55,8|0,2:3|2:0,0:0:0:0:
264,338,81914,2,0,L|200:343,1,55,10|2,2:2|2:0,0:0:0:0:
154,346,82275,2,0,P|135:274|161:228,1,110,8|10,2:3|2:2,0:0:0:0:
171,194,82817,1,0,2:0:0:0:
171,194,82998,2,0,P|122:204|60:180,1,110,10|10,2:2|2:2,0:0:0:0:
58,75,83721,2,0,L|118:82,1,55,8|8,2:3|2:3,0:0:0:0:
167,86,84082,1,10,2:2:0:0:
276,92,84444,6,0,L|272:22,2,55,8|2|10,2:3|2:0|2:2,0:0:0:0:
323,120,84986,1,2,2:0:0:0:
323,120,85167,2,0,P|381:146|438:118,1,110,8|10,2:3|2:2,0:0:0:0:
464,97,85709,1,2,2:0:0:0:
464,97,85890,2,0,L|472:222,1,110,8|10,2:3|2:2,0:0:0:0:
379,268,86613,1,10,2:2:0:0:
324,262,86793,1,10,2:2:0:0:
273,283,86974,1,14,2:2:0:0:
