osu file format v14

[General]
AudioFilename: audio.mp3
AudioLeadIn: 0
PreviewTime: 49384
Countdown: 0
SampleSet: Soft
StackLeniency: 0.7
Mode: 0
LetterboxInBreaks: 0
WidescreenStoryboard: 0

[Editor]
DistanceSpacing: 5.7
BeatDivisor: 4
GridSize: 32
TimelineZoom: 3.799998

[Metadata]
Title:Denpa CANDY
TitleUnicode:電波CANDY
Artist:YuugouP
ArtistUnicode:融合P
Creator:Mafumafu
Version:Insane
Source:
Tags:regraz vocaloid Kagamine Rin Kagamine Len 鏡音リン 鏡音レン 融合電波 novelty japanese Yuugou 7:24 radio wave synth electro pop
BeatmapID:2439142
BeatmapSetID:1144409

[Difficulty]
HPDrainRate:6
CircleSize:4.2
OverallDifficulty:8
ApproachRate:9
SliderMultiplier:1.8
SliderTickRate:1

[Events]
//Background and Video events
0,0,"Denpa Candy.jpg",0,0
//Break Periods
//Storyboard Layer 0 (Background)
//Storyboard Layer 1 (Fail)
//Storyboard Layer 2 (Pass)
//Storyboard Layer 3 (Foreground)
//Storyboard Layer 4 (Overlay)
//Storyboard Sound Samples

[TimingPoints]
589,361.44578313253,4,2,1,80,1,0
26613,-100,4,2,1,67,0,0
49745,-100,4,2,1,92,0,1
60950,-100,4,2,1,92,0,0
61311,-100,4,2,1,92,0,1
72878,-100,4,2,1,80,0,0

[Colours]
Combo1 : 84,239,177
Combo2 : 150,245,54
Combo3 : 68,150,204
Combo4 : 186,80,147

[HitObjects]
235,155,10709,5,2,2:2:0:0:
235,155,11070,1,2,2:2:0:0:
235,155,11432,1,8,2:3:0:0:
235,155,11522,1,8,2:3:0:0:
235,155,11613,1,8,2:3:0:0:
176,27,11793,2,0,L|174:72,1,45,8|8,2:3|2:3,0:0:0:0:
31,74,11974,2,0,L|25:29,1,45,8|8,2:3|2:3,0:0:0:0:
154,89,12155,6,0,P|110:80|68:93,1,90,6|2,2:2|2:0,0:0:0:0:
225,174,12516,1,10,2:2:0:0:
42,192,12697,1,2,2:0:0:0:
42,192,12787,1,2,2:0:0:0:
42,192,12878,2,0,L|50:303,1,90,8|0,2:3|2:0,0:0:0:0:
231,263,13239,2,0,L|224:173,1,90,10|0,2:2|2:0,0:0:0:0:
326,266,13601,5,8,2:3:0:0:
273,351,13781,1,2,2:0:0:0:
170,328,13962,2,0,P|103:328|71:245,1,135,10|0,2:2|2:0,0:0:0:0:
86,241,14323,2,0,L|-12:251,1,90,8|2,2:3|2:0,0:0:0:0:
159,164,14685,2,0,L|315:152,1,135,10|0,2:2|2:0,0:0:0:0:
321,176,15046,5,8,2:3:0:0:
252,256,15227,1,2,2:0:0:0:
358,301,15408,2,2,L|456:296,1,90,10|2,2:2|2:0,0:0:0:0:
467,321,15679,1,2,2:0:0:0:
467,321,15769,2,0,P|453:260|469:232,1,90,8|0,2:3|2:0,0:0:0:0:
482,139,16131,1,10,2:2:0:0:
482,139,16311,1,0,2:0:0:0:
377,79,16492,6,0,L|382:182,1,90,8|2,2:3|2:0,0:0:0:0:
300,252,16854,2,0,P|226:220|233:145,1,135,10|0,2:2|2:0,0:0:0:0:
225,132,17215,1,8,2:3:0:0:
394,179,17396,1,2,2:0:0:0:
225,132,17576,2,0,L|122:136,1,90,8|8,2:2|2:3,0:0:0:0:
300,51,17938,5,8,2:3:0:0:
309,153,18119,1,2,2:0:0:0:
424,143,18299,1,10,2:2:0:0:
415,41,18480,1,2,2:0:0:0:
415,41,18570,1,2,2:0:0:0:
415,41,18661,2,0,P|354:51|321:32,1,90,8|0,2:3|2:0,0:0:0:0:
163,29,19022,2,0,L|275:23,1,90,10|0,2:2|2:0,0:0:0:0:
122,100,19384,5,8,2:3:0:0:
210,146,19564,1,2,2:0:0:0:
69,182,19745,2,0,P|54:249|77:312,1,135,10|0,2:2|2:0,0:0:0:0:
68,338,20107,2,0,L|183:328,1,90,8|2,2:3|2:0,0:0:0:0:
221,249,20468,2,0,P|286:247|340:320,1,135,10|0,2:2|2:0,0:0:0:0:
331,321,20829,6,0,P|274:299|260:249,1,90,8|2,2:3|2:0,0:0:0:0:
409,230,21191,1,10,2:2:0:0:
409,230,21372,1,2,2:0:0:0:
485,360,21552,2,0,L|494:252,1,90,8|0,2:3|2:0,0:0:0:0:
334,78,21914,2,0,L|339:178,1,90,10|2,2:2|2:0,0:0:0:0:
426,89,22275,5,8,2:3:0:0:
240,108,22456,1,2,2:0:0:0:
475,156,22637,2,0,P|505:116|500:68,1,90,10|2,2:2|2:0,0:0:0:0:
341,241,22998,1,8,2:3:0:0:
261,86,23179,1,10,2:2:0:0:
154,210,23360,2,0,L|161:308,2,90,10|8|4,2:2|2:3|2:2,0:0:0:0:
173,224,25167,5,8,2:3:0:0:
173,224,25528,5,8,2:3:0:0:
173,224,25890,5,8,2:3:0:0:
173,224,25980,1,8,2:3:0:0:
173,224,26070,1,2,2:0:0:0:
286,68,26251,2,0,P|273:140|294:201,1,135,2|0,2:2|2:0,0:0:0:0:
323,203,26613,6,0,P|226:176|165:245,1,180,12|10,2:2|2:2,0:0:0:0:
178,307,27155,1,0,2:0:0:0:
14,263,27335,2,0,P|78:261|115:275,1,90,8|0,2:3|2:0,0:0:0:0:
256,343,27697,2,0,L|254:236,1,90,10|2,2:2|2:0,0:0:0:0:
336,187,28058,5,8,2:3:0:0:
412,258,28239,1,0,2:0:0:0:
261,262,28420,2,0,P|197:247|157:257,1,90,10|0,2:2|2:0,0:0:0:0:
135,349,28781,2,0,L|126:164,1,180,8|10,2:3|2:2,0:0:0:0:
42,207,29323,1,8,2:3:0:0:
224,192,29504,6,0,B|308:165|320:245|404:202,1,180,8|10,2:3|2:2,0:0:0:0:
418,124,30046,1,0,2:0:0:0:
146,160,30227,2,0,P|142:217|167:253,1,90,8|2,2:3|2:0,0:0:0:0:
301,227,30588,2,0,P|305:170|280:134,1,90,10|2,2:2|2:0,0:0:0:0:
167,74,30950,6,0,L|166:257,1,180,8|10,2:3|2:2,0:0:0:0:
213,326,31492,1,0,2:0:0:0:
285,197,31673,2,0,P|208:181|150:275,1,180,8|10,2:3|2:2,0:0:0:0:
213,326,32215,1,8,2:3:0:0:
379,225,32396,6,0,L|367:13,1,180,8|10,2:3|2:2,0:0:0:0:
452,90,32938,1,0,2:0:0:0:
293,91,33119,2,0,P|235:74|200:85,1,90,8|2,2:3|2:0,0:0:0:0:
195,203,33480,2,0,P|253:220|288:209,1,90,10|2,2:2|2:0,0:0:0:0:
365,158,33842,5,8,2:3:0:0:
428,224,34022,1,2,2:0:0:0:
428,224,34113,1,2,2:0:0:0:
428,224,34203,2,0,L|423:327,1,90,8|0,2:2|2:0,0:0:0:0:
509,189,34564,2,0,B|510:123|510:123|486:84|486:84|494:14,1,180,8|10,2:3|2:2,0:0:0:0:
445,86,35107,1,8,2:3:0:0:
363,43,35287,6,0,P|311:27|261:38,1,90,8|0,2:3|2:0,0:0:0:0:
214,100,35649,1,10,2:2:0:0:
214,100,35829,1,2,2:0:0:0:
71,37,36010,1,8,2:3:0:0:
84,146,36191,1,2,2:0:0:0:
194,132,36372,1,10,2:2:0:0:
181,23,36553,1,2,2:0:0:0:
14,198,36733,6,0,P|76:235|156:196,1,135,8|0,2:3|2:0,0:0:0:0:
156,204,37095,2,0,P|149:252|172:303,1,90,10|0,2:2|2:0,0:0:0:0:
178,123,37456,2,0,L|191:318,1,180,8|10,2:3|2:2,0:0:0:0:
268,267,37998,1,8,2:3:0:0:
320,148,38179,6,0,P|369:137|426:169,1,90,8|2,2:3|2:0,0:0:0:0:
353,268,38540,2,0,P|304:279|247:247,1,90,10|2,2:2|2:0,0:0:0:0:
131,260,38902,1,8,2:3:0:0:
242,247,39082,1,0,2:0:0:0:
226,126,39263,1,10,2:2:0:0:
115,139,39443,1,2,2:0:0:0:
316,175,39625,6,0,L|321:56,2,90,8|2|10,2:3|2:0|2:2,0:0:0:0:
395,218,40167,1,0,2:0:0:0:
243,220,40348,2,0,B|179:196|136:289|54:240,1,180,8|10,2:3|2:2,0:0:0:0:
117,159,40890,1,8,2:3:0:0:
38,239,41070,6,0,P|55:305|52:351,1,90,8|2,2:3|2:0,0:0:0:0:
147,81,41432,2,0,P|130:147|133:193,1,90,10|2,2:2|2:0,0:0:0:0:
70,32,41793,1,8,2:3:0:0:
230,51,41974,1,2,2:0:0:0:
230,51,42064,1,2,2:0:0:0:
230,51,42155,2,0,L|333:44,1,90,8|0,2:2|2:0,0:0:0:0:
79,162,42516,6,0,B|133:153|155:107|155:107|182:142|238:135,1,180,8|10,2:3|2:2,0:0:0:0:
230,51,43058,1,0,2:0:0:0:
307,191,43239,2,0,L|309:90,1,90,8|10,2:3|2:2,0:0:0:0:
437,31,43601,2,0,L|433:121,1,90,10|8,2:2|2:3,0:0:0:0:
248,45,43962,6,0,P|200:39|166:69,1,90,8|2,2:3|2:0,0:0:0:0:
164,89,44233,1,2,2:0:0:0:
164,89,44323,2,0,P|107:69|61:71,1,90,8|0,2:2|2:0,0:0:0:0:
41,175,44685,1,8,2:3:0:0:
41,175,44866,1,0,2:0:0:0:
174,263,45046,2,0,L|177:159,1,90,10|2,2:2|2:0,0:0:0:0:
143,345,45408,6,0,P|190:351|238:323,1,90,8|0,2:3|2:0,0:0:0:0:
305,260,45769,1,10,2:2:0:0:
327,362,45950,1,2,2:0:0:0:
476,294,46131,2,0,P|406:289|377:305,1,90,8|8,2:3|2:3,0:0:0:0:
305,260,46492,1,10,2:2:0:0:
68,356,46854,6,0,L|67:239,1,90,8|8,2:3|2:3,0:0:0:0:
163,205,47215,2,0,L|161:299,1,90,10|2,2:2|2:0,0:0:0:0:
252,330,47576,1,8,2:3:0:0:
252,330,47667,1,8,0:3:0:0:
252,330,47757,1,8,2:3:0:0:
417,276,47938,2,0,P|343:272|328:283,1,90,10|2,2:2|2:0,0:0:0:0:
488,346,48299,5,8,2:2:0:0:
488,346,48390,1,8,2:3:0:0:
488,346,48480,2,0,L|493:275,1,45,8|8,2:3|2:3,0:0:0:0:
453,154,48661,1,10,2:2:0:0:
453,154,48752,1,8,2:3:0:0:
453,154,48842,2,0,L|458:225,1,45,4|4,2:3|2:3,0:0:0:0:
351,297,49022,5,8,2:3:0:0:
303,281,49113,1,8,2:3:0:0:
303,232,49203,1,2,2:2:0:0:
351,216,49293,1,2,2:0:0:0:
380,256,49384,1,10,2:2:0:0:
204,316,49564,1,8,2:3:0:0:
204,316,49655,1,8,2:3:0:0:
204,316,49745,6,0,P|123:307|90:237,1,135,12|0,2:2|2:0,0:0:0:0:
77,285,50107,2,0,P|60:205|116:152,1,135,10|0,2:2|2:0,0:0:0:0:
77,146,50468,2,0,P|147:105|215:142,1,135,8|0,2:3|2:0,0:0:0:0:
213,104,50829,2,0,P|273:158|258:234,1,135,10|0,2:2|2:0,0:0:0:0:
286,239,51191,5,8,2:3:0:0:
136,247,51372,1,2,2:0:0:0:
353,292,51552,2,0,P|372:238|360:197,1,90,10|0,2:2|2:0,0:0:0:0:
143,104,51914,2,0,L|154:267,1,135,8|0,2:3|2:0,0:0:0:0:
180,260,52275,2,0,P|130:259|89:284,1,90,10|8,2:2|2:3,0:0:0:0:
300,163,52637,6,0,P|381:172|414:242,1,135,8|0,2:3|2:0,0:0:0:0:
427,194,52999,2,0,P|443:273|387:326,1,135,10|0,2:2|2:0,0:0:0:0:
427,333,53360,2,0,P|356:373|288:336,1,135,8|0,2:3|2:0,0:0:0:0:
291,375,53721,2,0,P|230:320|245:244,1,135,10|0,2:2|2:0,0:0:0:0:
204,269,54083,5,8,2:3:0:0:
291,375,54263,1,2,2:0:0:0:
427,333,54444,1,10,2:2:0:0:
427,194,54625,1,0,2:0:0:0:
291,143,54805,1,8,2:3:0:0:
297,154,55167,1,10,2:2:0:0:
120,156,55348,1,8,2:3:0:0:
302,232,55528,6,0,P|364:206|369:126,1,135,8|0,2:3|2:0,0:0:0:0:
357,105,55890,2,0,L|474:113,1,90,10|0,2:2|2:0,0:0:0:0:
285,47,56251,1,8,2:3:0:0:
285,47,56432,1,0,2:0:0:0:
203,95,56613,2,0,L|92:91,1,90,10|2,2:2|2:0,0:0:0:0:
44,237,56974,6,0,P|97:234|132:199,1,90,8|2,2:3|2:0,0:0:0:0:
139,186,57245,1,2,2:0:0:0:
139,186,57335,2,0,L|141:286,1,90,10|0,2:2|2:0,0:0:0:0:
296,319,57697,2,0,L|291:167,1,135,8|0,2:3|2:0,0:0:0:0:
286,149,58058,2,0,P|344:148|385:177,1,90,10|8,2:2|2:3,0:0:0:0:
234,84,58420,6,0,P|157:76|106:107,1,135,8|0,2:3|2:0,0:0:0:0:
77,118,58781,2,0,P|92:177|76:225,1,90,10|0,2:2|2:0,0:0:0:0:
190,337,59143,2,0,L|175:177,1,135,8|0,2:3|2:0,0:0:0:0:
200,171,59504,1,10,2:2:0:0:
69,288,59685,1,2,2:0:0:0:
278,252,59866,6,0,P|323:240|375:253,1,90,8|2,2:3|2:0,0:0:0:0:
390,280,60137,1,2,2:0:0:0:
390,280,60227,1,10,2:2:0:0:
183,331,60408,1,0,2:0:0:0:
241,113,60588,1,8,2:3:0:0:
253,143,60950,5,8,2:2:0:0:
207,309,61131,1,8,2:3:0:0:
361,272,61311,6,0,P|330:230|347:126,1,135,12|0,2:2|2:0,0:0:0:0:
351,122,61673,2,0,P|301:138|207:90,1,135,10|0,2:2|2:0,0:0:0:0:
208,75,62034,2,0,P|208:127|133:201,1,135,8|0,2:3|2:0,0:0:0:0:
127,202,62396,2,0,P|176:217|224:311,1,135,10|0,2:2|2:0,0:0:0:0:
217,321,62757,5,8,2:3:0:0:
217,321,62938,1,2,2:0:0:0:
439,294,63119,2,0,P|389:349|343:343,1,90,10|0,2:2|2:0,0:0:0:0:
236,355,63480,2,0,P|145:337|92:348,1,135,8|0,2:3|2:0,0:0:0:0:
66,362,63842,2,2,P|88:302|76:258,1,90,10|8,2:2|2:3,0:0:0:0:
145,138,64203,6,0,P|176:180|159:284,1,135,8|0,2:3|2:0,0:0:0:0:
155,288,64565,2,0,P|204:271|298:319,1,135,10|0,2:2|2:0,0:0:0:0:
298,335,64926,2,0,P|297:282|372:208,1,135,8|0,2:3|2:0,0:0:0:0:
379,208,65288,2,0,P|329:192|281:98,1,135,10|0,2:2|2:0,0:0:0:0:
289,89,65649,5,8,2:3:0:0:
379,208,65829,1,2,2:0:0:0:
298,335,66010,1,10,2:2:0:0:
155,288,66191,1,0,2:0:0:0:
145,138,66372,1,8,2:3:0:0:
411,91,66733,2,0,P|420:134|414:179,1,90,10|8,2:2|2:3,0:0:0:0:
256,93,67095,6,0,L|67:87,2,180,8|10|8,2:3|2:2|2:3,0:0:0:0:
334,47,67998,1,0,2:0:0:0:
412,178,68179,2,0,P|420:114|404:81,1,90,10|2,2:2|2:0,0:0:0:0:
240,202,68540,6,0,L|429:208,2,180,8|10|8,2:3|2:2|2:3,0:0:0:0:
161,252,69444,1,2,2:0:0:0:
161,252,69534,1,2,2:0:0:0:
161,252,69625,2,0,P|183:314|178:349,1,90,8|8,2:2|2:3,0:0:0:0:
104,145,69986,6,0,B|192:121|196:199|295:167,1,180,8|10,2:3|2:2,0:0:0:0:
319,239,70528,1,2,2:0:0:0:
487,73,70709,2,0,B|399:49|395:127|296:95,1,180,8|10,2:3|2:2,0:0:0:0:
276,171,71251,1,0,2:0:0:0:
437,127,71432,5,8,2:3:0:0:
388,285,71613,1,2,2:0:0:0:
388,285,71703,1,2,2:0:0:0:
388,285,71793,1,10,2:2:0:0:
324,76,71974,1,0,2:0:0:0:
248,193,72155,2,0,P|179:179|133:191,1,90,8|0,2:3|2:0,0:0:0:0:
102,254,72516,5,8,2:2:0:0:
150,270,72607,1,8,2:3:0:0:
150,319,72697,1,8,2:3:0:0:
102,335,72787,1,2,2:0:0:0:
73,295,72878,5,12,2:2:0:0:
139,165,73058,1,2,2:0:0:0:
241,258,73239,2,0,P|303:248|323:206,1,90,8|2,2:2|2:0,0:0:0:0:
321,193,73510,1,2,2:0:0:0:
321,193,73601,2,0,P|370:195|406:217,1,90,8|0,2:3|2:0,0:0:0:0:
488,323,73962,2,0,P|430:327|389:341,1,90,10|0,2:2|2:0,0:0:0:0:
311,361,74323,5,8,2:3:0:0:
311,361,74504,1,2,2:0:0:0:
206,184,74685,2,0,P|224:283|196:346,1,135,10|0,2:2|2:0,0:0:0:0:
190,329,75046,1,8,2:3:0:0:
65,261,75227,1,2,2:0:0:0:
224,165,75408,2,0,L|72:174,1,135,10|0,2:2|2:0,0:0:0:0:
66,155,75769,6,0,L|174:150,1,90,8|0,2:3|2:0,0:0:0:0:
266,81,76131,1,10,2:2:0:0:
131,44,76311,1,2,2:0:0:0:
131,44,76402,1,2,2:0:0:0:
131,44,76492,2,0,P|72:52|36:31,1,90,8|0,2:3|2:0,0:0:0:0:
229,23,76854,2,0,P|273:57|285:102,1,90,10|0,2:2|2:0,0:0:0:0:
216,163,77215,5,8,2:3:0:0:
216,163,77396,1,2,2:0:0:0:
381,163,77576,2,0,L|390:52,1,90,10|0,2:2|2:0,0:0:0:0:
341,252,77938,1,8,2:3:0:0:
449,226,78119,1,2,2:0:0:0:
374,37,78299,2,0,L|360:199,1,135,10|0,2:2|2:0,0:0:0:0:
380,188,78661,6,0,L|269:175,1,90,8|0,2:3|2:0,0:0:0:0:
214,228,79022,1,10,2:2:0:0:
343,282,79203,1,2,2:0:0:0:
343,282,79293,1,2,2:0:0:0:
343,282,79384,2,0,P|405:291|437:274,1,90,8|0,2:3|2:0,0:0:0:0:
465,186,79745,2,0,P|403:177|371:194,1,90,10|0,2:2|2:0,0:0:0:0:
294,120,80107,5,8,2:3:0:0:
294,120,80287,1,2,2:0:0:0:
214,173,80468,2,0,P|163:157|82:177,1,135,10|0,2:2|2:0,0:0:0:0:
63,207,80829,2,0,L|52:100,1,90,8|2,2:3|2:0,0:0:0:0:
122,33,81191,2,0,P|174:58|264:28,1,135,10|0,2:2|2:0,0:0:0:0:
269,27,81552,6,0,L|381:31,1,90,8|0,2:3|2:0,0:0:0:0:
421,115,81914,1,10,2:2:0:0:
421,115,82095,1,2,2:0:0:0:
300,168,82275,1,8,2:3:0:0:
300,168,82366,1,2,2:0:0:0:
300,168,82456,1,2,2:0:0:0:
203,26,82637,2,0,L|212:131,1,90,10|0,2:2|2:0,0:0:0:0:
74,119,82998,5,10,2:2:0:0:
185,103,83179,1,0,2:0:0:0:
197,215,83360,1,10,2:2:0:0:
86,231,83541,1,0,2:0:0:0:
27,52,83721,2,0,P|83:41|131:66,1,90,8|8,2:3|2:3,0:0:0:0:
279,28,84082,2,0,L|272:191,1,135,10|0,2:2|2:0,0:0:0:0:
261,191,84444,6,0,P|313:187|359:203,1,90,8|2,2:3|2:0,0:0:0:0:
428,133,84805,1,10,2:2:0:0:
428,133,84986,1,2,2:0:0:0:
453,241,85167,1,8,2:3:0:0:
453,241,85257,1,2,2:0:0:0:
453,241,85348,1,2,2:0:0:0:
340,303,85528,2,0,L|335:190,1,90,10|2,2:2|2:0,0:0:0:0:
221,131,85890,6,0,L|94:139,1,90,8|2,2:3|2:0,0:0:0:0:
111,163,86161,1,2,2:0:0:0:
111,163,86251,2,0,L|4:170,1,90,10|0,2:2|2:0,0:0:0:0:
95,276,86613,1,10,2:2:0:0:
95,276,86703,1,10,2:0:0:0:
95,276,86793,2,0,L|103:344,1,45,10|0,2:2|2:0,0:0:0:0:
263,287,86974,5,12,2:2:0:0:
