osu file format v14

[General]
AudioFilename: audio.mp3
AudioLeadIn: 0
PreviewTime: 49384
Countdown: 0
SampleSet: Soft
StackLeniency: 0.7
Mode: 0
LetterboxInBreaks: 0
WidescreenStoryboard: 1

[Editor]
DistanceSpacing: 1.1
BeatDivisor: 4
GridSize: 32
TimelineZoom: 2.1

[Metadata]
Title:Denpa CANDY
TitleUnicode:電波CANDY
Artist:YuugouP
ArtistUnicode:融合P
Creator:Mafumafu
Version:Hard
Source:
Tags:regraz vocaloid Kagamine Rin Kagamine Len 鏡音リン 鏡音レン 融合電波 novelty japanese Yuugou 7:24 radio wave synth electro pop
BeatmapID:2390012
BeatmapSetID:1144409

[Difficulty]
HPDrainRate:6
CircleSize:4
OverallDifficulty:6.2
ApproachRate:7.4
SliderMultiplier:1.5
SliderTickRate:1

[Events]
//Background and Video events
0,0,"Denpa Candy.jpg",0,0
//Break Periods
//Storyboard Layer 0 (Background)
//Storyboard Layer 1 (Fail)
//Storyboard Layer 2 (Pass)
//Storyboard Layer 3 (Foreground)
//Storyboard Layer 4 (Overlay)
//Storyboard Sound Samples

[TimingPoints]
589,361.44578313253,4,2,1,80,1,0
26613,-100,4,2,1,67,0,0
49745,-100,4,2,1,92,0,1
60950,-100,4,2,1,92,0,0
61311,-100,4,2,1,92,0,1
72878,-100,4,2,1,80,0,0

[Colours]
Combo1 : 84,239,177
Combo2 : 150,245,54
Combo3 : 68,150,204
Combo4 : 186,80,147

[HitObjects]
71,208,10709,5,2,2:2:0:0:
71,208,11070,1,2,2:2:0:0:
71,208,11432,2,0,L|78:260,2,37.5,8|8|8,2:3|2:3|2:3,0:0:0:0:
29,132,11793,1,8,2:3:0:0:
29,132,11974,1,8,2:3:0:0:
98,69,12155,6,0,B|175:48|169:122|260:102,1,150,6|10,2:2|2:2,0:0:0:0:
305,56,12697,1,2,2:0:0:0:
305,56,12787,1,2,2:0:0:0:
305,56,12878,2,0,P|355:52|394:65,1,75,8|0,2:3|2:0,0:0:0:0:
387,140,13239,2,0,P|337:144|298:131,1,75,10|0,2:2|2:0,0:0:0:0:
245,186,13601,6,0,P|255:264|237:345,1,150,8|10,2:3|2:2,0:0:0:0:
160,349,14143,1,0,0:0:0:0:
79,331,14323,2,0,P|65:257|75:183,1,150,8|10,2:3|2:2,0:0:0:0:
155,160,14866,1,0,0:0:0:0:
224,116,15046,6,0,L|213:30,2,75,8|2|10,2:3|2:0|2:2,0:0:0:0:
295,157,15588,1,2,2:0:0:0:
295,157,15679,1,2,2:0:0:0:
295,157,15769,2,0,P|338:164|400:71,1,150,8|10,2:3|2:2,0:0:0:0:
476,55,16311,1,0,2:0:0:0:
476,55,16492,6,0,L|488:226,1,150,8|10,2:3|2:2,0:0:0:0:
423,258,17034,1,0,0:0:0:0:
423,258,17215,2,0,P|365:248|333:254,1,75,8|2,2:3|2:0,0:0:0:0:
285,302,17576,1,10,2:2:0:0:
285,302,17757,1,8,2:3:0:0:
210,265,17938,6,0,P|225:182|189:111,1,150,8|10,2:3|2:2,0:0:0:0:
121,149,18480,1,2,2:0:0:0:
121,149,18570,1,2,2:0:0:0:
121,149,18661,2,0,P|72:156|29:149,1,75,8|0,2:3|2:0,0:0:0:0:
69,73,19022,2,0,P|118:66|161:73,1,75,10|0,2:2|2:0,0:0:0:0:
223,46,19384,6,0,P|291:75|375:56,1,150,8|10,2:3|2:2,0:0:0:0:
419,123,19926,1,0,0:0:0:0:
358,178,20107,2,0,P|285:165|217:194,1,150,8|10,2:3|2:2,0:0:0:0:
176,266,20649,1,0,0:0:0:0:
176,266,20829,6,0,L|89:259,2,75,8|2|10,2:3|2:0|2:2,0:0:0:0:
243,314,21372,1,2,2:0:0:0:
311,267,21552,1,8,2:3:0:0:
311,267,21643,1,2,0:0:0:0:
311,267,21733,1,2,2:0:0:0:
390,287,21914,2,0,L|392:365,1,75,10|2,2:2|2:0,0:0:0:0:
471,353,22275,6,0,L|471:193,1,150,8|10,2:3|2:2,0:0:0:0:
411,145,22817,1,2,2:0:0:0:
411,145,22998,2,0,P|364:137|332:146,1,75,8|10,2:3|2:2,0:0:0:0:
290,211,23360,2,0,P|247:231|209:230,2,75,10|8|4,2:2|2:3|2:2,0:0:0:0:
67,73,25167,5,8,2:3:0:0:
67,73,25528,1,8,2:3:0:0:
67,73,25890,1,8,2:3:0:0:
67,73,25980,1,8,2:3:0:0:
67,73,26070,1,2,2:2:0:0:
125,130,26251,2,0,P|201:143|242:114,1,112.5,2|0,2:2|2:0,0:0:0:0:
259,98,26613,6,0,L|252:268,1,150,12|10,2:2|2:2,0:0:0:0:
327,283,27155,1,0,2:0:0:0:
401,248,27335,2,0,P|458:238|506:330,1,150,8|10,2:3|2:2,0:0:0:0:
439,347,27878,1,2,2:0:0:0:
439,347,28058,6,0,P|372:344|286:350,1,150,8|10,2:3|2:2,0:0:0:0:
206,352,28601,1,2,2:0:0:0:
206,352,28691,1,2,0:0:0:0:
206,352,28781,2,0,L|212:254,1,75,8|0,2:3|0:0,0:0:0:0:
158,212,29143,2,0,P|100:207|67:221,1,75,10|8,2:2|2:3,0:0:0:0:
36,278,29504,6,0,P|59:205|41:126,1,150,8|10,2:3|2:2,0:0:0:0:
90,65,30046,1,0,2:0:0:0:
157,112,30227,2,0,P|205:117|239:102,1,75,8|2,2:3|2:0,0:0:0:0:
299,64,30588,1,10,2:2:0:0:
369,107,30769,1,2,2:0:0:0:
445,75,30950,6,0,P|486:122|458:221,1,150,8|10,2:3|2:2,0:0:0:0:
411,257,31492,1,0,2:0:0:0:
338,217,31673,2,0,L|252:216,1,75,8|0,2:3|0:0,0:0:0:0:
235,246,31944,1,2,0:0:0:0:
235,246,32034,2,0,L|141:244,1,75,10|8,2:2|2:3,0:0:0:0:
81,270,32396,6,0,P|45:188|81:130,1,150,8|10,2:3|2:2,0:0:0:0:
146,108,32938,1,0,2:0:0:0:
228,116,33119,2,0,L|226:35,2,75,8|2|10,2:3|2:0|2:2,0:0:0:0:
302,152,33661,1,2,2:0:0:0:
302,152,33842,6,0,P|361:164|422:92,1,150,8|8,2:3|2:2,0:0:0:0:
383,31,34384,1,0,2:0:0:0:
301,36,34564,2,0,L|210:32,1,75,8|0,2:3|0:0,0:0:0:0:
189,53,34835,1,2,0:0:0:0:
189,53,34926,2,0,L|99:50,1,75,10|8,2:2|2:3,0:0:0:0:
43,93,35287,5,8,2:3:0:0:
43,93,35468,1,0,2:0:0:0:
92,158,35649,2,0,P|144:166|173:149,1,75,10|2,2:2|2:0,0:0:0:0:
236,120,36010,1,8,2:3:0:0:
235,202,36191,1,2,2:0:0:0:
309,165,36372,2,0,P|358:166|393:188,1,75,10|2,2:2|2:0,0:0:0:0:
426,108,36733,6,0,L|416:287,1,150,8|10,2:3|2:2,0:0:0:0:
475,316,37275,1,2,2:0:0:0:
475,316,37366,1,2,0:0:0:0:
475,316,37456,2,0,P|411:295|335:331,1,150,8|10,2:3|2:2,0:0:0:0:
173,340,38179,5,8,2:3:0:0:
101,298,38360,1,2,2:0:0:0:
123,218,38540,1,10,2:2:0:0:
205,209,38721,1,2,2:0:0:0:
242,282,38902,2,0,P|303:297|332:316,1,75,8|0,2:3|2:0,0:0:0:0:
387,338,39263,2,0,P|445:317|480:316,1,75,10|2,2:2|2:0,0:0:0:0:
478,235,39625,6,0,P|441:168|453:79,1,150,8|10,2:3|2:2,0:0:0:0:
464,16,40167,1,0,2:0:0:0:
464,16,40348,2,0,L|299:25,1,150,8|10,2:3|2:2,0:0:0:0:
251,77,40890,1,8,2:3:0:0:
173,49,41070,6,0,P|113:40|90:45,1,75,8|2,2:3|2:0,0:0:0:0:
35,95,41432,1,10,2:2:0:0:
35,95,41613,1,2,2:0:0:0:
101,143,41793,2,0,L|98:232,1,75,8|2,2:3|2:0,0:0:0:0:
124,250,42064,1,2,2:0:0:0:
124,250,42155,2,0,L|121:342,1,75,8|0,2:2|2:0,0:0:0:0:
203,312,42516,6,0,P|251:293|349:325,1,150,8|10,2:3|2:2,0:0:0:0:
421,342,43058,1,0,2:0:0:0:
486,291,43239,2,0,P|498:217|488:139,1,150,8|10,2:3|2:2,0:0:0:0:
353,48,43962,5,8,2:3:0:0:
285,95,44143,1,2,2:0:0:0:
218,46,44323,1,8,2:2:0:0:
160,105,44504,1,0,2:0:0:0:
98,49,44685,2,0,P|38:33|17:40,2,75,8|0|10,2:3|2:0|2:2,0:0:0:0:
160,105,45227,1,2,2:0:0:0:
96,157,45408,6,0,P|80:214|98:313,1,150,8|10,2:3|2:2,0:0:0:0:
167,339,45950,1,2,2:0:0:0:
241,303,46131,2,0,P|289:294|331:308,2,75,8|8|10,2:3|2:3|2:2,0:0:0:0:
387,225,46854,6,0,L|374:56,1,150,8|10,2:3|2:2,0:0:0:0:
298,45,47396,1,2,2:0:0:0:
298,45,47486,1,2,0:0:0:0:
298,45,47576,2,0,P|233:38|182:126,1,150,8|10,2:3|2:2,0:0:0:0:
242,154,48119,1,2,2:0:0:0:
242,154,48209,1,2,0:0:0:0:
242,154,48299,6,0,L|240:229,1,75,8|8,2:2|2:3,0:0:0:0:
307,277,48661,1,10,2:2:0:0:
218,312,48842,1,4,2:3:0:0:
218,312,48932,1,4,2:3:0:0:
218,312,49022,1,8,2:3:0:0:
375,230,49384,2,0,L|463:236,1,75,10|8,2:2|2:3,0:0:0:0:
489,162,49745,6,0,P|484:99|395:67,1,150,12|10,2:2|2:2,0:0:0:0:
334,36,50287,1,0,0:0:0:0:
254,58,50468,2,0,P|187:86|177:157,1,150,8|10,2:3|2:2,0:0:0:0:
117,213,51010,1,2,0:0:0:0:
117,213,51101,1,2,2:0:0:0:
117,213,51191,6,0,L|27:203,1,75,8|2,2:3|2:0,0:0:0:0:
27,286,51552,2,0,L|101:294,1,75,10|0,2:2|2:0,0:0:0:0:
182,274,51914,2,0,B|242:257|260:323|329:305,1,150,8|10,2:3|2:2,0:0:0:0:
388,254,52456,1,8,2:3:0:0:
428,325,52637,6,0,L|434:151,1,150,8|10,2:3|2:2,0:0:0:0:
365,127,53179,1,0,0:0:0:0:
296,173,53360,2,0,L|301:322,1,150,8|10,2:3|2:2,0:0:0:0:
222,296,53902,1,2,0:0:0:0:
222,296,53992,1,2,2:0:0:0:
222,296,54082,6,0,P|170:294|139:310,1,75,8|2,2:3|2:0,0:0:0:0:
81,350,54444,1,10,2:2:0:0:
81,350,54625,1,0,2:0:0:0:
43,277,54805,2,0,L|35:183,1,75,8|0,2:3|0:0,0:0:0:0:
31,161,55076,1,2,0:0:0:0:
31,161,55167,2,0,P|76:161|108:141,1,75,10|8,2:2|2:3,0:0:0:0:
139,73,55528,6,0,P|204:51|261:93,1,112.5,8|0,2:3|2:0,0:0:0:0:
268,98,55890,2,0,L|262:197,1,75,10|0,2:2|2:0,0:0:0:0:
326,225,56251,2,0,P|382:243|458:181,2,150,8|10|8,2:3|2:2|2:3,0:0:0:0:
258,273,57155,5,2,2:0:0:0:
183,238,57335,2,0,P|128:226|98:234,1,75,10|0,2:2|2:0,0:0:0:0:
74,250,57607,1,2,0:0:0:0:
74,250,57697,2,0,P|87:304|82:341,1,75,8|0,2:3|0:0,0:0:0:0:
164,346,58058,2,0,L|264:340,1,75,10|8,2:2|2:3,0:0:0:0:
320,357,58420,6,0,P|348:290|306:221,1,150,8|10,2:3|2:2,0:0:0:0:
241,185,58962,1,0,2:0:0:0:
241,185,59143,2,0,L|73:203,1,150,8|10,2:3|2:2,0:0:0:0:
38,138,59685,1,2,2:0:0:0:
90,73,59866,6,0,P|139:79|173:95,1,75,8|2,2:3|2:0,0:0:0:0:
189,120,60137,1,2,2:0:0:0:
189,120,60227,2,0,P|236:104|267:104,1,75,10|0,2:2|2:0,0:0:0:0:
331,60,60588,1,8,2:3:0:0:
331,60,60769,1,0,0:0:0:0:
404,96,60950,2,0,P|395:140|414:178,1,75,8|8,2:2|2:3,0:0:0:0:
485,187,61311,6,0,L|481:12,1,150,12|10,2:2|2:2,0:0:0:0:
399,21,61854,1,0,0:0:0:0:
328,63,62034,2,0,B|283:67|283:67|233:44|233:44|172:47,1,150,8|10,2:3|2:2,0:0:0:0:
117,96,62576,1,2,0:0:0:0:
117,96,62667,1,2,2:0:0:0:
117,96,62757,6,0,P|69:85|39:92,1,75,8|2,2:3|2:0,0:0:0:0:
29,171,63119,2,0,P|47:223|43:259,1,75,10|0,2:2|2:0,0:0:0:0:
35,324,63480,2,0,P|93:342|149:309,1,112.5,8|0,2:3|2:0,0:0:0:0:
157,285,63842,2,0,P|206:287|239:302,1,75,10|8,2:2|2:3,0:0:0:0:
295,346,64203,6,0,P|365:329|453:356,1,150,8|10,2:3|2:2,0:0:0:0:
499,290,64745,1,0,0:0:0:0:
444,227,64926,2,0,P|372:245|299:228,1,150,8|10,2:3|2:2,0:0:0:0:
225,192,65468,1,2,0:0:0:0:
225,192,65558,1,2,2:0:0:0:
225,192,65649,6,0,L|223:94,1,75,8|2,2:3|2:0,0:0:0:0:
167,56,66010,2,0,P|114:43|78:44,1,75,10|0,2:2|2:0,0:0:0:0:
52,45,66281,1,2,0:0:0:0:
52,45,66372,2,0,P|64:101|58:129,1,75,8|0,2:3|0:0,0:0:0:0:
58,200,66733,2,0,L|8:197,2,37.5,10|0|8,2:2|0:0|2:3,0:0:0:0:
127,245,67095,6,0,P|188:234|212:145,1,150,8|10,2:3|2:2,0:0:0:0:
289,118,67637,1,0,0:0:0:0:
364,151,67817,2,0,L|363:310,1,150,8|10,2:3|2:2,0:0:0:0:
434,343,68360,1,2,2:0:0:0:
434,343,68450,1,2,0:0:0:0:
434,343,68540,6,0,P|351:326|277:343,1,150,8|10,2:3|2:2,0:0:0:0:
224,285,69082,1,0,0:0:0:0:
224,285,69263,2,0,P|202:206|233:129,1,150,8|8,2:3|2:2,0:0:0:0:
297,109,69805,1,8,2:3:0:0:
363,158,69986,6,0,L|444:156,1,75,8|0,2:3|0:0,0:0:0:0:
438,239,70348,2,0,L|351:239,1,75,10|2,2:2|2:0,0:0:0:0:
283,262,70709,2,0,P|223:243|148:266,1,112.5,8|0,2:3|0:0,0:0:0:0:
141,274,71070,2,0,L|136:180,1,75,10|0,2:2|2:0,0:0:0:0:
72,146,71432,5,8,2:3:0:0:
115,75,71613,1,2,2:0:0:0:
115,75,71703,1,2,2:0:0:0:
115,75,71793,1,10,2:2:0:0:
193,100,71974,2,0,L|254:95,1,37.5,0|0,2:0|0:0,0:0:0:0:
268,79,72155,2,0,P|268:153|274:180,1,75,8|0,2:3|2:0,0:0:0:0:
347,178,72516,2,0,L|404:175,1,37.5,8|8,2:2|2:3,0:0:0:0:
423,188,72697,2,0,L|483:185,1,37.5,2|0,2:2|2:0,0:0:0:0:
498,203,72878,5,12,2:2:0:0:
456,274,73058,1,2,2:0:0:0:
373,270,73239,2,0,P|332:267|291:282,1,75,8|2,2:2|2:0,0:0:0:0:
277,311,73510,1,2,2:0:0:0:
277,311,73601,2,0,P|226:304|192:309,1,75,8|0,2:3|2:0,0:0:0:0:
127,272,73962,1,10,2:2:0:0:
127,272,74143,1,0,2:0:0:0:
84,342,74323,6,0,L|76:175,1,150,8|10,2:3|2:2,0:0:0:0:
130,128,74866,1,0,0:0:0:0:
130,128,75046,2,0,P|203:117|231:194,1,150,8|10,2:3|2:2,0:0:0:0:
379,95,75769,6,0,P|438:93|462:77,1,75,8|0,2:3|2:0,0:0:0:0:
486,160,76131,1,10,2:2:0:0:
430,220,76311,1,2,2:0:0:0:
430,220,76402,1,2,2:0:0:0:
430,220,76492,2,0,L|438:321,1,75,8|0,2:3|2:0,0:0:0:0:
363,335,76854,2,0,P|313:333|284:312,1,75,10|0,2:2|2:0,0:0:0:0:
250,249,77215,6,0,L|256:83,1,150,8|10,2:3|2:2,0:0:0:0:
185,55,77757,1,0,2:0:0:0:
128,114,77938,2,0,P|61:129|62:220,1,150,8|10,2:3|2:2,0:0:0:0:
89,272,78480,1,2,0:0:0:0:
89,272,78570,1,2,2:0:0:0:
89,272,78661,6,0,P|78:322|86:357,1,75,8|0,2:3|2:0,0:0:0:0:
164,350,79022,2,0,L|251:346,1,75,10|2,2:2|2:0,0:0:0:0:
269,318,79293,1,2,2:0:0:0:
269,318,79384,2,0,L|359:313,1,75,8|0,2:3|2:0,0:0:0:0:
419,346,79745,1,10,2:2:0:0:
419,346,79926,1,0,2:0:0:0:
473,284,80107,6,0,P|475:220|472:132,1,150,8|10,2:3|2:2,0:0:0:0:
398,95,80649,1,0,0:0:0:0:
398,95,80829,2,0,P|329:128|246:95,1,150,8|10,2:3|2:2,0:0:0:0:
96,115,81552,6,0,L|6:113,1,75,8|0,2:3|2:0,0:0:0:0:
34,196,81914,2,0,P|29:244|36:282,2,75,10|2|8,2:2|2:0|2:3,0:0:0:0:
112,222,82456,1,2,2:0:0:0:
139,149,82637,2,0,P|179:146|214:122,1,75,10|0,2:2|2:0,0:0:0:0:
263,67,82998,6,0,L|424:74,2,150,10|10|8,2:2|2:2|2:3,0:0:0:0:
187,32,83902,1,8,2:3:0:0:
187,32,84082,2,0,P|118:49|90:41,1,75,10|0,2:2|0:0,0:0:0:0:
33,57,84444,6,0,P|58:133|35:214,1,150,8|10,2:3|2:2,0:0:0:0:
108,249,84986,1,2,2:0:0:0:
176,203,85167,2,0,L|256:208,1,75,8|2,2:3|2:0,0:0:0:0:
309,266,85528,2,0,L|397:261,1,75,10|2,2:2|2:0,0:0:0:0:
445,317,85890,6,0,P|435:262|454:168,1,150,8|10,2:3|2:2,0:0:0:0:
434,90,86432,1,0,2:0:0:0:
364,133,86613,1,10,2:2:0:0:
364,133,86703,1,10,2:0:0:0:
364,133,86793,1,10,2:2:0:0:
290,94,86974,5,12,2:2:0:0:
