osu file format v14

[General]
AudioFilename: audio.mp3
AudioLeadIn: 0
PreviewTime: 58411
Countdown: 0
SampleSet: None
StackLeniency: 0.4
Mode: 0
LetterboxInBreaks: 0
WidescreenStoryboard: 1

[Editor]
DistanceSpacing: 1
BeatDivisor: 4
GridSize: 16
TimelineZoom: 2

[Metadata]
Title:Saiaku no Hi demo Anata ga Suki (TV Size)
TitleUnicode:最悪な日でもあなたが好き (TV Size)
Artist:Yuu Serizawa
ArtistUnicode:芹澤優
Creator:Luna-
Version:Easy
Source:異世界魔王と召喚少女の奴隷魔術
Tags:How Not to Summon a Demon Lord Isekai Maou to Shoukan Shoujo no Dorei Majutsu I Like You Even on the Worst Day HoneyWorks
BeatmapID:1709415
BeatmapSetID:814851

[Difficulty]
HPDrainRate:2
CircleSize:3
OverallDifficulty:2
ApproachRate:3
SliderMultiplier:0.799999999999999
SliderTickRate:1

[Events]
//Background and Video events
0,0,"4.jpg",0,0
//Break Periods
//Storyboard Layer 0 (Background)
//Storyboard Layer 1 (Fail)
//Storyboard Layer 2 (Pass)
//Storyboard Layer 3 (Foreground)
//Storyboard Sound Samples

[TimingPoints]
508,322.58064516129,4,2,1,50,1,0
508,-100,4,2,1,50,0,0
14701,-100,4,2,1,70,0,0
19862,-100,4,1,1,80,0,0
22443,-100,4,2,1,50,0,0
34056,-100,4,2,1,60,0,0
35346,-100,4,1,1,70,0,0
45669,-100,4,2,1,80,0,0
46959,-100,4,2,1,50,0,0
48249,-100,4,1,1,70,0,0
50830,-100,4,2,1,80,0,0
52120,-100,4,2,1,50,0,0
53411,-100,4,1,1,70,0,0
55991,-100,4,2,1,50,0,0
58572,-100,4,1,1,80,0,0
66314,-100,4,1,1,90,0,0
68895,-100,4,1,1,80,0,0
76637,-100,4,1,1,90,0,0
78088,-100,4,1,1,80,0,0
79217,-100,4,1,1,70,0,0

[Colours]
Combo1 : 208,255,255
Combo2 : 206,255,206
Combo3 : 255,255,210
Combo4 : 252,203,210

[HitObjects]
305,103,508,6,0,P|383:82|477:90,1,160,2|0,0:0|0:0,0:0:0:0:
398,233,1798,1,2,0:0:0:0:
248,177,2443,1,0,0:0:0:0:
183,323,3088,6,0,P|103:327|26:306,2,160,2|0|2,0:0|0:0|0:0,0:0:0:0:
248,177,5024,1,2,0:0:0:0:
123,76,5669,6,0,B|204:107|202:49|278:72,1,160,2|0,0:0|0:0,0:0:0:0:
403,172,6959,2,0,B|322:141|324:199|247:175,1,160,2|0,0:0|0:0,0:0:0:0:
97,230,8249,6,0,B|82:308|82:308|100:362,2,120,2|2|2,0:0|0:0|0:0,0:0:0:0:
415,154,10830,6,0,B|430:76|430:76|412:22,2,120,2|2|2,0:0|0:0|0:0,0:0:0:0:
256,192,12120,12,2,14701,0:0:0:0:
251,192,15991,6,0,B|330:179|330:179|381:190,1,120,12|8,0:0|0:3,0:0:0:0:
472,248,16959,1,8,0:3:0:0:
502,173,17282,2,0,P|506:94|463:29,2,160,4|4|8,0:0|0:0|0:3,0:0:0:0:
378,275,19217,1,8,0:3:0:0:
243,188,19862,6,0,P|188:188|158:191,1,79.9999999999999,4|8,0:0|0:0,0:0:0:0:
129,263,20507,2,0,P|74:262|44:260,1,79.9999999999999,2|8,0:2|0:0,0:0:0:0:
6,191,21153,2,0,P|40:122|115:105,2,160,2|2|4,0:2|0:3|0:0,0:0:0:0:
282,352,23733,1,2,0:0:0:0:
474,96,25024,6,0,L|382:92,1,79.9999999999999,2|2,0:3|0:3,0:0:0:0:
322,127,25669,2,0,P|315:84|330:44,2,79.9999999999999,2|2|2,0:3|0:3|0:3,0:0:0:0:
322,207,26637,2,0,L|230:203,1,79.9999999999999,2|2,0:3|0:3,0:0:0:0:
162,199,27282,1,2,0:3:0:0:
89,166,27604,6,0,P|82:209|97:249,2,79.9999999999999,2|2|2,0:3|0:3|0:3,0:0:0:0:
118,91,28572,1,2,0:3:0:0:
189,54,28895,2,0,L|354:59,1,160,2|2,0:3|0:3,0:0:0:0:
456,177,30185,6,0,L|291:172,1,160,2|2,0:3|0:3,0:0:0:0:
216,177,31153,1,2,0:3:0:0:
180,255,31475,2,0,B|101:285|104:230|23:248,2,160,2|2|2,0:0|0:0|0:0,0:0:0:0:
500,259,34056,6,0,L|497:179,1,79.9999999999999,2|8,0:3|0:0,0:0:0:0:
417,188,34701,2,0,L|414:108,1,79.9999999999999,2|4,0:3|0:0,0:0:0:0:
361,48,35346,6,0,B|282:18|285:73|204:55,1,160,4|2,0:0|0:2,0:0:0:0:
125,58,36314,1,8,0:0:0:0:
82,126,36637,2,0,B|56:163|59:208|59:208|95:230|103:263,1,160,2|2,0:2|0:2,0:0:0:0:
231,357,37927,6,0,P|241:278|232:199,1,160,2|2,0:2|0:2,0:0:0:0:
238,119,38895,1,8,0:0:0:0:
281,51,39217,2,0,P|354:41|381:122,1,160,2|2,0:2|0:2,0:0:0:0:
392,269,40507,6,0,P|431:271|470:261,1,79.9999999999999,6|8,0:2|0:0,0:0:0:0:
450,184,41153,2,0,P|479:157|500:123,1,79.9999999999999,2|8,0:2|0:0,0:0:0:0:
466,50,41798,1,2,0:2:0:0:
388,29,42120,6,0,L|304:25,1,79.9999999999999,8|2,0:0|0:2,0:0:0:0:
227,26,42766,1,8,0:0:0:0:
166,78,43088,2,0,P|172:162|159:241,1,160,2|2,0:2|0:2,0:0:0:0:
290,329,44378,6,0,B|368:309|368:309|416:314,1,120,2|2,0:3|0:3,0:0:0:0:
487,319,45185,1,12,0:0:0:0:
459,202,45669,6,0,L|467:122,1,79.9999999999999,2|2,0:1|0:1,0:0:0:0:
239,44,46959,2,0,L|222:203,1,160,2|2,0:0|0:0,0:0:0:0:
196,361,48249,6,0,P|138:327|37:342,1,160,4|8,0:0|0:0,0:0:0:0:
61,175,49540,2,0,L|52:92,1,79.9999999999999,8|0,0:0|0:0,0:0:0:0:
132,102,50185,2,0,L|141:19,1,79.9999999999999,0|0,0:0|0:0,0:0:0:0:
220,31,50830,6,0,P|259:31|299:24,1,79.9999999999999,2|2,0:1|0:1,0:0:0:0:
494,164,52120,2,0,P|424:126|345:129,1,160,2|2,0:0|0:0,0:0:0:0:
238,248,53411,6,0,P|158:250|89:213,1,160,4|8,0:0|0:0,0:0:0:0:
195,93,54701,1,0,0:0:0:0:
268,60,55023,6,0,P|275:103|260:143,2,79.9999999999999,0|0|8,0:0|0:0|0:0,0:0:0:0:
256,192,55991,12,2,58572,0:0:0:0:
290,237,59862,6,0,P|328:225|378:226,1,79.9999999999999,2|8,0:2|0:0,0:0:0:0:
383,145,60507,2,0,P|418:163|453:199,1,79.9999999999999,2|8,0:2|0:0,0:0:0:0:
486,261,61153,6,0,B|484:339|484:339|447:368,1,120,2|2,0:0|0:0,0:0:0:0:
333,340,62120,1,2,0:0:0:0:
258,310,62443,2,0,P|220:298|170:299,1,79.9999999999999,2|2,0:2|0:2,0:0:0:0:
115,344,63088,2,0,P|77:356|27:355,1,79.9999999999999,2|0,0:2|0:0,0:0:0:0:
30,276,63733,6,0,B|5:241|14:200|14:200|46:173|33:110,1,160,4|0,0:0|0:0,0:0:0:0:
166,33,65024,2,0,L|253:37,1,79.9999999999999,2|0,0:2|0:0,0:0:0:0:
276,110,65669,2,0,L|355:113,1,79.9999999999999,2|2,0:2|0:2,0:0:0:0:
396,44,66314,6,0,P|434:89|424:163,2,120,6|6|6,0:0|0:0|0:0,0:0:0:0:
29,204,68895,6,0,P|104:185|193:199,1,160,4|2,0:0|0:2,0:0:0:0:
334,253,70185,2,0,P|344:214|338:175,1,79.9999999999999,2|8,0:2|0:0,0:0:0:0:
416,156,70830,2,0,P|396:121|364:98,1,79.9999999999999,2|8,0:2|0:0,0:0:0:0:
293,60,71475,6,0,B|215:77|215:77|165:68,1,120,2|2,0:0|0:0,0:0:0:0:
57,45,72443,1,2,0:0:0:0:
28,120,72766,2,0,L|30:213,1,79.9999999999999,2|2,0:2|0:2,0:0:0:0:
109,202,73411,2,0,L|111:295,1,79.9999999999999,2|0,0:2|0:0,0:0:0:0:
181,318,74056,6,0,B|260:288|257:343|338:325,1,160,4|0,0:0|0:0,0:0:0:0:
488,273,75346,2,0,P|478:234|444:198,1,79.9999999999999,2|8,0:2|0:0,0:0:0:0:
510,148,75991,2,0,P|475:127|425:126,1,79.9999999999999,2|2,0:2|0:2,0:0:0:0:
356,136,76637,6,0,P|343:78|352:19,2,120,6|6|6,0:0|0:0|0:0,0:0:0:0:
222,223,78249,2,0,P|176:195|146:191,2,79.9999999999999,8|8|8,0:0|0:0|0:0,0:0:0:0:
269,287,79217,6,0,B|354:266|340:323|424:294,1,160,6|10,0:0|0:0,0:0:0:0:
482,239,80185,1,0,0:0:0:0:
466,160,80507,2,0,P|429:173|407:206,1,79.9999999999999,2|0,0:0|0:0,0:0:0:0:
326,202,81153,2,0,P|303:169|266:155,1,79.9999999999999,10|2,0:0|0:0,0:0:0:0:
188,170,81798,6,0,P|131:188|74:174,2,120,2|10|2,0:0|0:0|0:0,0:0:0:0:
421,49,84378,6,0,P|424:128|437:207,1,160,2|10,0:0|0:0,0:0:0:0:
451,286,85346,1,0,0:0:0:0:
373,261,85669,2,0,P|335:251|296:259,1,79.9999999999999,2|0,0:0|0:0,0:0:0:0:
241,317,86314,2,0,P|202:327|163:319,1,79.9999999999999,10|2,0:0|0:0,0:0:0:0:
89,288,86959,6,0,P|102:226|91:159,2,120,6|6|6,0:0|0:0|0:0,0:0:0:0:
