osu file format v14

[General]
AudioFilename: audio.mp3
AudioLeadIn: 0
PreviewTime: 79687
Countdown: 0
SampleSet: Normal
StackLeniency: 0.7
Mode: 0
LetterboxInBreaks: 0
WidescreenStoryboard: 0

[Editor]
DistanceSpacing: 1
BeatDivisor: 4
GridSize: 16
TimelineZoom: 2.2

[Metadata]
Title:Katamari on the Rocks ~ Main Theme
TitleUnicode:塊オンザロック~メインテーマ
Artist:Yuu Miyake & Masayuki Tanaka
ArtistUnicode:三宅 優 & 田中 昌之
Creator:GearChinese
Version:Nanana
Source:みんな大好き塊魂
Tags:katamari damacy yu miyake japanese video game
BeatmapID:4576801
BeatmapSetID:2168954

[Difficulty]
HPDrainRate:5
CircleSize:4
OverallDifficulty:8.6
ApproachRate:9
SliderMultiplier:1.9
SliderTickRate:1

[Events]
//Background and Video events
0,0,"maxresdefault.jpg",0,0
//Break Periods
2,31887,352837
//Storyboard Layer 0 (Background)
//Storyboard Layer 1 (Fail)
//Storyboard Layer 2 (Pass)
//Storyboard Layer 3 (Foreground)
//Storyboard Layer 4 (Overlay)
//Storyboard Sound Samples

[TimingPoints]
187,375,4,1,0,60,1,0

[HitObjects]
26,124,187,6,0,L|102:104,1,47.5
172,213,374,2,0,L|161:159,1,47.5
310,266,562,2,0,L|251:274,1,47.5
407,328,749,2,0,L|413:381,1,47.5
407,328,1124,6,0,L|400:260,1,47.5
449,147,1312,5,0,0:0:0:0:
406,127,1405,1,0,0:0:0:0:
361,142,1499,1,0,0:0:0:0:
216,282,1687,5,0,0:0:0:0:
315,183,1874,2,0,L|312:128,2,47.5
221,313,2249,1,0,0:0:0:0:
263,291,2343,1,0,0:0:0:0:
306,272,2437,1,0,0:0:0:0:
347,250,2530,1,0,0:0:0:0:
388,229,2624,2,0,L|352:269,1,47.5
221,343,2812,1,0,0:0:0:0:
127,223,2999,1,0,0:0:0:0:
79,225,3093,1,0,0:0:0:0:
31,225,3187,5,0,0:0:0:0:
16,35,3374,1,0,0:0:0:0:
55,62,3468,2,0,P|72:101|76:128,1,47.5
205,147,3749,1,0,0:0:0:0:
192,192,3843,1,0,0:0:0:0:
162,229,3937,1,0,0:0:0:0:
117,243,4030,1,0,0:0:0:0:
69,243,4124,2,0,L|93:197,1,47.5
174,68,4312,1,0,0:0:0:0:
272,181,4499,1,0,0:0:0:0:
257,227,4593,1,0,0:0:0:0:
275,272,4687,5,0,0:0:0:0:
421,105,4874,2,0,L|473:107,2,47.5
288,59,5249,1,0,0:0:0:0:
290,106,5343,1,0,0:0:0:0:
291,153,5437,1,0,0:0:0:0:
291,200,5530,1,0,0:0:0:0:
291,247,5624,2,0,L|274:199,1,47.5
256,65,5812,1,0,0:0:0:0:
163,210,5999,1,0,0:0:0:0:
209,202,6093,1,0,0:0:0:0:
255,193,6187,5,0,0:0:0:0:
263,375,6374,1,0,0:0:0:0:
224,347,6468,2,0,P|211:324|201:290,1,47.5
78,120,6749,1,0,0:0:0:0:
67,166,6843,2,0,P|58:205|44:232,1,47.5
34,370,7030,1,0,0:0:0:0:
74,344,7124,1,0,0:0:0:0:
108,311,7218,1,0,0:0:0:0:
128,267,7312,1,0,0:0:0:0:
137,220,7405,1,0,0:0:0:0:
111,179,7499,1,0,0:0:0:0:
109,226,7593,1,0,0:0:0:0:
143,258,7687,5,0,0:0:0:0:
54,131,7874,2,0,L|-1:137,2,47.5
219,69,8249,1,0,0:0:0:0:
265,60,8343,1,0,0:0:0:0:
311,49,8437,1,0,0:0:0:0:
356,38,8530,1,0,0:0:0:0:
402,29,8624,2,0,L|350:62,1,47.5
184,142,8812,1,0,0:0:0:0:
346,200,8999,1,0,0:0:0:0:
349,247,9093,1,0,0:0:0:0:
351,294,9187,5,0,0:0:0:0:
197,262,9374,1,0,0:0:0:0:
213,217,9468,2,0,P|241:191|266:178,1,47.5
277,329,9749,1,0,0:0:0:0:
240,360,9843,1,0,0:0:0:0:
194,374,9937,1,0,0:0:0:0:
150,368,10030,1,0,0:0:0:0:
111,349,10124,2,0,L|73:301,1,47.5
20,148,10312,1,0,0:0:0:0:
64,162,10405,1,0,0:0:0:0:
101,191,10499,1,0,0:0:0:0:
120,234,10593,1,0,0:0:0:0:
127,280,10687,5,0,0:0:0:0:
293,200,10874,2,0,L|225:171,2,47.5
116,61,11249,1,0,0:0:0:0:
127,107,11343,1,0,0:0:0:0:
141,152,11437,1,0,0:0:0:0:
152,197,11530,1,0,0:0:0:0:
165,242,11624,2,0,L|187:187,1,47.5
243,64,11812,1,0,0:0:0:0:
165,242,11999,1,0,0:0:0:0:
136,280,12093,1,0,0:0:0:0:
112,321,12187,5,0,0:0:0:0:
30,187,12374,1,0,0:0:0:0:
76,177,12468,2,0,P|114:178|131:181,1,47.5
275,268,12655,1,0,0:0:0:0:
243,232,12749,1,0,0:0:0:0:
92,359,12937,1,0,0:0:0:0:
298,363,13124,1,0,0:0:0:0:
140,247,13312,1,0,0:0:0:0:
92,247,13405,1,0,0:0:0:0:
50,273,13499,5,0,0:0:0:0:
49,241,13562,5,0,0:0:0:0:
50,209,13624,5,0,0:0:0:0:
52,177,13687,5,0,0:0:0:0:
160,15,13874,2,0,L|169:78,2,47.5
32,109,14249,1,0,0:0:0:0:
76,126,14343,1,0,0:0:0:0:
120,143,14437,1,0,0:0:0:0:
164,157,14530,1,0,0:0:0:0:
208,174,14624,2,0,L|155:214,1,47.5
56,321,14812,1,0,0:0:0:0:
13,162,14999,1,0,0:0:0:0:
28,116,15093,1,0,0:0:0:0:
43,70,15187,5,0,0:0:0:0:
240,38,15374,1,0,0:0:0:0:
197,59,15468,2,0,P|157:65|123:60,1,47.5
295,149,15749,1,0,0:0:0:0:
297,101,15843,1,0,0:0:0:0:
322,60,15937,1,0,0:0:0:0:
359,31,16030,1,0,0:0:0:0:
404,17,16124,2,0,L|416:71,1,47.5
448,198,16312,1,0,0:0:0:0:
302,272,16499,1,0,0:0:0:0:
254,269,16593,1,0,0:0:0:0:
212,246,16687,5,0,0:0:0:0:
60,342,16874,2,0,L|93:269,2,47.5
238,286,17249,1,0,0:0:0:0:
224,240,17343,1,0,0:0:0:0:
209,194,17437,1,0,0:0:0:0:
195,148,17530,1,0,0:0:0:0:
180,102,17624,2,0,L|232:115,1,47.5
366,137,17812,1,0,0:0:0:0:
365,277,17999,1,0,0:0:0:0:
411,267,18093,1,0,0:0:0:0:
457,257,18187,5,0,0:0:0:0:
339,358,18374,1,0,0:0:0:0:
300,329,18468,2,0,P|256:318|222:318,1,47.5
90,267,18749,1,0,0:0:0:0:
102,221,18843,2,0,P|111:193|131:160,1,47.5
261,145,19030,1,0,0:0:0:0:
276,189,19124,1,0,0:0:0:0:
297,231,19218,1,0,0:0:0:0:
335,257,19311,1,0,0:0:0:0:
378,277,19405,1,0,0:0:0:0:
425,281,19499,1,0,0:0:0:0:
386,308,19593,1,0,0:0:0:0:
369,352,19687,5,0,0:0:0:0:
497,235,19874,2,0,L|491:178,2,47.5
306,143,20249,1,0,0:0:0:0:
348,121,20343,1,0,0:0:0:0:
395,113,20437,1,0,0:0:0:0:
442,113,20530,1,0,0:0:0:0:
489,120,20624,2,0,L|451:163,1,47.5
340,281,20812,1,0,0:0:0:0:
196,161,20999,1,0,0:0:0:0:
196,113,21093,1,0,0:0:0:0:
216,69,21187,5,0,0:0:0:0:
29,104,21374,2,0,L|13:35,2,47.5
183,231,21749,1,0,0:0:0:0:
146,262,21843,1,0,0:0:0:0:
109,292,21937,1,0,0:0:0:0:
76,325,22030,1,0,0:0:0:0:
41,357,22124,2,0,L|27:296,1,47.5
5,180,22312,1,0,0:0:0:0:
194,261,22499,1,0,0:0:0:0:
146,262,22593,1,0,0:0:0:0:
99,262,22687,5,0,0:0:0:0:
217,145,22874,1,0,0:0:0:0:
263,133,22968,2,0,P|293:132|332:137,1,47.5
501,236,23249,1,0,0:0:0:0:
491,282,23343,1,0,0:0:0:0:
468,323,23437,1,0,0:0:0:0:
428,349,23530,1,0,0:0:0:0:
380,351,23624,2,0,L|377:298,1,47.5
370,165,23812,1,0,0:0:0:0:
477,19,23999,1,0,0:0:0:0:
490,64,24093,1,0,0:0:0:0:
482,110,24187,5,0,0:0:0:0:
351,250,24374,2,0,L|282:261,2,47.5
496,375,24749,1,0,0:0:0:0:
494,327,24843,1,0,0:0:0:0:
491,279,24937,1,0,0:0:0:0:
487,232,25030,1,0,0:0:0:0:
483,184,25124,1,0,0:0:0:0:
479,136,25218,1,0,0:0:0:0:
475,88,25312,1,0,0:0:0:0:
414,212,25499,1,0,0:0:0:0:
418,259,25593,1,0,0:0:0:0:
256,192,27937,12,0,29437,0:0:0:0:
256,192,31687,5,0,0:0:0:0:
290,186,353437,5,0,0:0:0:0:
