osu file format v14

[General]
AudioFilename: audio.mp3
AudioLeadIn: 0
PreviewTime: -1
Countdown: 1
SampleSet: None
StackLeniency: 0.7
Mode: 0
LetterboxInBreaks: 0
WidescreenStoryboard: 0

[Editor]
DistanceSpacing: 1.2
BeatDivisor: 2
GridSize: 32
TimelineZoom: 0.2999999

[Metadata]
Title:Hokkaido Fantasy
TitleUnicode:Hokkaido Fantasy
Artist:Yutsuki
ArtistUnicode:北海道ファンタジ
Creator:Hyper_Noire
Version:Easy
Source:
Tags:
BeatmapID:1344991
BeatmapSetID:633780

[Difficulty]
HPDrainRate:5
CircleSize:5
OverallDifficulty:5
ApproachRate:5
SliderMultiplier:1.4
SliderTickRate:1

[Events]
//Background and Video events
0,0,"62406557_p0.png",0,0
//Break Periods
2,98259,110863
2,147262,160868
//Storyboard Layer 0 (Background)
//Storyboard Layer 1 (Fail)
//Storyboard Layer 2 (Pass)
//Storyboard Layer 3 (Foreground)
//Storyboard Sound Samples

[TimingPoints]
16051.7415973474,500.058919503871,4,1,0,100,1,0

[HitObjects]
256,192,11075,12,0,13572,0:0:0:0:
256,192,16055,5,0,0:0:0:0:
256,96,17051,1,0,0:0:0:0:
384,96,18051,1,0,0:0:0:0:
160,96,19552,1,0,0:0:0:0:
256,192,21052,1,0,0:0:0:0:
192,288,23052,2,0,B|352:288|320:288|320:288|384:288,1,140
416,64,24552,1,0,0:0:0:0:
96,64,25552,1,0,0:0:0:0:
256,64,26552,1,0,0:0:0:0:
256,192,28053,6,0,B|256:352|256:320|256:320|352:288,2,140
256,192,29553,12,0,30552,0:0:0:0:
256,192,32053,5,0,0:0:0:0:
256,32,33053,1,0,0:0:0:0:
128,64,34053,1,0,0:0:0:0:
128,192,35053,2,0,B|416:192|384:192|384:192|448:192|416:224,1,280
416,96,37054,1,0,0:0:0:0:
256,32,38054,1,0,0:0:0:0:
256,192,39054,1,0,0:0:0:0:
256,192,40054,2,0,B|256:352|256:320|256:320|192:288,1,140
96,320,41054,2,0,B|96:160|96:192|96:192|96:224,1,140
256,192,42054,2,0,B|256:352|256:320|256:320|256:288,1,140
416,320,43054,2,0,P|416:160|416:192,1,140
320,64,44055,2,0,P|160:64|192:64,1,140
256,192,46055,1,0,0:0:0:0:
256,256,47055,1,0,0:0:0:0:
256,320,48055,1,0,0:0:0:0:
320,160,48555,2,0,P|160:160|160:160,1,140
96,64,50055,1,0,0:0:0:0:
256,64,50555,1,0,0:0:0:0:
416,64,51055,1,0,0:0:0:0:
416,192,52055,2,0,P|416:32|416:64,1,140
256,64,53056,2,0,B|256:224|256:224|160:224,1,140
96,192,54056,2,0,B|96:32|96:32|96:64,1,140
256,352,55556,6,0,B|256:192|256:192|256:352,1,280
352,192,57056,1,0,0:0:0:0:
256,64,57556,1,0,0:0:0:0:
160,192,58056,1,0,0:0:0:0:
256,256,59056,2,0,P|256:96|256:96,1,140
64,192,60556,1,0,0:0:0:0:
256,320,61557,1,0,0:0:0:0:
448,192,62557,1,0,0:0:0:0:
256,32,63557,6,0,B|256:320|256:288|256:288|256:352|160:320,1,280
256,192,65557,12,0,68054,0:0:0:0:
96,64,69057,6,0,P|384:64|384:64,1,280
416,128,71058,2,0,L|128:128,1,280
96,192,73058,2,0,P|384:192|384:192,1,280
416,256,75058,2,0,P|128:256|128:256,1,280
96,320,77058,2,0,P|384:320|384:320,1,280
256,192,79059,12,0,82056,0:0:0:0:
64,64,83059,6,0,B|64:224|64:224|192:224|192:224,1,280
256,192,85059,1,0,0:0:0:0:
320,224,86059,6,0,B|448:224|448:224|448:64,1,280
192,288,88060,1,0,0:0:0:0:
320,288,89060,1,0,0:0:0:0:
256,320,90060,1,0,0:0:0:0:
256,224,91060,1,0,0:0:0:0:
256,64,92560,2,0,P|256:352|256:256,2,280
256,192,95561,12,0,98059,0:0:0:0:
256,192,112063,5,0,0:0:0:0:
416,32,113063,2,0,L|224:32,1,140
96,96,115063,2,0,L|288:96,1,140
416,160,117063,2,0,P|224:160|224:160,1,140
160,256,119063,1,0,0:0:0:0:
352,256,119563,1,0,0:0:0:0:
256,320,120063,2,0,L|256:128,1,140
320,320,121064,2,0,L|320:128,1,140
256,320,122064,2,0,L|256:160,1,140
192,320,123064,2,0,L|192:160,1,140
64,64,124064,2,0,L|384:64,1,280
416,320,126064,2,0,L|96:320,1,280
64,64,128064,2,0,L|128:128,1,70
96,288,129565,2,0,L|256:288,1,140
416,288,130565,2,0,L|256:288,1,140
192,64,132065,2,0,L|192:224,1,140
320,64,133065,2,0,L|320:224,1,140
320,224,134065,2,0,L|160:224,1,140
320,288,135065,2,0,L|160:288,1,140
256,64,136065,1,0,0:0:0:0:
256,224,136565,2,0,P|256:384|256:352,2,140
192,64,138066,2,0,L|352:64,2,140
192,224,139566,2,0,P|352:224|320:224,2,140
160,64,141066,1,0,0:0:0:0:
352,64,141566,1,0,0:0:0:0:
256,32,142066,6,0,P|256:192|256:192,3,140
256,192,144066,12,0,147062,0:0:0:0:
256,192,162068,5,0,0:0:0:0:
32,32,163069,2,0,P|32:224|32:224,1,140
96,32,164069,2,0,L|96:192,1,140
160,32,165069,2,0,L|160:192,1,140
256,288,166069,1,0,0:0:0:0:
352,160,166569,2,0,L|352:0,1,140
416,160,167569,2,0,L|416:0,1,140
480,160,168569,2,0,L|480:0,1,140
256,160,169569,1,0,0:0:0:0:
192,320,170069,2,0,L|352:320,3,140
256,192,172070,12,0,177564,0:0:0:0:
64,96,178070,6,0,L|64:256,1,140
160,256,179070,1,0,0:0:0:0:
192,96,179571,2,0,L|352:96,1,140
352,256,180571,1,0,0:0:0:0:
448,224,181071,2,0,L|448:64,1,140
320,160,182071,2,0,P|160:160|160:160,2,140
192,256,183571,2,0,L|352:256,2,140
192,352,185071,2,0,P|352:352|352:352,2,140
256,192,186571,2,0,P|256:32|256:32,2,140
96,192,188072,1,0,0:0:0:0:
256,32,188572,1,0,0:0:0:0:
96,32,189072,1,0,0:0:0:0:
96,192,189572,1,0,0:0:0:0:
256,192,190072,1,0,0:0:0:0:
416,192,190572,1,0,0:0:0:0:
416,32,191072,1,0,0:0:0:0:
256,32,191572,2,0,P|256:192|256:192,2,140
128,128,193072,1,0,0:0:0:0:
256,224,193572,1,0,0:0:0:0:
384,128,194072,1,0,0:0:0:0:
256,32,194572,2,0,L|256:192,1,140
256,352,195572,2,0,L|256:192,1,140
256,32,196573,1,0,0:0:0:0:
416,32,197073,2,0,P|416:192|416:192,2,140
256,32,198573,1,0,0:0:0:0:
96,32,199073,2,0,P|96:192|96:192,2,140
256,32,200573,1,0,0:0:0:0:
256,192,201073,1,0,0:0:0:0:
256,352,201573,1,0,0:0:0:0:
192,192,202073,2,0,L|352:192,1,140
256,32,203073,1,0,0:0:0:0:
256,192,203573,1,0,0:0:0:0:
256,352,204073,1,0,0:0:0:0:
416,288,204573,2,0,P|416:128|416:128,2,140
256,192,206074,1,0,0:0:0:0:
96,288,206574,2,0,P|96:128|96:128,2,140
192,160,208074,2,0,L|352:160,1,140
256,288,209074,1,0,0:0:0:0:
256,128,209574,1,0,0:0:0:0:
256,192,210074,12,0,213074,0:0:0:0:
