osu file format v14

[General]
AudioFilename: [janime] 38 - juudai's theme.mp3
AudioLeadIn: 0
PreviewTime: 33766
Countdown: 0
SampleSet: Soft
StackLeniency: 0.7
Mode: 0
LetterboxInBreaks: 0
WidescreenStoryboard: 1

[Editor]
DistanceSpacing: 1
BeatDivisor: 2
GridSize: 4
TimelineZoom: 1

[Metadata]
Title:Judai no Theme
TitleUnicode:十代のテーマ
Artist:Yutaka Minobe
ArtistUnicode:蓑部雄崇
Creator:pife1
Version:Normal
Source:遊☆戯☆王デュエルモンスターズGX
Tags:SOUND DUEL1 YU-GI-OH! Duel Monsters Original Soundtracks Naoyuki Kageyama Jaden Yuki 3D Bonds Beyond Time Spirit Caller
BeatmapID:776792
BeatmapSetID:352504

[Difficulty]
HPDrainRate:5
CircleSize:3
OverallDifficulty:5
ApproachRate:5
SliderMultiplier:1.2
SliderTickRate:1

[Events]
//Background and Video events
0,0,"yugioh-gxneoanimeszx--yu-gi-oh-gx-capitulo-29-audio-espa--ol-hyhiagbm.jpg",0,0
//Break Periods
//Storyboard Layer 0 (Background)
//Storyboard Layer 1 (Fail)
//Storyboard Layer 2 (Pass)
//Storyboard Layer 3 (Foreground)
//Storyboard Sound Samples

[TimingPoints]
954,375,4,2,1,70,1,0
11079,-100,4,2,1,70,0,0
15579,-100,4,2,1,70,0,0
23454,-100,4,2,1,70,0,0
28329,-100,4,2,1,70,0,0
34704,-100,4,2,1,70,0,1
45204,-100,4,2,1,70,0,0
46704,-100,4,2,1,70,0,1
55704,-100,4,2,1,70,0,0
61704,-100,4,2,1,70,0,0

[Colours]
Combo1 : 255,211,79
Combo2 : 0,168,0
Combo3 : 226,226,226
Combo4 : 242,24,57

[HitObjects]
257,31,2079,6,0,L|175:129,1,120,8|4,0:0|0:0,0:0:0:0:
136,235,2829,2,0,L|191:305,1,60
276,136,3579,2,0,L|331:206,1,60,8|0,0:0|0:0,0:0:0:0:
413,285,4141,6,0,L|456:335,2,60
472,180,4891,1,8,0:0:0:0:
392,92,5266,1,4,0:0:0:0:
281,42,5641,2,0,L|221:42,2,60
110,102,6579,6,0,L|56:151,1,60,8|4,0:0|0:0,0:0:0:0:
78,261,7141,2,0,L|123:302,2,60,0|0|4,0:0|0:0|0:0,0:0:0:0:
370,329,8454,5,2,0:0:0:0:
489,121,9204,1,2,0:0:0:0:
266,32,9954,1,2,0:0:0:0:
86,41,10516,1,6,0:0:0:0:
167,201,11079,6,0,P|196:241|180:313,1,120
303,323,11829,2,0,L|426:340,1,120,8|0,0:0|0:0,0:0:0:0:
453,226,12579,1,0,0:0:0:0:
476,108,12954,2,0,L|494:29,2,60,0|0|8,0:0|0:0|0:0,0:0:0:0:
359,138,13704,2,0,P|303:167|246:160,1,120
155,84,14454,2,0,P|211:55|268:62,2,120,0|8|0,0:0|0:0|0:0,0:0:0:0:
56,151,15579,6,0,P|120:166|162:222,1,120
124,322,16329,1,8,0:0:0:0:
243,314,16704,2,0,P|308:298|363:319,1,120
416,315,17266,2,0,L|472:268,1,60
440,220,17641,1,0,0:0:0:0:
409,169,17829,6,0,P|373:114|378:49,1,120,8|0,0:0|0:0,0:0:0:0:
256,34,18579,1,0,0:0:0:0:
138,61,18954,2,0,P|137:120|103:169,1,120,0|8,0:0|0:0,0:0:0:0:
40,271,19704,1,0,0:0:0:0:
144,330,20079,5,0,0:0:0:0:
144,330,20266,2,0,P|204:347|283:330,1,120
304,296,20829,2,0,P|363:288|420:305,2,120,8|2|0,0:0|0:0|0:0,0:0:0:0:
264,248,21766,1,2,0:0:0:0:
348,164,22141,1,2,0:0:0:0:
348,104,22329,2,0,L|348:24,2,60,8|0|4,0:0|0:0|0:0,0:0:0:0:
252,176,23079,5,0,0:0:0:0:
132,184,23454,2,0,P|103:137|110:59,1,120,0|8,0:0|0:0,0:0:0:0:
216,116,24204,2,0,L|347:103,2,120
200,236,25329,2,0,P|183:283|208:365,1,120,8|0,0:0|0:0,0:0:0:0:
316,352,26079,2,0,P|331:294|314:238,1,120
316,116,26829,2,0,P|257:131|197:115,1,120,8|0,0:0|0:0,0:0:0:0:
90,64,27579,1,0,0:0:0:0:
69,182,27954,1,0,0:0:0:0:
69,182,28329,6,0,L|35:304,1,120,8|0,0:0|0:0,0:0:0:0:
155,312,29079,2,0,L|273:344,1,120,0|2,0:0|0:0,0:0:0:0:
378,289,29829,2,0,L|483:222,1,120,8|2,0:0|0:0,0:0:0:0:
479,104,30579,1,0,0:0:0:0:
372,48,30954,1,2,0:0:0:0:
312,48,31141,6,0,L|253:46,2,60,0|8|0,0:0|0:0|0:0,0:0:0:0:
308,112,31704,2,0,P|291:174|305:238,1,120,4|0,0:0|0:0,0:0:0:0:
151,328,32641,2,8,L|85:363,1,60
64,304,33016,1,8,0:0:0:0:
84,64,33766,6,8,P|142:83|203:54,1,120,8|0,0:0|0:0,0:0:0:0:
243,105,34329,2,0,P|273:100|302:104,1,60,8|0,0:0|0:0,0:0:0:0:
363,88,34704,5,4,0:0:0:0:
412,197,35079,2,0,L|452:281,1,60,8|0,0:0|0:0,0:0:0:0:
457,307,35454,1,0,0:0:0:0:
340,338,35829,1,8,0:0:0:0:
340,338,36016,2,0,P|288:326|213:358,1,120
166,341,36579,2,0,L|109:295,1,60,8|0,0:0|0:0,0:0:0:0:
71,267,36954,2,0,L|48:196,3,60,0|0|8|0,0:0|0:0|0:0|0:0,0:0:0:0:
37,152,37704,6,0,P|96:152|169:115,1,120,4|8,0:0|0:0,0:0:0:0:
256,175,38454,2,0,L|256:257,2,60,0|0|8,0:0|0:0|0:0,0:0:0:0:
301,136,39016,2,0,P|355:159|415:159,1,120,4|0,0:0|0:0,0:0:0:0:
438,214,39579,1,8,0:0:0:0:
438,214,39766,2,0,P|391:251|363:304,1,120,4|0,0:0|0:0,0:0:0:0:
312,335,40329,2,0,P|280:328|244:342,1,60,8|0,0:0|0:0,0:0:0:0:
196,332,40704,1,4,0:0:0:0:
120,240,41079,5,8,0:0:0:0:
28,164,41454,1,0,0:0:0:0:
120,84,41829,1,8,0:0:0:0:
120,84,42016,2,0,P|182:96|242:79,1,120
284,120,42579,2,0,P|314:117|367:123,1,60,8|0,0:0|0:0,0:0:0:0:
392,156,42954,1,0,0:0:0:0:
448,274,43329,5,8,0:0:0:0:
448,274,43516,2,0,L|377:300,1,60
276,328,44079,2,0,P|217:315|143:333,1,120,8|2,0:0|0:0,0:0:0:0:
85,231,44829,2,0,L|18:120,1,120,8|2,0:0|0:0,0:0:0:0:
106,41,45579,2,0,L|145:101,1,60,8|2,0:0|0:0,0:0:0:0:
256,120,46141,2,0,L|255:50,2,60
257,182,46704,5,12,0:0:0:0:
258,302,47079,1,12,0:0:0:0:
376,328,47454,2,0,L|439:356,1,60,12|0,0:0|0:0,0:0:0:0:
450,233,48016,1,0,0:0:0:0:
432,116,48391,2,0,L|372:152,1,60,0|8,0:0|0:0,0:0:0:0:
332,184,48766,1,0,0:0:0:0:
280,212,48954,6,0,L|243:163,3,60,0|0|8|0,0:0|0:0|0:0|0:0,0:0:0:0:
212,112,49704,2,0,P|149:98|72:131,1,120,4|8,0:0|0:0,0:0:0:0:
40,220,50454,2,0,L|41:285,2,60,0|0|8,0:0|0:0|0:0,0:0:0:0:
100,194,51016,2,0,P|161:176|226:197,1,120,4|0,0:0|0:0,0:0:0:0:
252,236,51579,1,8,0:0:0:0:
252,236,51766,2,0,P|310:249|386:218,1,120,4|0,0:0|0:0,0:0:0:0:
400,182,52329,1,8,0:0:0:0:
313,98,52704,6,0,P|257:78|201:96,1,120,0|8,0:0|0:0,0:0:0:0:
123,187,53454,2,0,P|163:221|164:308,1,120,0|8,0:0|0:0,0:0:0:0:
201,338,54016,1,0,0:0:0:0:
376,292,54579,1,8,0:0:0:0:
292,204,54954,1,8,0:0:0:0:
372,116,55329,1,8,0:0:0:0:
272,52,55704,1,8,0:0:0:0:
256,192,56079,12,2,61704,0:0:0:0:
255,311,62454,5,2,0:0:0:0:
262,71,63204,1,2,0:0:0:0:
262,71,63391,2,0,L|260:149,2,60,0|2|6,0:0|0:0|0:0,0:0:0:0:
