osu file format v14

[General]
AudioFilename: audio.mp3
AudioLeadIn: 0
PreviewTime: 89839
Countdown: 0
SampleSet: Normal
StackLeniency: 0.7
Mode: 3
LetterboxInBreaks: 0
SpecialStyle: 0
WidescreenStoryboard: 0

[Editor]
DistanceSpacing: 0.4
BeatDivisor: 3
GridSize: 16
TimelineZoom: 1

[Metadata]
Title:Into The Madness
TitleUnicode:Into The Madness
Artist:Yuta Imai
ArtistUnicode:Yuta Imai
Creator:eon
Version:Hyper
Source:SOUND VOLTEX VIVID WAVE
Tags:sdvx hardstyle electronic video game instrumental Dubstek Rhezie Wadu CHARGE 5 V beatmania IIDX 27 HEROIC VERSE SPOOKY 制作決定記念オリジナル楽曲コンテスト 毎週!いちかの超BEMANIラッシュ2020 III GRAVITY WARS コナステ
BeatmapID:2080099
BeatmapSetID:994730

[Difficulty]
HPDrainRate:7.5
CircleSize:4
OverallDifficulty:7.5
ApproachRate:5
SliderMultiplier:1.4
SliderTickRate:1

[Events]
//Background and Video events
0,0,"bg.jpg",0,0
//Break Periods
//Storyboard Layer 0 (Background)
//Storyboard Layer 1 (Fail)
//Storyboard Layer 2 (Pass)
//Storyboard Layer 3 (Foreground)
//Storyboard Layer 4 (Overlay)
//Storyboard Sound Samples

[TimingPoints]
3130,387.096774193548,4,1,1,35,1,0
40291,-100,4,1,1,35,0,1
52678,-100,4,1,1,35,0,0
89839,-100,4,1,1,35,0,1
102226,-100,4,1,1,35,0,0
105323,-100,4,1,1,35,0,1
114613,-100,4,1,1,35,0,0

[HitObjects]
448,192,2613,5,0,0:0:0:70:bass.wav
320,192,2678,1,0,0:0:0:70:bass.wav
192,192,2742,1,0,0:0:0:70:bass.wav
64,192,2742,1,0,0:0:0:70:snare.wav
64,192,3000,1,0,0:0:0:70:bass.wav
192,192,3000,1,0,0:0:0:0:
320,192,3130,1,0,0:0:0:70:snare.wav
448,192,3130,1,0,0:0:0:70:clap.wav
192,192,3259,1,0,0:0:0:0:
320,192,3388,1,0,0:0:0:0:
64,192,3517,1,0,0:0:0:70:snare.wav
448,192,3517,1,0,0:0:0:70:clap.wav
192,192,3646,1,0,0:0:0:0:
320,192,3775,1,0,0:0:0:0:
192,192,3904,1,0,0:0:0:70:snare.wav
64,192,3904,1,0,0:0:0:70:clap.wav
448,192,4033,1,0,0:0:0:0:
64,192,4162,1,0,0:0:0:0:
320,192,4291,1,0,0:0:0:70:snare.wav
192,192,4291,1,0,0:0:0:70:clap.wav
448,192,4420,1,0,0:0:0:0:
192,192,4549,1,0,0:0:0:0:
320,192,4678,1,0,0:0:0:70:snare.wav
448,192,4678,1,0,0:0:0:70:clap.wav
192,192,4807,1,0,0:0:0:0:
64,192,4936,1,0,0:0:0:0:
448,192,5065,1,0,0:0:0:70:snare.wav
320,192,5065,1,0,0:0:0:70:clap.wav
64,192,5194,1,0,0:0:0:0:
192,192,5323,1,0,0:0:0:0:
320,192,5452,1,0,0:0:0:70:snare.wav
448,192,5452,1,0,0:0:0:70:clap.wav
64,192,5581,1,0,0:0:0:0:
192,192,5710,1,0,0:0:0:0:
448,192,5839,1,0,0:0:0:70:snare.wav
64,192,5839,1,0,0:0:0:70:clap.wav
320,192,5968,1,0,0:0:0:70:snare.wav
192,192,5968,1,0,0:0:0:0:
64,192,6097,1,0,0:0:0:70:snare.wav
448,192,6097,1,0,0:0:0:0:
192,192,6226,1,0,0:0:0:70:snare.wav
320,192,6226,1,0,0:0:0:70:clap.wav
448,192,6355,1,0,0:0:0:0:
64,192,6484,1,0,0:0:0:0:
320,192,6613,1,0,0:0:0:70:snare.wav
192,192,6613,1,0,0:0:0:70:clap.wav
448,192,6742,1,0,0:0:0:0:
192,192,6871,1,0,0:0:0:0:
64,192,7000,1,0,0:0:0:70:snare.wav
448,192,7000,1,0,0:0:0:70:clap.wav
320,192,7129,1,0,0:0:0:0:
192,192,7259,1,0,0:0:0:0:
320,192,7388,1,0,0:0:0:70:snare.wav
448,192,7388,1,0,0:0:0:70:clap.wav
64,192,7517,1,0,0:0:0:0:
192,192,7646,1,0,0:0:0:0:
64,192,7775,1,0,0:0:0:70:snare.wav
448,192,7775,1,0,0:0:0:70:clap.wav
320,192,7904,1,0,0:0:0:0:
192,192,8033,1,0,0:0:0:0:
448,192,8162,1,0,0:0:0:70:snare.wav
320,192,8162,1,0,0:0:0:70:clap.wav
64,192,8291,1,0,0:0:0:0:
192,192,8420,1,0,0:0:0:0:
448,192,8549,1,0,0:0:0:70:snare.wav
64,192,8549,1,0,0:0:0:70:clap.wav
320,192,8678,1,0,0:0:0:0:
192,192,8807,1,0,0:0:0:0:
64,192,8936,1,0,0:0:0:70:snare.wav
448,192,8936,1,0,0:0:0:70:clap.wav
320,192,9065,1,0,0:0:0:0:
64,192,9194,1,0,0:0:0:70:snare.wav
192,192,9194,1,0,0:0:0:0:
448,192,9323,1,0,0:0:0:70:snare.wav
320,192,9323,1,0,0:0:0:70:clap.wav
64,192,9452,1,0,0:0:0:70:snare.wav
192,192,9452,1,0,0:0:0:0:
320,192,9581,1,0,0:0:0:70:snare.wav
64,192,9710,1,0,0:0:0:70:snare.wav
448,192,9710,1,0,0:0:0:70:clap.wav
320,192,9839,1,0,0:0:0:70:snare.wav
192,192,9839,1,0,0:0:0:0:
448,192,9968,1,0,0:0:0:70:snare.wav
192,192,10097,1,0,0:0:0:70:snare.wav
64,192,10097,1,0,0:0:0:70:clap.wav
448,192,10226,1,0,0:0:0:70:snare.wav
320,192,10226,1,0,0:0:0:0:
64,192,10355,1,0,0:0:0:70:snare.wav
192,192,10484,1,0,0:0:0:70:snare.wav
320,192,10484,1,0,0:0:0:70:clap.wav
448,192,10613,1,0,0:0:0:70:snare.wav
64,192,10613,1,0,0:0:0:0:
192,192,10742,1,0,0:0:0:70:snare.wav
320,192,10742,1,0,0:0:0:0:
448,192,10871,1,0,0:0:0:70:snare.wav
320,192,10936,1,0,0:0:0:70:snare.wav
64,192,11000,1,0,0:0:0:70:snare.wav
192,192,11065,1,0,0:0:0:70:snare.wav
320,192,11129,1,0,0:0:0:70:snare.wav
64,192,11259,1,0,0:0:0:70:snare.wav
192,192,11323,1,0,0:0:0:70:snare.wav
448,192,11388,1,0,0:0:0:70:snare.wav
320,192,11452,1,0,0:0:0:70:snare.wav
192,192,11517,1,0,0:0:0:70:snare.wav
448,192,11646,1,0,0:0:0:70:snare.wav
320,192,11710,1,0,0:0:0:70:snare.wav
64,192,11775,1,0,0:0:0:70:snare.wav
192,192,11839,1,0,0:0:0:70:snare.wav
320,192,11904,1,0,0:0:0:70:snare.wav
64,192,12033,1,0,0:0:0:70:snare.wav
192,192,12097,1,0,0:0:0:70:snare.wav
448,192,12162,1,0,0:0:0:70:snare.wav
320,192,12226,1,0,0:0:0:70:snare.wav
192,192,12291,1,0,0:0:0:70:snare.wav
448,192,12420,1,0,0:0:0:70:boom.wav
64,192,12420,128,0,13968:0:0:0:0:
448,192,13968,1,0,0:0:0:70:bass.wav
320,192,13968,1,0,0:0:0:0:
64,192,14226,1,0,0:0:0:0:
64,192,14355,1,0,0:0:0:0:
192,192,14484,1,0,0:0:0:0:
320,192,14613,1,0,0:0:0:0:
448,192,14742,1,0,0:0:0:0:
64,192,14742,1,0,0:0:0:0:
192,192,14871,1,0,0:0:0:0:
320,192,15000,1,0,0:0:0:0:
64,192,15129,1,0,0:0:0:70:boom.wav
192,192,15129,1,0,0:0:0:0:
320,192,15517,1,0,0:0:0:70:bass.wav
448,192,15517,1,0,0:0:0:70:finish.wav
64,192,15646,1,0,0:0:0:70:psy.wav
192,192,15775,1,0,0:0:0:70:psy.wav
448,192,15904,1,0,0:0:0:70:bass.wav
64,192,15904,1,0,0:0:0:0:
320,192,16033,1,0,0:0:0:70:psy.wav
192,192,16162,1,0,0:0:0:70:psy.wav
448,192,16291,1,0,0:0:0:70:bass.wav
320,192,16291,1,0,0:0:0:0:
64,192,16420,1,0,0:0:0:70:psy.wav
192,192,16549,1,0,0:0:0:70:psy.wav
448,192,16678,1,0,0:0:0:70:bass.wav
320,192,16678,1,0,0:0:0:0:
64,192,16807,1,0,0:0:0:70:psy.wav
192,192,16807,1,0,0:0:0:0:
448,192,16936,1,0,0:0:0:70:psy.wav
320,192,16936,1,0,0:0:0:0:
64,192,17065,1,0,0:0:0:70:bass.wav
192,192,17065,1,0,0:0:0:0:
320,192,17194,1,0,0:0:0:70:psy.wav
64,192,17323,1,0,0:0:0:70:psy.wav
192,192,17388,1,0,0:0:0:0:
320,192,17452,1,0,0:0:0:70:bass.wav
448,192,17452,1,0,0:0:0:0:
64,192,17581,1,0,0:0:0:70:psy.wav
192,192,17710,1,0,0:0:0:70:psy.wav
320,192,17775,1,0,0:0:0:0:
448,192,17839,1,0,0:0:0:70:bass.wav
64,192,17839,1,0,0:0:0:0:
192,192,17968,1,0,0:0:0:70:psy.wav
448,192,18097,1,0,0:0:0:70:psy.wav
320,192,18226,1,0,0:0:0:70:bass.wav
64,192,18226,1,0,0:0:0:0:
192,192,18484,1,0,0:0:0:70:psy.wav
448,192,18613,1,0,0:0:0:70:bass.wav
64,192,18613,1,0,0:0:0:0:
320,192,18742,1,0,0:0:0:70:psy.wav
192,192,18871,1,0,0:0:0:70:psy.wav
64,192,19000,1,0,0:0:0:70:bass.wav
448,192,19000,1,0,0:0:0:0:
320,192,19129,1,0,0:0:0:70:psy.wav
192,192,19259,1,0,0:0:0:70:psy.wav
448,192,19388,1,0,0:0:0:70:bass.wav
320,192,19388,1,0,0:0:0:0:
64,192,19517,1,0,0:0:0:70:psy.wav
192,192,19646,1,0,0:0:0:70:psy.wav
448,192,19775,1,0,0:0:0:70:bass.wav
64,192,19775,1,0,0:0:0:0:
320,192,19904,1,0,0:0:0:70:psy.wav
192,192,19904,1,0,0:0:0:0:
64,192,20033,1,0,0:0:0:70:bass.wav
448,192,20033,1,0,0:0:0:70:psy.wav
320,192,20162,1,0,0:0:0:70:bass.wav
192,192,20162,1,0,0:0:0:0:
448,192,20291,1,0,0:0:0:70:psy.wav
320,192,20420,1,0,0:0:0:70:psy.wav
192,192,20484,1,0,0:0:0:0:
448,192,20549,1,0,0:0:0:70:bass.wav
64,192,20549,1,0,0:0:0:0:
320,192,20678,1,0,0:0:0:70:psy.wav
64,192,20807,1,0,0:0:0:70:psy.wav
192,192,20871,1,0,0:0:0:0:
320,192,20936,1,0,0:0:0:70:bass.wav
448,192,20936,1,0,0:0:0:0:
192,192,21065,1,0,0:0:0:70:psy.wav
320,192,21194,1,0,0:0:0:70:psy.wav
448,192,21323,1,0,0:0:0:70:boom.wav
64,192,21323,1,0,0:0:0:0:
192,192,21710,1,0,0:0:0:70:finish.wav
64,192,21710,128,0,22484:0:0:0:70:bass.wav
448,192,21839,1,0,0:0:0:70:psy.wav
320,192,21968,1,0,0:0:0:70:psy.wav
192,192,22097,1,0,0:0:0:70:bass.wav
448,192,22226,1,0,0:0:0:70:psy.wav
320,192,22355,1,0,0:0:0:70:psy.wav
448,192,22484,128,0,23259:0:0:0:70:bass.wav
192,192,22484,1,0,0:0:0:0:
320,192,22613,1,0,0:0:0:70:psy.wav
64,192,22742,1,0,0:0:0:70:psy.wav
192,192,22871,1,0,0:0:0:70:bass.wav
320,192,23000,1,0,0:0:0:70:psy.wav
64,192,23129,1,0,0:0:0:70:psy.wav
320,192,23259,128,0,24033:0:0:0:70:bass.wav
192,192,23259,1,0,0:0:0:0:
64,192,23388,1,0,0:0:0:70:psy.wav
448,192,23517,1,0,0:0:0:70:psy.wav
192,192,23646,1,0,0:0:0:70:bass.wav
64,192,23775,1,0,0:0:0:70:psy.wav
448,192,23904,1,0,0:0:0:70:psy.wav
192,192,24033,128,0,24613:0:0:0:70:bass.wav
64,192,24033,1,0,0:0:0:0:
448,192,24162,1,0,0:0:0:70:psy.wav
320,192,24291,1,0,0:0:0:70:psy.wav
64,192,24420,1,0,0:0:0:70:bass.wav
448,192,24613,1,0,0:0:0:0:
320,192,24678,1,0,0:0:0:70:psy.wav
448,192,24807,1,0,0:0:0:70:bass.wav
64,192,24807,1,0,0:0:0:70:finish.wav
320,192,24936,1,0,0:0:0:70:psy.wav
192,192,25065,1,0,0:0:0:70:psy.wav
64,192,25194,1,0,0:0:0:70:finish.wav
448,192,25194,1,0,0:0:0:70:bass.wav
192,192,25323,1,0,0:0:0:70:psy.wav
320,192,25452,1,0,0:0:0:70:psy.wav
448,192,25581,1,0,0:0:0:70:bass.wav
64,192,25581,1,0,0:0:0:70:finish.wav
320,192,25710,1,0,0:0:0:70:psy.wav
192,192,25839,1,0,0:0:0:70:psy.wav
64,192,25968,1,0,0:0:0:70:bass.wav
448,192,25968,1,0,0:0:0:70:finish.wav
192,192,26097,1,0,0:0:0:70:psy.wav
320,192,26226,1,0,0:0:0:70:bass.wav
448,192,26226,1,0,0:0:0:70:psy.wav
64,192,26355,1,0,0:0:0:70:bass.wav
192,192,26355,1,0,0:0:0:70:finish.wav
448,192,26613,1,0,0:0:0:0:
448,192,26742,1,0,0:0:0:0:
192,192,26871,1,0,0:0:0:0:
320,192,27000,1,0,0:0:0:0:
64,192,27129,1,0,0:0:0:0:
192,192,27129,1,0,0:0:0:0:
448,192,27259,1,0,0:0:0:0:
320,192,27388,1,0,0:0:0:0:
192,192,27517,1,0,0:0:0:70:boom.wav
448,192,27517,128,0,27904:0:0:0:0:
192,192,27904,1,0,0:0:0:70:bass.wav
64,192,27904,128,0,28162:0:0:0:70:finish.wav
320,192,28162,128,0,28291:0:0:0:70:psy.wav
192,192,28291,128,0,28420:0:0:0:70:bass.wav
64,192,28291,1,0,0:0:0:0:
448,192,28420,128,0,28549:0:0:0:70:psy.wav
64,192,28549,128,0,28678:0:0:0:70:psy.wav
192,192,28678,128,0,28807:0:0:0:70:bass.wav
320,192,28678,1,0,0:0:0:0:
448,192,28807,128,0,28936:0:0:0:70:psy.wav
320,192,28936,128,0,29065:0:0:0:70:psy.wav
64,192,29065,128,0,29323:0:0:0:70:bass.wav
192,192,29065,1,0,0:0:0:0:
192,192,29323,128,0,29452:0:0:0:70:psy.wav
448,192,29452,128,0,29710:0:0:0:70:bass.wav
320,192,29452,1,0,0:0:0:0:
320,192,29710,128,0,29839:0:0:0:70:psy.wav
64,192,29839,128,0,29968:0:0:0:70:bass.wav
192,192,29839,1,0,0:0:0:0:
448,192,29968,128,0,30097:0:0:0:70:psy.wav
192,192,30097,128,0,30226:0:0:0:70:psy.wav
448,192,30226,128,0,30355:0:0:0:70:bass.wav
320,192,30226,1,0,0:0:0:0:
64,192,30355,128,0,30484:0:0:0:70:psy.wav
192,192,30484,128,0,30613:0:0:0:70:psy.wav
320,192,30613,1,0,0:0:0:70:bass.wav
448,192,30613,1,0,0:0:0:70:finish.wav
64,192,30742,1,0,0:0:0:70:bass.wav
192,192,30742,1,0,0:0:0:70:finish.wav
448,192,30871,1,0,0:0:0:70:bass.wav
320,192,30871,1,0,0:0:0:70:finish.wav
64,192,31000,128,0,31259:0:0:0:70:bass.wav
192,192,31000,1,0,0:0:0:70:finish.wav
448,192,31259,128,0,31388:0:0:0:70:psy.wav
192,192,31388,128,0,31517:0:0:0:70:bass.wav
64,192,31388,1,0,0:0:0:0:
320,192,31517,128,0,31646:0:0:0:70:psy.wav
64,192,31646,128,0,31775:0:0:0:70:psy.wav
448,192,31775,128,0,31904:0:0:0:70:bass.wav
192,192,31775,1,0,0:0:0:0:
320,192,31904,128,0,32033:0:0:0:70:psy.wav
192,192,32033,128,0,32162:0:0:0:70:psy.wav
64,192,32162,128,0,32420:0:0:0:70:bass.wav
448,192,32162,1,0,0:0:0:0:
320,192,32420,128,0,32549:0:0:0:70:psy.wav
448,192,32549,128,0,32678:0:0:0:70:bass.wav
192,192,32549,1,0,0:0:0:0:
64,192,32678,128,0,32807:0:0:0:70:psy.wav
448,192,32807,128,0,32936:0:0:0:70:psy.wav
192,192,32936,128,0,33065:0:0:0:70:bass.wav
64,192,32936,1,0,0:0:0:0:
320,192,33065,128,0,33194:0:0:0:70:psy.wav
192,192,33194,128,0,33323:0:0:0:70:psy.wav
448,192,33323,1,0,0:0:0:70:bass.wav
64,192,33323,1,0,0:0:0:70:snare.wav
192,192,33452,1,0,0:0:0:70:psy.wav
320,192,33452,1,0,0:0:0:70:snare.wav
448,192,33581,1,0,0:0:0:70:snare.wav
64,192,33710,1,0,0:0:0:70:bass.wav
192,192,33710,1,0,0:0:0:70:snare.wav
320,192,33839,1,0,0:0:0:70:psy.wav
448,192,33839,1,0,0:0:0:70:snare.wav
64,192,33968,1,0,0:0:0:70:psy.wav
192,192,33968,1,0,0:0:0:70:snare.wav
448,192,34097,128,0,34355:0:0:0:70:bass.wav
320,192,34097,1,0,0:0:0:70:finish.wav
192,192,34355,128,0,34484:0:0:0:70:psy.wav
320,192,34484,128,0,34613:0:0:0:70:bass.wav
64,192,34484,1,0,0:0:0:0:
448,192,34613,128,0,34742:0:0:0:70:psy.wav
192,192,34742,128,0,34871:0:0:0:70:psy.wav
64,192,34871,128,0,35000:0:0:0:70:bass.wav
448,192,34871,1,0,0:0:0:0:
320,192,35000,128,0,35129:0:0:0:70:psy.wav
448,192,35129,128,0,35259:0:0:0:70:psy.wav
192,192,35259,128,0,35517:0:0:0:70:bass.wav
64,192,35259,1,0,0:0:0:0:
320,192,35517,128,0,35646:0:0:0:70:psy.wav
64,192,35646,1,0,0:0:0:70:bass.wav
448,192,35646,128,0,35904:0:0:0:70:finish.wav
192,192,35904,128,0,36033:0:0:0:70:psy.wav
320,192,36033,128,0,36162:0:0:0:70:bass.wav
448,192,36033,1,0,0:0:0:0:
64,192,36162,128,0,36291:0:0:0:70:psy.wav
448,192,36291,128,0,36420:0:0:0:70:psy.wav
320,192,36420,128,0,36549:0:0:0:70:bass.wav
64,192,36420,1,0,0:0:0:0:
192,192,36549,128,0,36678:0:0:0:70:psy.wav
64,192,36678,128,0,36807:0:0:0:70:psy.wav
448,192,36807,128,0,37065:0:0:0:70:bass.wav
320,192,36807,1,0,0:0:0:70:finish.wav
192,192,37065,1,0,0:0:0:70:finish.wav
64,192,37065,1,0,0:0:0:70:bass.wav
320,192,37194,1,0,0:0:0:70:bass.wav
448,192,37194,1,0,0:0:0:70:finish.wav
192,192,37323,1,0,0:0:0:70:bass.wav
64,192,37323,1,0,0:0:0:70:finish.wav
448,192,37452,1,0,0:0:0:70:bass.wav
320,192,37452,1,0,0:0:0:70:finish.wav
192,192,37581,1,0,0:0:0:70:bass.wav
64,192,37581,1,0,0:0:0:70:finish.wav
320,192,37710,1,0,0:0:0:70:bass.wav
448,192,37710,1,0,0:0:0:70:finish.wav
192,192,37839,1,0,0:0:0:70:bass.wav
64,192,37839,1,0,0:0:0:70:finish.wav
320,192,37968,1,0,0:0:0:70:bass.wav
192,192,38097,1,0,0:0:0:70:bass.wav
320,192,38226,1,0,0:0:0:70:bass.wav
192,192,38355,1,0,0:0:0:70:bass.wav
320,192,38484,1,0,0:0:0:70:bass.wav
192,192,38613,1,0,0:0:0:70:bass.wav
64,192,38742,1,0,0:0:0:70:bass.wav
448,192,38742,128,0,40162:0:0:0:70:finish.wav
320,192,38871,1,0,0:0:0:0:
192,192,39000,1,0,0:0:0:0:
64,192,39129,1,0,0:0:0:0:
192,192,39259,1,0,0:0:0:0:
320,192,39388,1,0,0:0:0:0:
64,192,39517,128,0,40162:0:0:0:0:
192,192,39904,128,0,40162:0:0:0:70:boom.wav
320,192,39904,128,0,40162:0:0:0:0:
64,192,40291,1,0,0:0:0:70:hardstyle.wav
192,192,40291,1,0,0:0:0:70:finish.wav
320,192,40420,1,0,0:0:0:0:
192,192,40549,1,0,0:0:0:0:
64,192,40678,1,0,0:0:0:70:hardstyle.wav
448,192,40678,1,0,0:0:0:0:
192,192,40807,1,0,0:0:0:0:
320,192,40936,1,0,0:0:0:0:
192,192,41065,1,0,0:0:0:70:hardstyle.wav
448,192,41065,1,0,0:0:0:0:
64,192,41194,1,0,0:0:0:0:
192,192,41323,1,0,0:0:0:0:
320,192,41452,1,0,0:0:0:70:hardstyle.wav
448,192,41452,1,0,0:0:0:0:
192,192,41581,1,0,0:0:0:0:
64,192,41710,1,0,0:0:0:0:
320,192,41839,1,0,0:0:0:70:hardstyle.wav
448,192,41839,1,0,0:0:0:0:
320,192,42097,1,0,0:0:0:0:
448,192,42097,1,0,0:0:0:0:
192,192,42226,1,0,0:0:0:70:hardstyle.wav
64,192,42226,1,0,0:0:0:0:
192,192,42484,1,0,0:0:0:0:
64,192,42484,1,0,0:0:0:0:
320,192,42613,1,0,0:0:0:70:hardstyle.wav
448,192,42613,1,0,0:0:0:0:
448,192,42871,1,0,0:0:0:0:
320,192,42871,1,0,0:0:0:0:
192,192,43000,1,0,0:0:0:70:hardstyle.wav
64,192,43000,1,0,0:0:0:0:
320,192,43129,1,0,0:0:0:70:hardstyle.wav
448,192,43129,1,0,0:0:0:0:
192,192,43259,1,0,0:0:0:70:hardstyle.wav
64,192,43259,1,0,0:0:0:0:
320,192,43388,1,0,0:0:0:70:hardstyle.wav
448,192,43388,1,0,0:0:0:0:
320,192,43646,1,0,0:0:0:0:
448,192,43775,1,0,0:0:0:70:hardstyle.wav
64,192,43775,1,0,0:0:0:0:
320,192,43904,1,0,0:0:0:0:
192,192,44033,1,0,0:0:0:0:
320,192,44162,1,0,0:0:0:70:hardstyle.wav
64,192,44162,1,0,0:0:0:0:
448,192,44291,1,0,0:0:0:0:
320,192,44420,1,0,0:0:0:0:
192,192,44549,1,0,0:0:0:70:hardstyle.wav
64,192,44549,1,0,0:0:0:0:
320,192,44678,1,0,0:0:0:0:
448,192,44807,1,0,0:0:0:70:hardstyle.wav
320,192,44871,1,0,0:0:0:70:hardstyle.wav
64,192,44936,1,0,0:0:0:70:hardstyle.wav
192,192,44936,1,0,0:0:0:70:finish.wav
448,192,45194,1,0,0:0:0:70:hardstyle.wav
320,192,45194,1,0,0:0:0:0:
64,192,45323,1,0,0:0:0:70:hardstyle.wav
448,192,45323,1,0,0:0:0:70:finish.wav
64,192,45581,1,0,0:0:0:70:hardstyle.wav
192,192,45581,1,0,0:0:0:0:
64,192,45710,1,0,0:0:0:70:hardstyle.wav
448,192,45710,128,0,46355:0:0:0:70:finish.wav
320,192,46097,128,0,46355:0:0:0:70:boom.wav
192,192,46097,128,0,46355:0:0:0:0:
64,192,46484,1,0,0:0:0:70:hardstyle.wav
448,192,46484,1,0,0:0:0:70:finish.wav
192,192,46613,1,0,0:0:0:0:
320,192,46742,1,0,0:0:0:0:
192,192,46871,1,0,0:0:0:70:hardstyle.wav
448,192,46871,1,0,0:0:0:0:
64,192,47000,1,0,0:0:0:0:
192,192,47129,1,0,0:0:0:0:
320,192,47259,1,0,0:0:0:70:hardstyle.wav
448,192,47259,1,0,0:0:0:0:
192,192,47388,1,0,0:0:0:0:
64,192,47517,1,0,0:0:0:0:
192,192,47646,1,0,0:0:0:70:hardstyle.wav
448,192,47646,1,0,0:0:0:0:
320,192,47775,1,0,0:0:0:0:
192,192,47904,1,0,0:0:0:0:
64,192,48033,1,0,0:0:0:70:hardstyle.wav
448,192,48033,1,0,0:0:0:70:finish.wav
192,192,48291,1,0,0:0:0:0:
320,192,48291,1,0,0:0:0:0:
64,192,48420,1,0,0:0:0:70:hardstyle.wav
448,192,48420,1,0,0:0:0:0:
448,192,48678,1,0,0:0:0:0:
64,192,48678,1,0,0:0:0:0:
320,192,48807,1,0,0:0:0:70:hardstyle.wav
192,192,48807,1,0,0:0:0:0:
192,192,49065,1,0,0:0:0:0:
320,192,49065,1,0,0:0:0:0:
64,192,49194,1,0,0:0:0:70:hardstyle.wav
448,192,49194,1,0,0:0:0:0:
64,192,49452,1,0,0:0:0:70:hardstyle.wav
448,192,49452,1,0,0:0:0:0:
320,192,49581,1,0,0:0:0:70:finish.wav
192,192,49581,1,0,0:0:0:70:hardstyle.wav
64,192,49710,1,0,0:0:0:70:finish.wav
448,192,49710,1,0,0:0:0:70:hardstyle.wav
320,192,49839,1,0,0:0:0:70:finish.wav
192,192,49839,1,0,0:0:0:70:hardstyle.wav
64,192,49968,1,0,0:0:0:70:finish.wav
448,192,49968,1,0,0:0:0:70:hardstyle.wav
320,192,50097,1,0,0:0:0:70:finish.wav
192,192,50097,1,0,0:0:0:70:hardstyle.wav
64,192,50226,1,0,0:0:0:70:finish.wav
448,192,50226,1,0,0:0:0:70:hardstyle.wav
320,192,50355,1,0,0:0:0:70:hardstyle.wav
192,192,50420,1,0,0:0:0:70:hardstyle.wav
64,192,50484,1,0,0:0:0:70:hardstyle.wav
448,192,50613,1,0,0:0:0:70:hardstyle.wav
64,192,50742,1,0,0:0:0:70:hardstyle.wav
448,192,50871,1,0,0:0:0:70:hardstyle.wav
64,192,51000,1,0,0:0:0:70:hardstyle.wav
320,192,51129,1,0,0:0:0:70:hardstyle.wav
448,192,51129,128,0,52678:0:0:0:70:boom.wav
192,192,51259,1,0,0:0:0:0:
64,192,51388,1,0,0:0:0:0:
320,192,51517,1,0,0:0:0:0:
64,192,51646,1,0,0:0:0:0:
192,192,51775,1,0,0:0:0:0:
320,192,51904,128,0,52678:0:0:0:0:
192,192,52678,1,0,0:0:0:70:hardstyle.wav
64,192,52678,1,0,0:0:0:70:finish.wav
320,192,52936,1,0,0:0:0:0:
192,192,53194,1,0,0:0:0:0:
64,192,53452,1,0,0:0:0:0:
448,192,53710,1,0,0:0:0:0:
64,192,53968,1,0,0:0:0:0:
320,192,54226,1,0,0:0:0:0:
192,192,54484,1,0,0:0:0:0:
64,192,54742,1,0,0:0:0:0:
320,192,55000,1,0,0:0:0:0:
192,192,55259,1,0,0:0:0:0:
64,192,55517,1,0,0:0:0:0:
448,192,55775,1,0,0:0:0:0:
192,192,56033,1,0,0:0:0:0:
320,192,56291,1,0,0:0:0:0:
64,192,56549,1,0,0:0:0:0:
448,192,56807,1,0,0:0:0:0:
192,192,57065,1,0,0:0:0:0:
320,192,57323,1,0,0:0:0:0:
64,192,57581,1,0,0:0:0:0:
320,192,57839,1,0,0:0:0:0:
64,192,58097,1,0,0:0:0:0:
448,192,58226,1,0,0:0:0:0:
64,192,58355,1,0,0:0:0:0:
448,192,58484,1,0,0:0:0:0:
64,192,58871,1,0,0:0:0:0:
448,192,58871,1,0,0:0:0:0:
320,192,59129,1,0,0:0:0:0:
192,192,59388,1,0,0:0:0:0:
64,192,59388,1,0,0:0:0:0:
64,192,59646,1,0,0:0:0:0:
448,192,59646,1,0,0:0:0:0:
320,192,59904,1,0,0:0:0:0:
192,192,59904,1,0,0:0:0:0:
64,192,60162,1,0,0:0:0:0:
448,192,60162,1,0,0:0:0:0:
448,192,60420,1,0,0:0:0:0:
320,192,60420,1,0,0:0:0:0:
192,192,60678,1,0,0:0:0:0:
320,192,60678,1,0,0:0:0:0:
192,192,60936,1,0,0:0:0:0:
64,192,60936,1,0,0:0:0:0:
320,192,61194,1,0,0:0:0:0:
448,192,61194,1,0,0:0:0:0:
320,192,61452,1,0,0:0:0:0:
192,192,61452,1,0,0:0:0:0:
192,192,61710,1,0,0:0:0:0:
64,192,61710,1,0,0:0:0:0:
448,192,61968,1,0,0:0:0:0:
64,192,61968,1,0,0:0:0:0:
320,192,62226,1,0,0:0:0:0:
64,192,62484,1,0,0:0:0:0:
192,192,62484,1,0,0:0:0:0:
320,192,62742,1,0,0:0:0:0:
448,192,62742,1,0,0:0:0:0:
192,192,63000,1,0,0:0:0:0:
448,192,63000,1,0,0:0:0:0:
320,192,63259,1,0,0:0:0:0:
64,192,63259,1,0,0:0:0:0:
448,192,63517,1,0,0:0:0:0:
64,192,63517,1,0,0:0:0:0:
320,192,63775,1,0,0:0:0:0:
192,192,63775,1,0,0:0:0:0:
192,192,64033,1,0,0:0:0:0:
64,192,64033,1,0,0:0:0:0:
64,192,64291,1,0,0:0:0:0:
448,192,64291,128,0,65065:0:0:0:0:
192,192,65065,1,0,0:0:0:70:finish.wav
64,192,65065,1,0,0:0:0:70:clap.wav
192,192,65452,1,0,0:0:0:70:clap.wav
320,192,65452,1,0,0:0:0:0:
64,192,65839,1,0,0:0:0:70:clap.wav
448,192,65839,1,0,0:0:0:0:
192,192,66226,1,0,0:0:0:70:clap.wav
448,192,66226,1,0,0:0:0:0:
320,192,66613,1,0,0:0:0:70:clap.wav
64,192,66613,1,0,0:0:0:0:
192,192,67000,1,0,0:0:0:70:clap.wav
64,192,67000,1,0,0:0:0:0:
320,192,67388,1,0,0:0:0:70:clap.wav
448,192,67388,1,0,0:0:0:0:
192,192,67775,1,0,0:0:0:70:clap.wav
320,192,67775,1,0,0:0:0:0:
64,192,68033,1,0,0:0:0:70:clap.wav
192,192,68033,1,0,0:0:0:0:
320,192,68162,1,0,0:0:0:70:clap.wav
448,192,68162,1,0,0:0:0:0:
192,192,68549,1,0,0:0:0:70:clap.wav
448,192,68549,1,0,0:0:0:0:
320,192,68936,1,0,0:0:0:70:clap.wav
64,192,68936,1,0,0:0:0:0:
64,192,69323,1,0,0:0:0:70:clap.wav
448,192,69323,1,0,0:0:0:0:
192,192,69710,1,0,0:0:0:70:clap.wav
320,192,69710,1,0,0:0:0:0:
192,192,70097,1,0,0:0:0:70:clap.wav
64,192,70097,1,0,0:0:0:0:
320,192,70355,1,0,0:0:0:70:bass.wav
448,192,70355,1,0,0:0:0:0:
192,192,70484,1,0,0:0:0:70:clap.wav
64,192,70484,1,0,0:0:0:0:
192,192,70742,1,0,0:0:0:70:bass.wav
64,192,70742,1,0,0:0:0:0:
320,192,70871,1,0,0:0:0:70:clap.wav
448,192,70871,1,0,0:0:0:0:
64,192,71000,1,0,0:0:0:70:clap.wav
192,192,71129,1,0,0:0:0:70:bass.wav
320,192,71259,1,0,0:0:0:70:clap.wav
448,192,71259,128,0,72807:0:0:0:70:bass.wav
64,192,71646,1,0,0:0:0:70:clap.wav
320,192,71646,1,0,0:0:0:70:snare.wav
192,192,72033,1,0,0:0:0:70:clap.wav
64,192,72033,1,0,0:0:0:0:
320,192,72291,1,0,0:0:0:70:bass.wav
192,192,72420,1,0,0:0:0:70:clap.wav
64,192,72420,1,0,0:0:0:70:snare.wav
64,192,72678,1,0,0:0:0:70:bass.wav
320,192,72807,128,0,74355:0:0:0:70:clap.wav
192,192,72807,1,0,0:0:0:70:bass.wav
64,192,73194,1,0,0:0:0:70:clap.wav
448,192,73194,1,0,0:0:0:70:snare.wav
192,192,73452,1,0,0:0:0:70:bass.wav
64,192,73581,1,0,0:0:0:70:clap.wav
448,192,73581,1,0,0:0:0:0:
192,192,73710,1,0,0:0:0:70:bass.wav
448,192,73839,1,0,0:0:0:70:bass.wav
192,192,73968,1,0,0:0:0:70:clap.wav
64,192,73968,1,0,0:0:0:70:snare.wav
448,192,74226,1,0,0:0:0:70:clap.wav
64,192,74355,128,0,75904:0:0:0:70:clap.wav
192,192,74355,1,0,0:0:0:70:bass.wav
320,192,74484,1,0,0:0:0:70:clap.wav
448,192,74613,1,0,0:0:0:70:clap.wav
192,192,74742,1,0,0:0:0:70:clap.wav
448,192,74871,1,0,0:0:0:70:clap.wav
320,192,75000,1,0,0:0:0:70:clap.wav
192,192,75129,1,0,0:0:0:70:clap.wav
320,192,75259,1,0,0:0:0:70:clap.wav
448,192,75388,1,0,0:0:0:70:clap.wav
192,192,75517,1,0,0:0:0:70:clap.wav
448,192,75646,1,0,0:0:0:70:clap.wav
320,192,75775,1,0,0:0:0:70:clap.wav
192,192,75904,1,0,0:0:0:70:bass.wav
448,192,75904,1,0,0:0:0:70:finish.wav
64,192,76678,128,0,77452:0:0:0:0:
192,192,77065,128,0,77452:0:0:0:70:boom.wav
320,192,77452,1,0,0:0:0:70:clap.wav
448,192,77452,1,0,0:0:0:70:snare.wav
192,192,77581,1,0,0:0:0:0:
64,192,77710,1,0,0:0:0:0:
320,192,77839,1,0,0:0:0:70:clap.wav
448,192,77839,1,0,0:0:0:70:snare.wav
64,192,77968,1,0,0:0:0:0:
192,192,78097,1,0,0:0:0:0:
320,192,78226,1,0,0:0:0:70:clap.wav
448,192,78226,1,0,0:0:0:70:snare.wav
192,192,78355,1,0,0:0:0:0:
64,192,78484,1,0,0:0:0:0:
320,192,78613,1,0,0:0:0:70:clap.wav
448,192,78613,1,0,0:0:0:70:snare.wav
64,192,78742,1,0,0:0:0:0:
192,192,78871,1,0,0:0:0:0:
448,192,79000,1,0,0:0:0:70:clap.wav
64,192,79000,1,0,0:0:0:70:snare.wav
320,192,79129,1,0,0:0:0:0:
192,192,79259,1,0,0:0:0:0:
64,192,79388,1,0,0:0:0:70:clap.wav
448,192,79388,1,0,0:0:0:70:snare.wav
192,192,79517,1,0,0:0:0:0:
320,192,79646,1,0,0:0:0:0:
64,192,79775,1,0,0:0:0:70:clap.wav
448,192,79775,1,0,0:0:0:70:snare.wav
320,192,79904,1,0,0:0:0:0:
192,192,80033,1,0,0:0:0:0:
64,192,80162,1,0,0:0:0:70:clap.wav
448,192,80162,1,0,0:0:0:70:snare.wav
192,192,80291,1,0,0:0:0:0:
320,192,80420,1,0,0:0:0:70:snare.wav
448,192,80420,1,0,0:0:0:0:
192,192,80549,1,0,0:0:0:70:clap.wav
64,192,80549,1,0,0:0:0:70:snare.wav
448,192,80678,1,0,0:0:0:0:
320,192,80807,1,0,0:0:0:0:
192,192,80936,1,0,0:0:0:70:clap.wav
64,192,80936,1,0,0:0:0:70:snare.wav
320,192,81065,1,0,0:0:0:0:
448,192,81194,1,0,0:0:0:0:
192,192,81323,1,0,0:0:0:70:clap.wav
64,192,81323,1,0,0:0:0:70:snare.wav
448,192,81452,1,0,0:0:0:0:
320,192,81581,1,0,0:0:0:0:
192,192,81710,1,0,0:0:0:70:clap.wav
64,192,81710,1,0,0:0:0:70:snare.wav
320,192,81839,1,0,0:0:0:0:
448,192,81968,1,0,0:0:0:0:
64,192,82097,1,0,0:0:0:70:clap.wav
320,192,82097,1,0,0:0:0:70:snare.wav
192,192,82226,1,0,0:0:0:0:
448,192,82355,1,0,0:0:0:0:
320,192,82484,1,0,0:0:0:70:clap.wav
64,192,82484,1,0,0:0:0:70:snare.wav
448,192,82613,1,0,0:0:0:0:
192,192,82742,1,0,0:0:0:0:
64,192,82871,1,0,0:0:0:70:clap.wav
320,192,82871,1,0,0:0:0:70:snare.wav
192,192,83000,1,0,0:0:0:0:
448,192,83129,1,0,0:0:0:0:
320,192,83259,1,0,0:0:0:70:clap.wav
64,192,83259,1,0,0:0:0:70:snare.wav
448,192,83388,1,0,0:0:0:0:
192,192,83517,1,0,0:0:0:70:snare.wav
64,192,83517,1,0,0:0:0:0:
320,192,83646,1,0,0:0:0:70:snare.wav
448,192,83646,1,0,0:0:0:70:clap.wav
192,192,83775,1,0,0:0:0:0:
64,192,83904,1,0,0:0:0:0:
192,192,84033,1,0,0:0:0:70:clap.wav
448,192,84033,1,0,0:0:0:70:snare.wav
320,192,84162,1,0,0:0:0:0:
192,192,84291,1,0,0:0:0:0:
448,192,84420,1,0,0:0:0:70:clap.wav
64,192,84420,1,0,0:0:0:70:snare.wav
320,192,84549,1,0,0:0:0:0:
192,192,84678,1,0,0:0:0:0:
64,192,84807,1,0,0:0:0:70:clap.wav
448,192,84807,1,0,0:0:0:70:snare.wav
320,192,84936,1,0,0:0:0:0:
192,192,85065,1,0,0:0:0:70:snare.wav
64,192,85065,1,0,0:0:0:0:
320,192,85194,1,0,0:0:0:70:clap.wav
448,192,85194,1,0,0:0:0:70:snare.wav
192,192,85323,1,0,0:0:0:70:snare.wav
64,192,85323,1,0,0:0:0:0:
320,192,85452,1,0,0:0:0:70:snare.wav
448,192,85452,1,0,0:0:0:0:
64,192,85581,1,0,0:0:0:70:snare.wav
320,192,85710,1,0,0:0:0:70:snare.wav
192,192,85710,1,0,0:0:0:0:
448,192,85839,1,0,0:0:0:70:snare.wav
192,192,85968,1,0,0:0:0:70:clap.wav
64,192,85968,1,0,0:0:0:70:snare.wav
320,192,86097,1,0,0:0:0:70:snare.wav
448,192,86097,1,0,0:0:0:0:
64,192,86226,1,0,0:0:0:70:snare.wav
320,192,86355,1,0,0:0:0:70:clap.wav
192,192,86355,1,0,0:0:0:70:snare.wav
448,192,86484,1,0,0:0:0:70:snare.wav
64,192,86484,1,0,0:0:0:0:
320,192,86613,1,0,0:0:0:70:snare.wav
192,192,86613,1,0,0:0:0:0:
448,192,86742,1,0,0:0:0:70:snare.wav
320,192,86807,1,0,0:0:0:70:snare.wav
64,192,86871,1,0,0:0:0:70:snare.wav
192,192,86936,1,0,0:0:0:70:snare.wav
320,192,87000,1,0,0:0:0:70:snare.wav
192,192,87129,1,0,0:0:0:70:snare.wav
64,192,87194,1,0,0:0:0:70:snare.wav
448,192,87259,1,0,0:0:0:70:snare.wav
320,192,87323,1,0,0:0:0:70:snare.wav
192,192,87388,1,0,0:0:0:70:snare.wav
320,192,87517,1,0,0:0:0:70:snare.wav
448,192,87581,1,0,0:0:0:70:snare.wav
64,192,87646,1,0,0:0:0:70:snare.wav
192,192,87710,1,0,0:0:0:70:snare.wav
320,192,87775,1,0,0:0:0:70:snare.wav
64,192,87904,1,0,0:0:0:70:snare.wav
192,192,87968,1,0,0:0:0:70:snare.wav
448,192,88033,1,0,0:0:0:70:snare.wav
320,192,88097,1,0,0:0:0:70:snare.wav
192,192,88162,1,0,0:0:0:70:snare.wav
448,192,88291,1,0,0:0:0:70:bass.wav
64,192,88291,1,0,0:0:0:0:
320,192,88549,1,0,0:0:0:0:
192,192,88678,1,0,0:0:0:0:
64,192,88678,1,0,0:0:0:0:
448,192,88807,1,0,0:0:0:0:
64,192,88936,1,0,0:0:0:0:
320,192,89065,1,0,0:0:0:0:
448,192,89065,1,0,0:0:0:0:
64,192,89194,1,0,0:0:0:0:
192,192,89323,1,0,0:0:0:0:
320,192,89452,1,0,0:0:0:70:boom.wav
448,192,89452,128,0,89839:0:0:0:0:
192,192,89839,1,0,0:0:0:70:hardstyle.wav
64,192,89839,1,0,0:0:0:70:finish.wav
320,192,89968,1,0,0:0:0:0:
192,192,90097,1,0,0:0:0:0:
64,192,90226,1,0,0:0:0:70:hardstyle.wav
448,192,90226,1,0,0:0:0:0:
320,192,90355,1,0,0:0:0:0:
192,192,90484,1,0,0:0:0:0:
64,192,90613,1,0,0:0:0:70:hardstyle.wav
448,192,90613,1,0,0:0:0:0:
192,192,90742,1,0,0:0:0:0:
320,192,90871,1,0,0:0:0:0:
64,192,91000,1,0,0:0:0:70:hardstyle.wav
448,192,91000,1,0,0:0:0:0:
320,192,91129,1,0,0:0:0:0:
192,192,91259,1,0,0:0:0:0:
448,192,91388,1,0,0:0:0:70:hardstyle.wav
64,192,91388,1,0,0:0:0:0:
320,192,91517,1,0,0:0:0:0:
192,192,91646,1,0,0:0:0:0:
448,192,91775,1,0,0:0:0:70:hardstyle.wav
320,192,91775,1,0,0:0:0:0:
64,192,91904,1,0,0:0:0:0:
192,192,92033,1,0,0:0:0:0:
448,192,92162,1,0,0:0:0:70:hardstyle.wav
320,192,92162,1,0,0:0:0:0:
64,192,92291,1,0,0:0:0:0:
320,192,92420,1,0,0:0:0:0:
448,192,92549,1,0,0:0:0:70:hardstyle.wav
64,192,92549,1,0,0:0:0:0:
192,192,92678,1,0,0:0:0:70:hardstyle.wav
320,192,92678,1,0,0:0:0:0:
448,192,92807,1,0,0:0:0:70:hardstyle.wav
64,192,92807,1,0,0:0:0:0:
192,192,92936,1,0,0:0:0:70:hardstyle.wav
320,192,92936,1,0,0:0:0:0:
64,192,93065,1,0,0:0:0:0:
448,192,93194,1,0,0:0:0:0:
192,192,93323,1,0,0:0:0:70:hardstyle.wav
320,192,93323,1,0,0:0:0:0:
64,192,93452,1,0,0:0:0:0:
448,192,93581,1,0,0:0:0:0:
192,192,93710,1,0,0:0:0:70:hardstyle.wav
64,192,93710,1,0,0:0:0:0:
320,192,93839,1,0,0:0:0:0:
448,192,93968,1,0,0:0:0:0:
192,192,94097,1,0,0:0:0:70:hardstyle.wav
64,192,94097,1,0,0:0:0:0:
448,192,94226,1,0,0:0:0:0:
192,192,94355,1,0,0:0:0:0:
320,192,94484,1,0,0:0:0:70:hardstyle.wav
64,192,94484,1,0,0:0:0:70:finish.wav
192,192,94613,1,0,0:0:0:0:
448,192,94742,1,0,0:0:0:0:
320,192,94871,1,0,0:0:0:70:hardstyle.wav
64,192,94871,1,0,0:0:0:0:
192,192,95000,1,0,0:0:0:0:
320,192,95129,1,0,0:0:0:70:hardstyle.wav
448,192,95129,1,0,0:0:0:70:finish.wav
448,192,95646,1,0,0:0:0:70:boom.wav
64,192,95646,1,0,0:0:0:0:
192,192,95904,1,0,0:0:0:70:hardstyle.wav
448,192,95904,1,0,0:0:0:0:
320,192,96033,1,0,0:0:0:70:hardstyle.wav
64,192,96033,1,0,0:0:0:70:finish.wav
192,192,96162,1,0,0:0:0:0:
448,192,96291,1,0,0:0:0:0:
320,192,96420,1,0,0:0:0:70:hardstyle.wav
64,192,96420,1,0,0:0:0:0:
192,192,96549,1,0,0:0:0:0:
320,192,96678,1,0,0:0:0:0:
448,192,96807,1,0,0:0:0:70:hardstyle.wav
64,192,96807,1,0,0:0:0:0:
192,192,96936,1,0,0:0:0:0:
320,192,97065,1,0,0:0:0:0:
64,192,97194,1,0,0:0:0:70:hardstyle.wav
192,192,97194,1,0,0:0:0:0:
448,192,97323,1,0,0:0:0:0:
320,192,97452,1,0,0:0:0:0:
64,192,97581,1,0,0:0:0:70:hardstyle.wav
448,192,97581,1,0,0:0:0:0:
192,192,97710,1,0,0:0:0:0:
320,192,97839,1,0,0:0:0:0:
64,192,97968,1,0,0:0:0:70:hardstyle.wav
192,192,97968,1,0,0:0:0:0:
448,192,98097,1,0,0:0:0:0:
64,192,98226,1,0,0:0:0:0:
320,192,98355,1,0,0:0:0:70:hardstyle.wav
192,192,98355,1,0,0:0:0:0:
448,192,98484,1,0,0:0:0:0:
320,192,98613,1,0,0:0:0:0:
192,192,98742,1,0,0:0:0:70:hardstyle.wav
64,192,98742,1,0,0:0:0:0:
448,192,98871,1,0,0:0:0:0:
64,192,99000,1,0,0:0:0:0:
320,192,99129,1,0,0:0:0:70:finish.wav
192,192,99129,1,0,0:0:0:70:hardstyle.wav
448,192,99259,1,0,0:0:0:0:
64,192,99388,1,0,0:0:0:0:
192,192,99517,1,0,0:0:0:70:hardstyle.wav
448,192,99517,1,0,0:0:0:0:
320,192,99646,1,0,0:0:0:0:
192,192,99775,1,0,0:0:0:0:
64,192,99904,1,0,0:0:0:70:finish.wav
448,192,99904,1,0,0:0:0:70:hardstyle.wav
320,192,100033,1,0,0:0:0:0:
192,192,100162,1,0,0:0:0:0:
64,192,100291,1,0,0:0:0:70:hardstyle.wav
320,192,100291,1,0,0:0:0:0:
192,192,100420,1,0,0:0:0:0:
448,192,100549,1,0,0:0:0:0:
320,192,100678,1,0,0:0:0:70:finish.wav
64,192,100678,1,0,0:0:0:70:hardstyle.wav
192,192,100807,1,0,0:0:0:0:
448,192,100936,1,0,0:0:0:70:hardstyle.wav
64,192,100936,1,0,0:0:0:0:
320,192,101065,1,0,0:0:0:70:finish.wav
192,192,101065,1,0,0:0:0:70:hardstyle.wav
448,192,101194,1,0,0:0:0:0:
64,192,101323,1,0,0:0:0:70:hardstyle.wav
192,192,101388,1,0,0:0:0:70:hardstyle.wav
320,192,101452,1,0,0:0:0:70:finish.wav
448,192,101452,1,0,0:0:0:70:hardstyle.wav
192,192,101581,1,0,0:0:0:70:finish.wav
64,192,101581,1,0,0:0:0:70:hardstyle.wav
320,192,101710,1,0,0:0:0:70:finish.wav
448,192,101710,1,0,0:0:0:70:hardstyle.wav
192,192,101839,1,0,0:0:0:70:finish.wav
64,192,101839,1,0,0:0:0:70:hardstyle.wav
64,192,102226,1,0,0:0:0:70:boom.wav
448,192,102226,128,0,104549:0:0:0:70:bass.wav
192,192,102355,1,0,0:0:0:0:
320,192,102484,1,0,0:0:0:0:
320,192,102613,1,0,0:0:0:0:
192,192,102742,1,0,0:0:0:0:
64,192,102871,1,0,0:0:0:0:
64,192,103000,1,0,0:0:0:0:
192,192,103129,1,0,0:0:0:0:
320,192,103259,1,0,0:0:0:0:
320,192,103388,5,0,0:0:0:0:
192,192,103517,1,0,0:0:0:0:
64,192,103646,1,0,0:0:0:0:
320,192,103775,1,0,0:0:0:0:
192,192,103904,1,0,0:0:0:0:
64,192,104033,1,0,0:0:0:0:
64,192,104162,1,0,0:0:0:0:
192,192,104291,1,0,0:0:0:0:
320,192,104420,1,0,0:0:0:0:
64,192,104549,5,0,0:0:0:70:hardstyle.wav
192,192,104597,1,0,0:0:0:70:hardstyle.wav
320,192,104646,1,0,0:0:0:70:hardstyle.wav
448,192,104694,1,0,0:0:0:70:hardstyle.wav
64,192,104807,1,0,0:0:0:70:hardstyle.wav
192,192,104871,1,0,0:0:0:70:hardstyle.wav
320,192,104936,1,0,0:0:0:70:hardstyle.wav
448,192,104936,1,0,0:0:0:70:finish.wav
320,192,105065,1,0,0:0:0:70:hardstyle.wav
448,192,105065,1,0,0:0:0:70:finish.wav
192,192,105194,1,0,0:0:0:70:hardstyle.wav
64,192,105194,1,0,0:0:0:70:finish.wav
192,192,105323,1,0,0:0:0:70:finish.wav
64,192,105323,1,0,0:0:0:70:hardstyle.wav
448,192,105452,1,0,0:0:0:0:
320,192,105581,1,0,0:0:0:0:
64,192,105710,1,0,0:0:0:70:hardstyle.wav
448,192,105710,1,0,0:0:0:0:
192,192,105839,1,0,0:0:0:0:
320,192,105968,1,0,0:0:0:0:
192,192,106097,1,0,0:0:0:70:hardstyle.wav
64,192,106097,1,0,0:0:0:0:
448,192,106226,1,0,0:0:0:0:
64,192,106355,1,0,0:0:0:0:
320,192,106484,1,0,0:0:0:70:hardstyle.wav
192,192,106484,1,0,0:0:0:0:
448,192,106613,1,0,0:0:0:0:
192,192,106742,1,0,0:0:0:0:
64,192,106871,1,0,0:0:0:70:hardstyle.wav
320,192,106871,1,0,0:0:0:0:
192,192,107000,1,0,0:0:0:0:
320,192,107129,1,0,0:0:0:0:
448,192,107259,1,0,0:0:0:70:hardstyle.wav
64,192,107259,1,0,0:0:0:0:
192,192,107388,1,0,0:0:0:0:
320,192,107517,1,0,0:0:0:70:hardstyle.wav
448,192,107517,1,0,0:0:0:70:finish.wav
192,192,108033,1,0,0:0:0:70:boom.wav
320,192,108033,1,0,0:0:0:0:
64,192,108420,1,0,0:0:0:70:hardstyle.wav
448,192,108420,1,0,0:0:0:0:
320,192,108549,1,0,0:0:0:70:hardstyle.wav
192,192,108549,1,0,0:0:0:0:
64,192,108678,1,0,0:0:0:70:hardstyle.wav
448,192,108678,1,0,0:0:0:0:
320,192,108807,1,0,0:0:0:70:hardstyle.wav
192,192,108807,1,0,0:0:0:70:finish.wav
64,192,108936,1,0,0:0:0:0:
448,192,109065,1,0,0:0:0:0:
320,192,109194,1,0,0:0:0:70:hardstyle.wav
64,192,109194,1,0,0:0:0:0:
192,192,109323,1,0,0:0:0:0:
320,192,109452,1,0,0:0:0:0:
448,192,109581,1,0,0:0:0:70:hardstyle.wav
64,192,109581,1,0,0:0:0:0:
192,192,109710,1,0,0:0:0:70:hardstyle.wav
320,192,109710,1,0,0:0:0:0:
64,192,109839,1,0,0:0:0:70:hardstyle.wav
448,192,109839,1,0,0:0:0:0:
192,192,109968,1,0,0:0:0:70:hardstyle.wav
320,192,109968,1,0,0:0:0:70:finish.wav
64,192,110097,1,0,0:0:0:0:
192,192,110226,1,0,0:0:0:0:
448,192,110355,1,0,0:0:0:70:hardstyle.wav
320,192,110355,1,0,0:0:0:0:
64,192,110484,1,0,0:0:0:0:
192,192,110613,1,0,0:0:0:70:hardstyle.wav
448,192,110613,1,0,0:0:0:0:
320,192,110742,1,0,0:0:0:70:hardstyle.wav
64,192,110742,1,0,0:0:0:70:finish.wav
192,192,110984,1,0,0:0:0:70:hardstyle.wav
320,192,111033,1,0,0:0:0:70:hardstyle.wav
448,192,111081,1,0,0:0:0:70:hardstyle.wav
192,192,111129,1,0,0:0:0:70:hardstyle.wav
64,192,111129,1,0,0:0:0:70:finish.wav
320,192,111259,1,0,0:0:0:70:hardstyle.wav
448,192,111259,1,0,0:0:0:70:finish.wav
192,192,111388,1,0,0:0:0:70:hardstyle.wav
64,192,111388,1,0,0:0:0:70:finish.wav
320,192,111517,1,0,0:0:0:70:finish.wav
448,192,111517,1,0,0:0:0:70:hardstyle.wav
64,192,111775,1,0,0:0:0:70:hardstyle.wav
448,192,111775,1,0,0:0:0:0:
320,192,111904,1,0,0:0:0:70:hardstyle.wav
192,192,111904,1,0,0:0:0:0:
64,192,112033,1,0,0:0:0:70:hardstyle.wav
448,192,112033,1,0,0:0:0:0:
320,192,112162,1,0,0:0:0:70:hardstyle.wav
192,192,112162,1,0,0:0:0:0:
64,192,112291,1,0,0:0:0:70:hardstyle.wav
448,192,112291,1,0,0:0:0:70:finish.wav
192,192,112549,1,0,0:0:0:70:hardstyle.wav
320,192,112613,1,0,0:0:0:70:hardstyle.wav
448,192,112678,1,0,0:0:0:70:hardstyle.wav
64,192,112678,1,0,0:0:0:70:finish.wav
192,192,113065,1,0,0:0:0:70:hardstyle.wav
64,192,113065,1,0,0:0:0:0:
320,192,113452,1,0,0:0:0:0:
192,192,113581,1,0,0:0:0:0:
448,192,113710,1,0,0:0:0:0:
64,192,113839,1,0,0:0:0:0:
320,192,113968,1,0,0:0:0:0:
192,192,114097,1,0,0:0:0:0:
64,192,114226,128,0,114613:0:0:0:70:boom.wav
448,192,114226,128,0,114613:0:0:0:0:
320,192,114613,1,0,0:0:0:70:hardstyle.wav
192,192,114613,1,0,0:0:0:70:finish.wav
