osu file format v14

[General]
AudioFilename: audio.mp3
AudioLeadIn: 0
PreviewTime: 77883
Countdown: 1
SampleSet: None
StackLeniency: 0.7
Mode: 0
LetterboxInBreaks: 0
EpilepsyWarning: 1
WidescreenStoryboard: 1

[Editor]
Bookmarks: 143283
DistanceSpacing: 0.8
BeatDivisor: 4
GridSize: 4
TimelineZoom: 1

[Metadata]
Title:KIRA - Machine Gun ft. GUMI English (Original Song)
TitleUnicode:KIRA - Machine Gun ft. GUMI English (Original Song)
Artist:YusukeKira
ArtistUnicode:YusukeKira
Creator:Kura_Kiyuko
Version:Normal
Source:YusukeKira/Vocaloid
Tags:Gumi MachineGun YusukeKira Original Song KIRA
BeatmapID:1806958
BeatmapSetID:854260

[Difficulty]
HPDrainRate:4
CircleSize:3.7
OverallDifficulty:5
ApproachRate:4
SliderMultiplier:1.4
SliderTickRate:1

[Events]
//Background and Video events
Video,76,"KIRA - Machine Gun ft. GUMI English (Original Song).avi"
0,0,"maxresdefault (29).jpg",0,0
//Break Periods
2,170682,181963
//Storyboard Layer 0 (Background)
//Storyboard Layer 1 (Fail)
//Storyboard Layer 2 (Pass)
//Storyboard Layer 3 (Foreground)
//Storyboard Sound Samples

[TimingPoints]
14483,400,4,1,0,100,1,0
35683,-153.846153846153,4,1,0,100,0,0
36883,-100,4,1,0,100,0,0
52483,-100,4,1,0,20,0,0
64883,-100,4,1,0,60,0,0
75083,-40,4,1,0,100,0,0
77883,-90.9090909090909,4,1,0,100,0,0
79683,-90.9090909090909,4,1,0,100,0,0
118083,-100,4,1,0,20,0,0
123683,-133.333333333333,4,1,0,20,0,0
124483,-100,4,1,0,20,0,0
130483,-100,4,1,0,60,0,0
140683,-90.9090909090909,4,1,0,100,0,0
145283,-90.9090909090909,4,1,0,100,0,0
190883,-100,4,1,0,100,0,0
191083,-40,4,1,0,100,0,0
191283,-100,4,1,0,100,0,0
196183,-100,4,2,0,100,0,0
197283,-90.9090909090909,4,1,0,100,0,0

[HitObjects]
249,252,14483,6,8,B|195:182|268:123,1,140
353,65,15283,2,8,P|388:111|346:198,1,140
281,258,16083,2,8,P|277:189|314:131,1,140
391,212,16883,2,8,P|384:280|321:331,1,140
232,375,17683,6,8,P|217:308|252:249,1,140
333,326,18483,2,8,P|373:271|360:204,1,140
248,191,19283,1,8,0:0:0:0:
140,222,19683,1,8,0:0:0:0:
363,203,20483,6,8,L|363:354,2,140
324,98,21683,1,8,0:0:0:0:
215,126,22083,1,8,0:0:0:0:
195,227,22483,2,8,P|264:220|308:156,1,140
331,58,23283,5,8,0:0:0:0:
219,61,23683,1,8,0:0:0:0:
200,171,24083,2,8,P|136:159|118:91,2,140
308,143,25283,1,8,0:0:0:0:
368,237,25683,1,8,0:0:0:0:
424,140,26083,1,8,0:0:0:0:
204,177,26883,6,8,P|228:253|293:303,1,140
382,308,27683,1,8,0:0:0:0:
376,196,28083,1,8,0:0:0:0:
306,108,28483,1,8,0:0:0:0:
209,51,28883,6,8,P|196:109|240:192,2,140
320,42,30083,1,8,0:0:0:0:
323,153,30483,1,8,0:0:0:0:
221,200,30883,1,8,0:0:0:0:
160,294,31283,2,8,P|242:304|304:255,1,140
353,184,32083,1,8,0:0:0:0:
282,96,32483,1,8,0:0:0:0:
65,154,33283,6,8,L|148:32,2,140
62,265,34483,1,8,0:0:0:0:
170,293,34883,1,8,0:0:0:0:
228,197,35283,1,8,0:0:0:0:
258,130,35683,6,8,B|357:112|301:183|381:198|272:313|421:293,1,272.999987503052
472,200,37283,5,8,0:0:0:0:
414,103,37683,1,8,0:0:0:0:
309,63,38083,1,8,0:0:0:0:
197,59,38483,1,8,0:0:0:0:
102,119,38883,2,8,P|141:161|226:155,1,140
200,48,39683,6,8,P|268:27|342:54,1,140
249,123,40483,2,8,L|250:279,3,140
360,281,42083,2,8,P|282:354|244:347,1,140
210,250,42883,5,8,0:0:0:0:
111,196,43283,1,8,0:0:0:0:
173,102,43683,2,8,P|237:94|309:145,2,140
72,150,44883,1,8,0:0:0:0:
125,248,45283,1,8,0:0:0:0:
225,297,45683,1,8,0:0:0:0:
245,186,46083,6,8,P|321:239|324:299,1,140
215,275,46883,2,8,P|155:269|82:196,1,140
197,177,47683,2,8,P|250:167|358:187,1,140
297,283,48483,2,8,P|391:282|420:226,2,140
219,201,49683,5,8,0:0:0:0:
319,151,50083,1,8,0:0:0:0:
252,60,50483,2,8,P|315:49|405:91,1,140
347,179,51283,2,8,P|367:250|319:161,1,420
391,99,52883,1,8,0:0:0:0:
394,210,53283,2,8,L|394:364,3,140
282,355,54883,5,8,0:0:0:0:
290,243,55283,2,8,P|313:175|385:134,2,140
193,300,56483,1,8,0:0:0:0:
122,212,56883,1,8,0:0:0:0:
193,300,57283,5,8,0:0:0:0:
143,199,57683,2,2,P|107:154|18:128,2,140,10|2|10,0:0|0:0|0:0,0:0:0:0:
204,292,58883,1,8,0:0:0:0:
316,292,59283,2,8,L|318:151,2,140
427,296,60483,1,8,0:0:0:0:
427,184,60883,1,8,0:0:0:0:
464,78,61283,6,8,P|399:75|334:133,1,140
261,197,62083,1,8,0:0:0:0:
171,130,62483,1,8,0:0:0:0:
261,197,62883,1,8,0:0:0:0:
354,259,63283,1,8,0:0:0:0:
441,328,63683,2,8,P|458:286|455:177,3,140
360,139,65283,5,8,0:0:0:0:
250,113,65683,1,8,0:0:0:0:
174,195,66083,1,8,0:0:0:0:
250,113,66483,1,8,0:0:0:0:
314,204,66883,6,8,L|406:323,3,140
410,203,68483,1,8,0:0:0:0:
347,110,68883,1,8,0:0:0:0:
238,81,69283,1,8,0:0:0:0:
238,193,69683,6,8,L|238:349,2,140
240,81,70883,1,8,0:0:0:0:
346,116,71283,1,8,0:0:0:0:
353,227,71683,1,8,0:0:0:0:
346,116,72083,5,8,0:0:0:0:
234,117,72483,2,8,P|172:146|150:219,1,140
211,302,73283,2,8,P|274:344|361:323,2,140
99,296,74483,6,2,B|49:293|49:293|102:98|318:251|318:251|317:94|187:81|150:110|150:110|158:105|243:-35|369:99|369:99|424:151|448:288,1,1120,2|0,0:0|0:0,0:0:0:0:
406,325,77883,2,0,L|328:325,3,77.0000023498536,0|8|0|8,0:0|0:0|0:0|0:0,0:0:0:0:
207,337,78883,2,8,P|161:336|120:247,1,154.000004699707,8|4,0:0|0:0,0:0:0:0:
184,143,79683,5,8,0:0:0:0:
90,62,80083,1,8,0:0:0:0:
212,48,80483,2,8,L|390:47,2,154.000004699707
195,170,81683,2,8,P|198:222|301:246,1,154.000004699707
406,243,82483,5,4,0:0:0:0:
320,154,82883,1,8,0:0:0:0:
196,158,83283,2,8,L|196:324,2,154.000004699707
189,34,84483,1,8,0:0:0:0:
290,104,84883,2,8,L|289:272,1,154.000004699707
165,264,85683,5,4,0:0:0:0:
165,140,86083,1,8,0:0:0:0:
288,143,86483,1,8,0:0:0:0:
324,260,86883,2,8,P|384:235|383:133,4,154.000004699707
260,154,88883,5,4,0:0:0:0:
147,102,89283,1,8,0:0:0:0:
76,203,89683,2,8,P|161:205|220:276,2,154.000004699707
41,84,90883,1,8,0:0:0:0:
163,72,91283,2,8,P|224:29|305:53,2,154.000004699707
115,186,92483,6,8,B|175:248|175:248|266:249,2,154.000004699707
128,63,93683,1,8,0:0:0:0:
251,59,94083,1,8,0:0:0:0:
282,178,94483,2,8,P|319:248|281:328,1,154.000004699707
177,349,95283,5,8,0:0:0:0:
134,233,95683,2,0,P|140:175|118:221,1,154.000004699707
180,313,96483,2,8,P|226:321|334:276,2,154.000004699707
67,262,97683,1,8,0:0:0:0:
160,182,98083,1,8,0:0:0:0:
374,60,98883,6,8,B|386:139|386:139|338:231,1,154.000004699707
286,309,99683,1,8,0:0:0:0:
170,266,100083,1,8,0:0:0:0:
174,142,100483,2,8,P|107:97|21:109,1,154.000004699707
28,224,101283,2,8,P|95:266|186:268,2,154.000004699707
102,125,102483,2,8,P|72:202|95:271,1,154.000004699707
214,251,103283,5,8,0:0:0:0:
320,188,103683,2,8,B|350:253|350:253|345:353,2,154.000004699707
273,73,104883,1,8,0:0:0:0:
161,124,105283,6,10,B|242:124|242:124|229:213|134:243|69:235|27:157|58:43|105:10|205:4|244:57,2,539.000016448975,10|0|10,0:0|0:0|0:0,0:0:0:0:
283,140,108483,2,10,B|284:323|284:323|181:320|181:320|180:126,2,462.000014099122
314,259,111283,2,8,B|327:70|327:70|386:170|386:170|454:71|454:71|455:281,2,616.000018798829
385,141,114883,2,10,L|385:382,4,231.000007049561,10|2|10|2|10,0:0|0:0|0:0|0:0|0:0,0:0:0:0:
165,188,118083,6,8,P|182:262|261:299,1,140
343,312,118883,1,8,0:0:0:0:
286,215,119283,1,8,0:0:0:0:
254,107,119683,2,8,P|320:106|381:153,2,140
161,171,120883,1,8,0:0:0:0:
226,262,121283,1,8,0:0:0:0:
266,157,121683,2,8,L|360:284,1,140
417,358,122483,5,8,0:0:0:0:
322,297,122883,1,8,0:0:0:0:
225,240,123283,1,8,0:0:0:0:
204,158,123683,6,10,B|258:86|274:158|312:137|332:193|399:113,1,210.000008010865
462,41,124883,5,8,0:0:0:0:
350,39,125283,1,8,0:0:0:0:
238,46,125683,2,8,L|93:45,2,140
349,47,126883,1,8,0:0:0:0:
344,158,127283,1,8,0:0:0:0:
241,203,127683,2,8,P|279:254|382:256,2,140
106,23,129283,6,8,P|75:62|74:169,1,140
124,245,130083,1,8,0:0:0:0:
192,156,130483,1,8,0:0:0:0:
303,158,130883,2,8,P|348:179|403:282,2,140
193,131,132083,5,8,0:0:0:0:
153,235,132483,1,8,0:0:0:0:
245,298,132883,1,8,0:0:0:0:
286,187,133283,2,8,P|361:209|409:277,3,140
463,346,134883,5,8,0:0:0:0:
467,234,135283,1,8,0:0:0:0:
367,182,135683,2,8,L|232:106,1,140
133,125,136483,2,8,P|155:202|220:240,1,140
238,129,137283,6,8,L|344:247,1,140
406,316,138083,1,8,0:0:0:0:
402,204,138483,2,8,P|378:135|305:95,1,140
212,90,139283,1,8,0:0:0:0:
100,87,139683,1,8,0:0:0:0:
155,193,140083,6,8,B|219:193|219:193|207:353|-69:359|1:19|180:57|243:97,2,560
204,156,143483,2,8,L|204:64,3,77.0000023498536,0|8|0|8,0:0|0:0|0:0|0:0,0:0:0:0:
311,139,144483,2,8,P|311:203|223:254,1,154.000004699707,8|4,0:0|0:0,0:0:0:0:
120,258,145283,6,8,L|119:100,2,154.000004699707
243,254,146483,2,8,L|243:99,2,154.000004699707
339,330,147683,1,8,0:0:0:0:
348,208,148083,6,0,P|420:230|457:296,2,154.000004699707,4|8|0,0:0|0:0|0:0,0:0:0:0:
230,243,149283,1,8,0:0:0:0:
131,316,149683,2,8,P|107:223|147:152,1,154.000004699707
230,243,150483,2,8,P|255:166|234:86,1,154.000004699707
116,98,151283,6,4,P|90:167|116:263,1,154.000004699707,4|8,0:0|0:0,0:0:0:0:
202,170,152083,2,8,L|338:54,2,154.000004699707
108,250,153283,1,8,0:0:0:0:
225,286,153683,2,8,P|297:285|387:214,1,154.000004699707
266,170,154483,6,4,P|238:110|139:55,1,154.000004699707,4|8,0:0|0:0,0:0:0:0:
45,78,155283,1,8,0:0:0:0:
77,196,155683,1,8,0:0:0:0:
194,233,156083,2,8,L|355:270,3,154.000004699707
458,314,157683,5,4,0:0:0:0:
459,190,158083,2,8,B|460:102|460:102|368:103,1,154.000004699707
334,206,158883,2,8,P|258:208|182:146,1,154.000004699707
96,91,159683,5,8,0:0:0:0:
216,65,160083,1,8,0:0:0:0:
334,98,160483,2,8,P|378:133|386:247,2,154.000004699707,8|4|8,0:0|0:0|0:0,0:0:0:0:
216,65,161683,1,8,0:0:0:0:
108,125,162083,1,8,0:0:0:0:
74,243,162483,5,8,0:0:0:0:
184,297,162883,2,8,P|246:252|263:151,2,154.000004699707
61,315,164083,1,4,0:0:0:0:
62,191,164483,2,8,L|62:12,2,154.000004699707
51,314,165683,5,8,0:0:0:0:
151,242,166083,1,8,0:0:0:0:
243,162,166483,1,8,0:0:0:0:
295,273,166883,2,8,P|343:210|344:103,1,154.000004699707,8|4,0:0|0:0,0:0:0:0:
233,170,167683,6,8,P|181:110|90:87,2,154.000004699707
274,286,168883,1,8,0:0:0:0:
396,297,169283,1,8,0:0:0:0:
400,173,169683,1,8,0:0:0:0:
333,69,170083,2,8,P|271:66|173:128,1,154.000004699707,8|0,0:0|0:0,0:0:0:0:
167,209,183283,5,8,0:0:0:0:
386,96,184083,1,8,0:0:0:0:
139,92,184883,1,8,0:0:0:0:
333,242,185683,1,8,0:0:0:0:
110,136,186483,5,8,0:0:0:0:
352,90,187283,1,8,0:0:0:0:
105,90,188083,1,8,0:0:0:0:
159,200,188483,2,8,P|238:224|320:188,2,154.000004699707
245,111,189683,6,8,L|394:42,3,154.000004699707
479,106,191283,5,8,0:0:0:0:
391,176,191683,1,8,0:0:0:0:
296,235,192083,1,8,0:0:0:0:
212,310,192483,2,8,P|179:254|203:175,1,140
296,235,193283,5,8,0:0:0:0:
292,118,193683,1,8,0:0:0:0:
185,83,194083,2,4,P|130:107|90:186,2,140,4|8|8,0:0|0:0|0:0,0:0:0:0:
297,84,195283,5,8,0:0:0:0:
254,187,195683,2,0,L|119:265,3,140,4|8|0|0,0:0|0:0|0:0|0:0,0:0:0:0:
335,116,197683,5,4,0:0:0:0:
212,99,198083,2,8,P|226:162|305:241,2,154.000004699707
318,35,199283,1,8,0:0:0:0:
376,143,199683,1,8,0:0:0:0:
342,261,200083,2,8,P|281:313|187:317,1,154.000004699707
94,279,200883,5,4,0:0:0:0:
160,175,201283,1,8,0:0:0:0:
221,68,201683,1,8,0:0:0:0:
337,109,202083,2,8,L|259:270,2,154.000004699707
222,62,203283,2,8,L|146:205,1,154.000004699707
94,308,204083,5,4,0:0:0:0:
211,345,204483,1,8,0:0:0:0:
333,354,204883,2,8,P|373:285|357:188,1,154.000004699707
317,101,205683,1,8,0:0:0:0:
212,166,206083,2,8,L|82:264,2,154.000004699707
317,101,207283,5,4,0:0:0:0:
440,103,207683,1,8,0:0:0:0:
353,191,208083,2,8,L|214:294,2,154.000004699707
447,111,209283,1,8,0:0:0:0:
340,48,209683,1,8,0:0:0:0:
289,160,210083,6,8,P|257:215|253:325,2,154.000004699707,8|4|8,0:0|0:0|0:0,0:0:0:0:
340,48,211283,1,8,0:0:0:0:
216,52,211683,2,8,P|150:99|136:196,1,154.000004699707
180,279,212483,5,8,0:0:0:0:
297,315,212883,1,8,0:0:0:0:
344,201,213283,2,8,L|185:158,1,154.000004699707,8|4,0:0|0:0,0:0:0:0:
78,120,214083,5,8,0:0:0:0:
186,62,214483,1,8,0:0:0:0:
308,73,214883,1,8,0:0:0:0:
260,186,215283,2,8,P|342:180|416:121,2,154.000004699707
140,156,216483,1,8,0:0:0:0:
48,238,216883,5,4,0:0:0:0:
170,246,217283,2,8,P|246:225|259:130,1,154.000004699707
177,77,218083,2,8,P|249:42|337:85,1,154.000004699707
407,146,218883,1,8,0:0:0:0:
389,268,219283,1,8,0:0:0:0:
266,281,219683,6,8,P|196:265|122:190,2,154.000004699707,8|4|8,0:0|0:0|0:0,0:0:0:0:
389,268,220883,1,8,0:0:0:0:
320,165,221283,2,8,P|272:132|162:124,1,154.000004699707
77,189,222083,1,8,0:0:0:0:
108,308,222483,1,8,0:0:0:0:
231,308,222883,2,8,L|394:308,2,154.000004699707
