osu file format v14

[General]
AudioFilename: Pokemon_XY_Opening_1_[HD]_[ENG_Sub]_-_V_(VOLT)_by_ (1) (1).mp3
AudioLeadIn: 0
PreviewTime: 58020
Countdown: 0
SampleSet: Normal
StackLeniency: 0.7
Mode: 0
LetterboxInBreaks: 0
WidescreenStoryboard: 1

[Editor]
Bookmarks: 5568,10113,19810,39204,58144,77235
DistanceSpacing: 1.1
BeatDivisor: 4
GridSize: 8
TimelineZoom: 1

[Metadata]
Title:Volt
TitleUnicode:Volt
Artist:Yusuke Kamiji
ArtistUnicode:遊助
Creator:Happy190
Version:Easy
Source:ポケットモンスター XY
Tags:Pokémon, Pikachu, Ash, Anime
BeatmapID:895592
BeatmapSetID:412910

[Difficulty]
HPDrainRate:4
CircleSize:3
OverallDifficulty:4
ApproachRate:4
SliderMultiplier:0.8
SliderTickRate:1

[Events]
//Background and Video events
0,0,"pokemonxy.jpg",0,0
Video,0,"Pokemon_XY_Opening_1_[HD]_[ENG_Sub]_-_V_(VOLT) NO AUDIO.avi"
//Break Periods
//Storyboard Layer 0 (Background)
//Storyboard Layer 1 (Fail)
//Storyboard Layer 2 (Pass)
//Storyboard Layer 3 (Foreground)
//Storyboard Sound Samples

[TimingPoints]
795,300,4,1,0,75,1,0
10095,-100,4,2,0,75,0,0
19920,-100,4,1,0,75,0,0
39204,-100,4,1,0,100,0,0
58395,-100,4,1,0,100,0,1
77295,-100,4,1,0,100,0,0

[Colours]
Combo1 : 255,192,0
Combo2 : 255,84,34
Combo3 : 32,236,63
Combo4 : 45,168,234

[HitObjects]
152,144,795,6,0,P|144:200|256:328,1,240,0|8,0:0|0:0,0:0:0:0:
256,208,2145,1,0,0:0:0:0:
368,176,2595,2,0,P|320:104|240:72,1,160,0|8,0:0|0:0,0:0:0:0:
256,192,3645,1,0,0:0:0:0:
136,208,4095,2,0,P|160:264|216:312,2,120,0|8|0,0:0|0:0|0:0,0:0:0:0:
64,160,5595,6,0,P|96:96|192:80,1,160,0|8,0:0|0:0,0:0:0:0:
256,112,6495,1,0,0:0:0:0:
244,199,6795,2,0,P|324:183|380:111,1,160,0|8,0:0|0:0,0:0:0:0:
445,74,7695,2,0,P|389:42|365:42,1,80
289,63,8295,5,0,0:0:0:0:
210,101,8595,2,0,P|178:141|170:173,1,80
108,229,9195,2,0,B|156:277|156:277|236:221,1,160
288,160,10095,5,0,0:0:0:0:
353,219,10395,2,0,L|417:275,2,80
288,160,11295,2,0,L|192:160,1,80
144,221,11895,1,0,0:0:0:0:
95,147,12195,2,4,P|143:83|223:83,1,160
182,161,13095,5,0,0:0:0:0:
268,144,13395,2,0,P|292:184|284:224,1,80
267,301,13995,2,0,L|347:349,2,80
212,231,14895,6,0,P|116:255|44:231,1,160,0|2,0:0|0:0,0:0:0:0:
91,157,15795,1,0,0:0:0:0:
52,77,16095,2,0,P|124:53|212:77,1,160
256,142,16995,1,0,0:0:0:0:
315,259,17445,6,0,L|211:259,2,100
400,158,18645,2,0,L|400:54,2,100
279,212,19845,5,8,0:0:0:0:
277,343,20295,2,0,P|189:327|149:271,1,160,0|8,0:0|0:0,0:0:0:0:
136,186,21195,2,0,L|48:186,2,80
198,123,22095,1,8,0:0:0:0:
202,29,22395,6,0,P|260:56|298:148,1,160
351,210,23295,1,8,0:0:0:0:
269,243,23595,2,0,P|197:267|109:259,1,160
60,191,24495,5,8,0:0:0:0:
83,106,24795,2,0,P|187:74|251:82,1,160
311,125,25695,1,8,0:0:0:0:
382,176,25995,2,0,L|438:104,2,80
309,226,26895,1,8,0:0:0:0:
373,285,27195,6,0,P|325:325|229:333,1,160
145,311,28095,1,0,0:0:0:0:
172,227,28395,2,0,P|164:179|180:139,1,80
245,100,28995,1,0,0:0:0:0:
332,95,29295,1,0,0:0:0:0:
369,118,29445,6,0,P|393:190|369:230,1,120,8|0,0:0|0:0,0:0:0:0:
298,179,30195,1,0,0:0:0:0:
218,216,30495,2,0,L|146:264,2,80
298,179,31395,1,0,0:0:0:0:
385,182,31695,1,8,0:0:0:0:
431,114,31995,6,0,P|383:66|279:66,1,160
207,74,32895,1,0,0:0:0:0:
139,130,33195,2,0,P|171:202|243:226,1,160
331,229,34095,1,0,0:0:0:0:
412,195,34395,1,0,0:0:0:0:
381,112,34695,6,0,P|317:64|229:48,1,160
194,122,35595,1,0,0:0:0:0:
154,200,35895,2,0,L|66:200,2,80
241,197,36795,6,0,B|273:237|305:181|409:213,1,160
389,297,37695,2,0,B|349:321|309:273|229:305,1,160
147,327,38595,1,0,0:0:0:0:
80,268,38895,1,8,0:0:0:0:
23,200,39195,6,0,P|127:152|175:160,1,160
248,195,40095,1,0,0:0:0:0:
329,227,40395,2,0,P|353:291|345:307,2,80
273,158,41295,1,0,0:0:0:0:
186,144,41595,2,0,P|106:160|42:208,1,160
45,293,42495,5,0,0:0:0:0:
124,331,42795,2,0,P|228:339|284:315,1,160
227,246,43695,1,0,0:0:0:0:
298,194,43995,2,0,P|218:154|146:154,1,160
62,168,44895,5,0,0:0:0:0:
62,255,45195,2,0,L|63:337,2,80
149,251,46095,2,0,B|253:251|269:235|269:171,1,160
255,95,46995,2,0,B|167:95|151:103|149:185,1,160
150,308,48045,1,0,0:0:0:0:
280,312,48495,5,0,0:0:0:0:
368,312,48795,1,0,0:0:0:0:
320,240,49095,2,0,P|344:168|288:112,1,160
248,192,49995,1,0,0:0:0:0:
184,128,50295,2,0,P|128:104|104:104,2,80,0|8|0,0:0|0:0|0:0,0:0:0:0:
248,192,51195,5,0,0:0:0:0:
336,192,51495,2,0,P|328:248|296:264,2,80,0|8|0,0:0|0:0|0:0,0:0:0:0:
310,107,52395,1,0,0:0:0:0:
235,59,52695,1,0,0:0:0:0:
147,64,52995,2,0,B|75:88|67:104|43:176,1,160
105,235,53895,2,0,L|25:275,2,80
145,313,54795,2,0,L|73:353,2,80
190,237,55695,1,0,0:0:0:0:
115,189,55995,6,0,P|171:157|227:157,1,120
357,158,56895,1,0,0:0:0:0:
458,73,57345,2,0,P|499:146|490:185,1,120
424,234,58095,5,0,0:0:0:0:
355,289,58395,2,0,P|283:305|259:305,1,80
189,293,58995,2,0,L|93:317,2,80
154,212,59895,2,0,P|178:164|170:132,1,80
198,55,60495,2,0,P|126:71|110:79,2,80
285,57,61395,6,0,P|357:81|389:153,1,160
301,143,62295,1,0,0:0:0:0:
278,228,62595,2,0,B|206:228|190:220|110:188,1,160
163,115,63495,5,0,0:0:0:0:
197,33,63795,2,0,P|140:40|69:113,1,160
41,194,64695,1,0,0:0:0:0:
78,273,64995,6,0,P|142:321|150:321,2,80,0|8|0,0:0|0:0|0:0,0:0:0:0:
158,237,65895,2,0,P|198:165|286:165,1,160
240,240,66795,2,0,P|240:296|328:344,1,160,0|8,0:0|0:0,0:0:0:0:
327,257,67695,5,0,0:0:0:0:
388,193,67995,2,8,B|428:113|428:113|404:33,1,160
343,106,68895,1,0,0:0:0:0:
255,110,69195,2,0,L|175:110,2,80,8|0|8,0:0|0:0|0:0,0:0:0:0:
342,109,70095,2,0,P|374:181|342:261,1,160,0|8,0:0|0:0,0:0:0:0:
282,312,70995,5,0,0:0:0:0:
197,336,71295,2,0,P|133:344|109:336,1,80,8|0,0:0|0:0,0:0:0:0:
68,268,71895,2,0,L|12:324,2,80,8|0|8,0:0|0:0|0:0,0:0:0:0:
145,226,72795,5,0,0:0:0:0:
103,148,73095,2,0,P|175:140|231:204,1,160,8|8,0:0|0:0,0:0:0:0:
245,286,73995,2,8,P|316:253|390:277,1,160
442,347,74895,6,0,P|466:283|426:203,1,160
338,106,75945,1,0,0:0:0:0:
206,110,76395,2,0,B|162:111|162:111|149:182|217:301,1,240
288,248,77595,6,0,B|363:293|363:293|435:285,1,160
387,211,78495,1,0,0:0:0:0:
350,131,78795,2,0,L|304:48,2,80
240,200,79845,6,0,L|160:240,1,80
96,184,80445,1,0,0:0:0:0:
112,96,80745,1,0,0:0:0:0:
136,64,80895,2,0,P|160:40|208:32,2,80
200,120,81795,1,0,0:0:0:0:
288,120,82095,6,0,B|374:110|451:162,1,160
375,213,82995,1,0,0:0:0:0:
407,294,83295,2,0,P|321:286|247:243,1,160
202,182,84195,1,0,0:0:0:0:
156,105,84495,1,0,0:0:0:0:
256,192,84870,12,0,87195,0:0:0:0:
