osu file format v14

[General]
AudioFilename: Yusuke - V.mp3
AudioLeadIn: 2000
PreviewTime: 57728
Countdown: 0
SampleSet: Normal
StackLeniency: 0.3
Mode: 0
LetterboxInBreaks: 0
WidescreenStoryboard: 0

[Editor]
Bookmarks: 503,19553,38903,58103,67703,77303,88103
DistanceSpacing: 1.5
BeatDivisor: 4
GridSize: 32
TimelineZoom: 2.3

[Metadata]
Title:V
TitleUnicode:V
Artist:Yusuke
ArtistUnicode:遊助
Creator:squishi
Version:MEGA EVOLUTION!!
Source:ポケットモンスター XY
Tags:
BeatmapID:1490244
BeatmapSetID:704466

[Difficulty]
HPDrainRate:6
CircleSize:4.2
OverallDifficulty:9
ApproachRate:9.2
SliderMultiplier:1.8
SliderTickRate:1

[Events]
//Background and Video events
0,0,"sc.jpg",0,0
//Break Periods
//Storyboard Layer 0 (Background)
//Storyboard Layer 1 (Fail)
//Storyboard Layer 2 (Pass)
//Storyboard Layer 3 (Foreground)
//Storyboard Sound Samples

[TimingPoints]
503,300,4,1,2,70,1,0
2303,-100,4,1,1,75,0,0
2603,-100,4,1,2,75,0,0
4703,-133.333333333333,4,1,2,70,0,0
5003,-83.3333333333333,4,1,2,70,0,0
5303,-90.9090909090909,4,1,2,80,0,0
7103,-100,4,1,1,75,0,0
7403,-90.9090909090909,4,1,2,75,0,0
10103,-133.333333333333,4,1,2,80,0,0
12353,-83.3333333333333,4,1,2,80,0,0
12803,-133.333333333333,4,1,2,80,0,0
16703,-133.333333333333,4,1,2,100,0,0
17153,-76.9230769230769,4,1,2,80,0,0
19553,-100,4,1,2,80,0,0
19553,-100,4,1,1,75,0,0
19853,-100,4,1,2,75,0,0
29903,-100,4,1,1,75,0,0
30203,-100,4,1,2,75,0,0
31103,-100,4,1,1,75,0,0
31403,-100,4,1,2,75,0,0
32303,-100,4,1,1,75,0,0
32603,-100,4,1,2,75,0,0
34703,-100,4,1,1,75,0,0
35003,-100,4,1,2,75,0,0
35903,-76.9230769230769,4,1,3,80,0,0
37853,-133.333333333333,4,1,2,80,0,0
38228,-133.333333333333,4,1,2,5,0,0
38303,-100,4,1,3,80,0,0
38528,-100,4,1,3,5,0,0
38603,-66.6666666666667,4,1,3,80,0,0
38828,-66.6666666666667,4,1,3,5,0,0
38903,-100,4,1,2,75,0,0
39503,-100,4,1,1,75,0,0
39803,-100,4,1,2,75,0,0
40703,-100,4,1,1,75,0,0
41003,-100,4,1,2,75,0,0
41903,-100,4,1,1,75,0,0
42203,-100,4,1,2,75,0,0
44303,-100,4,1,1,75,0,0
44603,-100,4,1,2,75,0,0
46703,-100,4,1,1,75,0,0
47003,-100,4,1,2,75,0,0
47903,-133.333333333333,4,1,2,75,0,0
48503,-100,4,1,2,75,0,0
55703,-100,4,1,1,75,0,0
56003,-100,4,1,2,75,0,0
56153,-100,4,1,1,75,0,0
56453,-100,4,1,2,75,0,0
56603,-100,4,1,1,75,0,0
56903,-100,4,1,2,75,0,0
57053,-100,4,1,1,75,0,0
57353,-100,4,1,2,75,0,0
57803,-66.6666666666667,4,1,2,75,0,0
58103,-76.9230769230769,4,1,2,90,0,1
58553,-83.3333333333333,4,1,2,90,0,1
58703,-83.3333333333333,4,1,1,90,0,1
59003,-83.3333333333333,4,1,2,90,0,1
62153,-83.3333333333333,4,1,1,90,0,1
62228,-83.3333333333333,4,1,2,90,0,1
62903,-83.3333333333333,4,1,1,90,0,1
65303,-83.3333333333333,4,1,2,90,0,1
67403,-66.6666666666667,4,1,2,90,0,1
67628,-100,4,1,2,90,0,0
67703,-83.3333333333333,4,1,1,90,0,1
67703,-83.3333333333333,4,1,2,90,0,1
68303,-83.3333333333333,4,1,2,90,0,1
69503,-83.3333333333333,4,1,1,90,0,1
69803,-83.3333333333333,4,1,2,90,0,1
70703,-83.3333333333333,4,1,1,90,0,1
71003,-83.3333333333333,4,1,2,90,0,1
73103,-83.3333333333333,4,1,1,90,0,1
73403,-83.3333333333333,4,1,2,90,0,1
74903,-100,4,1,2,80,0,0
77303,-133.333333333333,4,1,2,70,0,0
84803,-100,4,1,1,60,0,0
85103,-100,4,1,1,50,0,0
85403,-100,4,1,1,40,0,0
85703,-100,4,1,1,30,0,0
86003,-100,4,1,1,25,0,0
86303,-100,4,1,1,20,0,0
86603,-100,4,1,1,10,0,0
86903,-100,4,1,100,5,0,0

[Colours]
Combo1 : 241,156,154
Combo2 : 120,175,220
Combo3 : 255,0,0
Combo4 : 242,226,115
Combo5 : 136,136,136
Combo6 : 0,128,192
Combo7 : 67,197,89
Combo8 : 190,148,109

[HitObjects]
145,77,503,6,0,P|97:129|134:248,1,180,2|8,0:0|0:0,0:0:0:0:
339,194,953,2,0,P|287:146|168:183,1,180,2|8,0:0|0:0,0:0:0:0:
224,384,1403,2,0,P|272:332|235:213,1,180,2|8,0:0|0:0,0:0:0:0:
35,274,1853,2,0,P|87:322|206:285,1,180,2|8,0:0|0:0,0:0:0:0:
117,160,2303,2,8,L|123:254,1,90,0|0,0:0|0:0,0:0:0:0:
249,320,2603,2,8,L|254:230,1,90,2|0,0:0|0:0,0:0:0:0:
48,112,2903,6,2,P|99:81|198:170,1,180,2|10,0:0|0:0,0:0:0:0:
93,306,3353,2,2,P|62:255|151:156,1,180,2|10,0:0|0:0,0:0:0:0:
290,262,3803,2,2,P|239:293|140:204,1,180,2|10,0:0|0:0,0:0:0:0:
246,76,4253,2,2,P|277:127|188:226,1,180,2|10,0:0|0:0,0:0:0:0:
101,113,4703,5,4,0:0:0:0:
101,113,5003,5,8,0:0:0:0:
98,131,5078,1,8,0:0:0:0:
95,148,5153,1,8,0:0:0:0:
92,164,5228,1,8,0:0:0:0:
102,191,5303,6,0,P|101:255|65:293,1,99.0000030212403,2|0,0:0|0:0,0:0:0:0:
12,138,5603,1,8,0:0:0:0:
174,279,5753,2,0,L|291:346,1,99.0000030212403
365,173,6053,2,0,L|279:222,1,99.0000030212403,0|8,0:0|0:0,0:0:0:0:
327,381,6353,2,0,P|344:309|325:270,1,99.0000030212403
269,128,6653,2,0,P|260:176|278:221,1,99.0000030212403,0|8,0:0|0:0,0:0:0:0:
462,155,6953,2,0,L|349:175,1,99.0000030212403
269,128,7253,1,0,0:0:0:0:
438,304,7403,2,8,P|419:211|390:191,1,99.0000030212403,8|0,0:0|0:0,0:0:0:0:
196,326,7703,5,2,0:0:0:0:
355,269,7853,2,0,L|251:274,1,99.0000030212403,0|8,0:0|0:0,0:0:0:0:
170,123,8153,2,0,L|268:127,1,99.0000030212403
196,326,8453,2,0,P|186:251|204:220,1,99.0000030212403,0|8,0:0|0:0,0:0:0:0:
337,85,8753,2,0,P|350:132|335:178,1,99.0000030212403
256,273,9053,2,0,L|355:269,1,99.0000030212403,0|8,0:0|0:0,0:0:0:0:
150,127,9353,1,0,0:0:0:0:
336,85,9503,5,8,0:0:0:0:
89,36,9653,1,0,0:0:0:0:
333,0,9803,5,8,0:0:0:0:
150,127,9953,1,0,0:0:0:0:
274,226,10103,6,0,P|274:156|266:138,1,67.5000025749208,2|0,0:0|0:0,0:0:0:0:
184,260,10403,2,0,P|179:293|185:326,1,67.5000025749208
341,232,10703,2,0,L|245:223,1,67.5000025749208
116,266,11003,2,0,L|212:257,1,67.5000025749208
297,364,11303,6,0,P|307:310|302:284,1,67.5000025749208
191,325,11603,2,0,P|181:271|186:245,1,67.5000025749208
248,197,11903,1,0,0:0:0:0:
263,282,12053,1,0,0:0:0:0:
182,259,12203,1,0,0:0:0:0:
258,57,12353,6,0,P|275:122|169:79,1,215.999993408203
194,7,12803,1,0,0:0:0:0:
112,48,12953,2,0,L|132:197,1,135.000005149842
100,251,13403,1,0,0:0:0:0:
179,318,13553,2,0,P|178:253|171:237,1,67.5000025749208
131,115,13853,2,0,P|124:148|129:181,1,67.5000025749208
129,181,14303,1,0,0:0:0:0:
246,128,14453,1,8,0:0:0:0:
235,262,14603,1,0,0:0:0:0:
129,181,14753,1,0,0:0:0:0:
321,275,14903,6,0,P|305:313|296:347,1,67.5000025749208
235,262,15203,2,0,P|225:229|211:198,1,67.5000025749208
81,270,15503,1,0,0:0:0:0:
172,307,15653,1,0,0:0:0:0:
129,181,15803,1,0,0:0:0:0:
118,360,15953,1,0,0:0:0:0:
9,297,16103,2,0,P|12:235|30:216,1,67.5000025749208
129,181,16403,1,0,0:0:0:0:
81,270,16553,1,0,0:0:0:0:
21,129,16703,5,8,0:0:0:0:
181,300,16853,1,8,0:0:0:0:
181,300,16928,1,8,0:0:0:0:
181,300,17003,1,8,0:0:0:0:
276,95,17153,6,0,P|195:94|158:135,1,116.999994644165
264,298,17453,1,0,0:0:0:0:
232,160,17603,5,8,0:0:0:0:
444,216,17753,1,8,0:0:0:0:
290,384,17903,1,8,0:0:0:0:
276,95,18353,6,0,L|413:74,1,116.999994644165
264,298,18653,1,0,0:0:0:0:
276,95,18803,5,8,0:0:0:0:
259,331,18953,1,0,0:0:0:0:
100,127,19103,5,8,0:0:0:0:
436,210,19253,1,8,0:0:0:0:
436,210,19553,6,0,B|414:338|414:338|380:293,1,180,4|0,0:0|0:0,0:0:0:0:
345,153,20003,1,8,0:0:0:0:
264,298,20153,1,0,0:0:0:0:
359,125,20303,2,0,L|349:31,1,90,0|0,0:0|0:0,0:0:0:0:
445,181,20603,1,8,0:0:0:0:
269,265,20753,2,0,B|167:290|189:232|80:257,1,180,0|0,0:0|0:0,0:0:0:0:
129,351,21203,1,8,0:0:0:0:
225,171,21353,1,0,0:0:0:0:
358,276,21503,2,0,L|230:259,1,90,0|0,0:0|0:0,0:0:0:0:
322,367,21803,2,0,L|450:350,1,90,8|0,0:0|0:0,0:0:0:0:
481,256,22103,5,0,0:0:0:0:
293,374,22253,1,0,0:0:0:0:
496,279,22403,1,8,0:0:0:0:
246,262,22553,1,0,0:0:0:0:
378,158,22703,2,0,L|364:247,1,90,0|0,0:0|0:0,0:0:0:0:
392,67,23003,1,8,0:0:0:0:
188,72,23153,6,0,B|292:51|266:110|383:76,1,180,0|0,0:0|0:0,0:0:0:0:
229,170,23603,1,8,0:0:0:0:
91,74,23753,2,0,B|58:42|58:42|214:77,1,180,0|0,0:0|0:0,0:0:0:0:
325,5,24203,1,8,0:0:0:0:
232,142,24353,1,0,0:0:0:0:
372,270,24503,6,0,P|365:220|360:172,1,90,0|0,0:0|0:0,0:0:0:0:
220,278,24803,2,0,P|213:327|208:376,1,90,8|0,0:0|0:0,0:0:0:0:
94,144,25103,1,0,0:0:0:0:
224,249,25253,1,0,0:0:0:0:
164,85,25403,1,8,0:0:0:0:
51,228,25553,6,0,B|155:249|129:190|246:224,1,180,0|0,0:0|0:0,0:0:0:0:
350,127,26003,2,0,P|301:133|254:140,1,90,8|0,0:0|0:0,0:0:0:0:
430,178,26303,2,0,P|444:123|361:30,1,180,0|8,0:0|0:0,0:0:0:0:
350,127,26753,1,0,0:0:0:0:
276,19,26903,5,0,0:0:0:0:
346,222,27053,1,0,0:0:0:0:
322,140,27203,5,8,0:0:0:0:
252,343,27353,1,0,0:0:0:0:
225,215,27503,2,0,L|324:222,1,90,0|0,0:0|0:0,0:0:0:0:
128,302,27803,1,8,0:0:0:0:
192,140,27953,1,0,0:0:0:0:
225,359,28103,5,0,0:0:0:0:
33,295,28253,1,0,0:0:0:0:
225,215,28403,1,8,0:0:0:0:
9,316,28553,6,0,L|21:156,1,135,0|0,0:0|0:0,0:0:0:0:
58,109,28853,1,0,0:0:0:0:
56,86,28928,1,0,0:0:0:0:
55,64,29003,1,8,0:0:0:0:
239,190,29153,6,0,B|112:177|112:177|165:141,1,180,0|0,0:0|0:0,0:0:0:0:
298,116,29603,2,0,P|330:172|322:225,1,90,8|0,0:0|0:0,0:0:0:0:
289,332,29903,1,0,0:0:0:0:
239,190,30053,1,0,0:0:0:0:
362,281,30203,1,8,0:0:0:0:
185,346,30353,6,0,B|83:369|107:317|1:348,1,180
79,169,30803,2,0,P|70:214|62:262,1,90,8|0,0:0|0:0,0:0:0:0:
199,322,31103,2,0,P|190:276|182:229,1,90,0|0,0:0|0:0,0:0:0:0:
209,105,31403,1,8,0:0:0:0:
358,208,31553,1,0,0:0:0:0:
358,208,31628,1,0,0:0:0:0:
358,208,31703,6,0,P|308:201|248:194,1,90,0|0,0:0|0:0,0:0:0:0:
72,282,32003,1,8,0:0:0:0:
270,357,32153,1,0,0:0:0:0:
49,303,32303,1,0,0:0:0:0:
241,193,32453,1,0,0:0:0:0:
161,378,32603,1,8,0:0:0:0:
186,130,32753,6,0,B|244:110|244:110|299:134|299:134|368:123,1,180,0|0,0:0|0:0,0:0:0:0:
443,53,33203,1,8,0:0:0:0:
447,256,33353,2,0,B|426:152|485:178|451:61,1,180,0|0,0:0|0:0,0:0:0:0:
267,130,33803,2,0,P|313:126|368:124,1,90,8|0,0:0|0:0,0:0:0:0:
190,44,34103,5,0,0:0:0:0:
228,208,34253,2,0,P|320:201|430:196,1,180
279,102,34703,1,0,0:0:0:0:
214,234,34853,1,0,0:0:0:0:
171,68,35003,1,8,0:0:0:0:
200,260,35153,1,0,0:0:0:0:
51,167,35303,6,0,P|96:169|149:172,1,90,0|0,0:0|0:0,0:0:0:0:
248,334,35603,2,0,P|202:336|150:339,1,90,8|0,0:0|0:0,0:0:0:0:
321,207,35903,5,0,0:0:0:0:
266,360,36053,1,0,0:0:0:0:
339,233,36203,5,8,0:0:0:0:
248,334,36353,1,0,0:0:0:0:
255,102,36503,5,8,0:0:0:0:
357,259,36653,2,8,L|473:252,1,116.999994644165,8|0,0:0|0:0,0:0:0:0:
237,76,36953,5,8,0:0:0:0:
339,233,37103,2,8,L|455:226,1,116.999994644165,8|0,0:0|0:0,0:0:0:0:
219,50,37403,5,8,0:0:0:0:
321,207,37553,2,8,L|437:200,1,116.999994644165,8|0,0:0|0:0,0:0:0:0:
201,24,37853,5,0,0:0:0:0:
100,242,38003,2,0,L|112:352,1,101.250003862381,0|0,0:0|0:0,0:0:0:0:
187,276,38303,6,0,L|169:116,1,135,2|0,0:0|0:0,0:0:0:0:
125,58,38603,6,0,P|155:119|155:37,1,202.500007724762,8|0,0:0|0:0,0:0:0:0:
241,98,38903,6,0,B|350:118|330:57|448:96,1,180,0|8,0:0|0:0,0:0:0:0:
281,22,39353,1,0,0:0:0:0:
374,246,39503,2,0,L|378:144,1,90
237,8,39803,2,0,L|240:97,1,90,8|0,0:0|0:0,0:0:0:0:
321,297,40103,6,0,P|391:321|430:295,1,90
240,97,40403,2,0,P|170:73|131:99,1,90,8|0,0:0|0:0,0:0:0:0:
124,225,40703,1,0,0:0:0:0:
185,151,40853,1,0,0:0:0:0:
46,190,41003,2,8,P|48:262|64:289,1,90,8|0,0:0|0:0,0:0:0:0:
303,263,41303,6,0,L|124:310,1,180,0|8,0:0|0:0,0:0:0:0:
124,225,41753,1,0,0:0:0:0:
221,331,41903,5,0,0:0:0:0:
241,193,42053,1,0,0:0:0:0:
128,308,42203,2,8,L|24:333,1,90,8|0,0:0|0:0,0:0:0:0:
281,378,42503,6,0,P|292:300|209:260,1,180,0|8,0:0|0:0,0:0:0:0:
202,353,42953,1,0,0:0:0:0:
312,239,43103,2,0,B|350:153|269:153|326:37,1,180,0|8,0:0|0:0,0:0:0:0:
388,118,43553,1,0,0:0:0:0:
312,239,43703,2,0,L|491:226,1,180,0|8,0:0|0:0,0:0:0:0:
388,273,44153,1,0,0:0:0:0:
388,118,44303,5,0,0:0:0:0:
491,226,44453,1,0,0:0:0:0:
312,239,44603,2,0,L|434:231,1,90,8|0,0:0|0:0,0:0:0:0:
388,118,44903,2,0,L|298:112,1,90
222,244,45203,2,0,L|344:236,1,90,8|0,0:0|0:0,0:0:0:0:
298,112,45503,2,0,B|239:116|239:116|191:142|191:142|107:142,1,180,0|8,0:0|0:0,0:0:0:0:
262,188,45953,1,0,0:0:0:0:
124,142,46103,6,0,L|115:321,1,180,0|8,0:0|0:0,0:0:0:0:
80,219,46553,1,0,0:0:0:0:
171,363,46703,2,0,P|79:384|58:367,1,90
0,193,47003,2,0,P|35:218|80:219,1,90,8|0,0:0|0:0,0:0:0:0:
242,180,47303,5,0,0:0:0:0:
124,142,47453,1,0,0:0:0:0:
302,120,47603,5,8,0:0:0:0:
80,219,47753,1,8,0:0:0:0:
316,293,47903,6,0,P|362:288|392:261,1,67.5000025749208,2|2,0:0|0:0,0:0:0:0:
266,198,48203,2,0,P|295:213|328:214,1,67.5000025749208,2|2,0:0|0:0,0:0:0:0:
294,99,48503,1,4,0:0:0:0:
294,99,48803,6,0,P|286:49|305:9,1,90
408,0,49103,2,0,P|423:41|414:85,1,90,8|0,0:0|0:0,0:0:0:0:
355,189,49403,2,0,L|378:276,1,90
221,321,49703,6,0,P|288:322|314:310,1,90
165,164,50003,2,0,L|154:284,1,90
260,248,50303,2,0,L|232:31,1,180,8|0,0:0|0:0,0:0:0:0:
165,164,50753,1,0,0:0:0:0:
355,189,50903,1,0,0:0:0:0:
355,189,51203,6,0,P|365:120|354:83,1,90
260,248,51503,2,0,P|255:292|265:335,1,90,8|0,0:0|0:0,0:0:0:0:
425,275,51803,2,0,L|329:294,1,90
247,158,52103,1,0,0:0:0:0:
247,158,52253,2,0,L|261:260,1,90
259,247,52703,6,0,P|177:272|134:127,1,270,8|0,0:0|0:3,0:0:0:0:
78,222,53303,2,0,P|15:237|-20:226,1,90
261,248,53603,2,0,P|266:292|251:334,1,90
81,311,53903,2,0,L|77:213,1,90,8|0,0:0|0:0,0:0:0:0:
264,158,54203,2,0,L|260:256,1,90
180,123,54503,5,0,0:0:0:0:
180,123,54653,2,8,L|167:21,1,90,8|0,0:0|0:0,0:0:0:0:
168,33,55103,6,0,P|95:33|114:196,1,270,8|0,0:0|0:0,0:0:0:0:
180,123,55703,5,8,0:0:0:0:
93,189,55853,1,0,0:0:0:0:
190,230,56003,1,0,0:0:0:0:
190,100,56153,5,8,0:0:0:0:
74,202,56303,1,0,0:0:0:0:
207,249,56453,1,0,0:0:0:0:
197,77,56603,5,8,0:0:0:0:
53,217,56753,1,0,0:0:0:0:
226,272,56903,1,0,0:0:0:0:
206,47,57053,5,8,0:0:0:0:
120,321,57203,1,8,0:0:0:0:
320,177,57353,1,8,0:0:0:0:
42,94,57503,1,8,0:0:0:0:
42,94,57803,6,0,P|40:19|51:3,1,67.5000025749208,2|0,0:0|0:0,0:0:0:0:
226,272,57953,2,0,P|230:305|219:337,1,67.5000025749208,2|0,0:0|0:0,0:0:0:0:
134,183,58103,6,0,B|162:155|214:155|214:155|246:173|246:173|280:163|280:163|301:200|375:198,1,233.999989288331,6|8,0:0|0:0,0:0:0:0:
461,106,58553,5,0,0:0:0:0:
338,12,58703,2,0,P|341:68|345:131,1,107.999996704102
422,313,59003,1,10,0:0:0:0:
444,131,59153,1,2,0:0:0:0:
286,356,59303,6,0,P|342:370|428:292,1,161.999995056153,2|0,0:0|0:0,0:0:0:0:
459,226,59603,1,8,0:0:0:0:
512,380,59753,1,0,0:0:0:0:
444,131,59903,6,0,P|387:76|308:79,1,161.999995056153,2|0,0:0|0:0,0:0:0:0:
243,180,60203,2,0,P|300:171|353:166,1,107.999996704102,8|0,0:0|0:0,0:0:0:0:
478,262,60503,5,2,0:0:0:0:
444,131,60653,1,0,0:0:0:0:
383,315,60803,5,10,0:0:0:0:
415,208,60953,1,0,0:0:0:0:
432,379,61103,5,2,0:0:0:0:
350,166,61253,1,0,0:0:0:0:
304,320,61403,5,10,0:0:0:0:
374,87,61553,1,0,0:0:0:0:
77,243,61703,6,0,B|199:196|177:266|299:228,1,215.999993408203,2|8,0:0|0:0,0:0:0:0:
258,46,62153,1,0,0:0:0:0:
258,46,62228,1,0,0:0:0:0:
258,46,62303,2,0,P|247:104|240:154,1,107.999996704102,2|0,0:0|0:0,0:0:0:0:
376,325,62603,2,0,P|360:236|348:162,1,161.999995056153,8|0,0:0|0:0,0:0:0:0:
338,73,62903,5,2,0:0:0:0:
230,232,63053,1,0,0:0:0:0:
352,45,63203,1,8,0:0:0:0:
147,179,63353,6,0,B|211:137|211:137|349:165,1,215.999993408203,6|0,0:0|0:0,0:0:0:0:
409,255,63803,2,0,P|386:166|429:97,1,161.999995056153,8|0,0:0|0:0,0:0:0:0:
486,59,64103,5,2,0:0:0:0:
252,6,64253,1,0,0:0:0:0:
505,85,64403,1,8,0:0:0:0:
388,280,64553,6,0,B|352:321|352:321|326:131,1,215.999993408203,6|0,0:0|0:0,0:0:0:0:
432,0,65003,2,0,P|423:51|415:115,1,107.999996704102,10|0,0:0|0:0,0:0:0:0:
411,258,65303,5,14,0:0:0:0:
213,165,65453,1,0,0:0:0:0:
434,236,65603,5,14,0:0:0:0:
155,264,65753,1,0,0:0:0:0:
350,181,65903,5,14,0:0:0:0:
132,286,66053,1,0,0:0:0:0:
373,159,66203,5,14,0:0:0:0:
90,111,66353,1,0,0:0:0:0:
263,60,66503,5,8,0:0:0:0:
259,113,66578,1,8,0:0:0:0:
256,167,66653,1,8,0:0:0:0:
253,221,66728,1,8,0:0:0:0:
250,275,66803,6,0,L|245:348,1,53.9999983520508,8|8,0:0|0:0,0:0:0:0:
373,159,66953,2,0,L|368:85,1,53.9999983520508,8|8,0:0|0:0,0:0:0:0:
496,275,67103,5,4,0:0:0:0:
244,360,67253,1,4,0:0:0:0:
367,76,67403,1,10,0:0:0:0:
390,371,67553,1,4,0:0:0:0:
100,255,67703,6,0,P|92:167|175:125,1,161.999995056153,6|0,0:0|0:0,0:0:0:0:
220,110,68003,1,8,0:0:0:0:
176,340,68153,1,2,0:0:0:0:
222,137,68303,5,0,0:0:0:0:
259,371,68453,1,2,0:0:0:0:
163,205,68603,1,8,0:0:0:0:
355,255,68753,1,0,0:0:0:0:
148,353,68903,5,2,0:0:0:0:
323,143,69053,1,2,0:0:0:0:
259,371,69203,1,10,0:0:0:0:
144,126,69353,1,2,0:0:0:0:
355,255,69503,2,0,L|493:280,1,107.999996704102
163,205,69803,1,10,0:0:0:0:
323,143,69953,1,2,0:0:0:0:
174,26,70103,5,2,0:0:0:0:
144,126,70253,1,2,0:0:0:0:
274,8,70403,5,8,0:0:0:0:
241,186,70553,1,2,0:0:0:0:
88,65,70703,5,2,0:0:0:0:
323,143,70853,1,2,0:0:0:0:
82,177,71003,5,10,0:0:0:0:
291,70,71153,1,2,0:0:0:0:
167,307,71303,6,2,P|174:226|156:196,1,107.999996704102
76,349,71603,1,8,0:0:0:0:
253,375,71753,5,10,0:0:0:0:
253,375,71828,1,0,0:0:0:0:
253,375,71903,1,10,0:0:0:0:
20,255,72053,1,8,0:0:0:0:
320,215,72203,5,8,0:0:0:0:
76,349,72353,1,8,0:0:0:0:
374,278,72503,6,0,P|389:182|316:130,1,161.999995056153,2|0,0:0|0:0,0:0:0:0:
307,133,72803,2,8,P|279:74|309:-2,1,107.999996704102,10|2,0:0|0:0,0:0:0:0:
499,66,73103,1,2,0:0:0:0:
284,33,73253,1,2,0:0:0:0:
508,69,73403,5,8,0:0:0:0:
241,156,73553,1,2,0:0:0:0:
452,286,73703,5,2,0:0:0:0:
508,69,73853,1,2,0:0:0:0:
388,339,74003,5,10,0:0:0:0:
362,117,74153,1,2,0:0:0:0:
234,264,74303,5,10,0:0:0:0:
479,160,74453,1,2,0:0:0:0:
241,156,74603,5,8,0:0:0:0:
468,364,74753,1,0,0:0:0:0:
167,328,74903,6,0,B|73:331|73:331|-5:229,1,180,2|8,0:0|0:0,0:0:0:0:
98,93,75353,2,0,B|154:109|192:90|192:90|196:131|259:167,1,180,2|2,0:0|0:0,0:0:0:0:
112,255,75803,2,8,B|104:205|104:205|133:144,1,90,8|0,0:0|0:0,0:0:0:0:
250,308,76103,5,0,0:0:0:0:
250,308,76253,2,0,P|272:188|365:331,1,405
319,254,77153,1,0,0:0:0:0:
452,71,77303,6,0,B|376:51|388:95|299:55,1,135.000005149842
225,139,77753,1,0,0:0:0:0:
225,139,77903,2,0,P|259:137|304:134,1,67.5000025749208
185,57,78203,2,0,P|150:55|106:52,1,67.5000025749208
27,100,78503,5,0,0:0:0:0:
113,153,78653,1,0,0:0:0:0:
117,52,78803,1,0,0:0:0:0:
27,100,78953,1,0,0:0:0:0:
109,254,79103,5,0,0:0:0:0:
113,153,79253,1,0,0:0:0:0:
23,201,79403,1,0,0:0:0:0:
105,355,79553,6,0,B|154:331|154:331|249:343,1,135.000005149842
359,271,80003,1,0,0:0:0:0:
359,271,80153,2,0,P|293:280|226:224,1,135.000005149842
328,124,80603,2,0,P|320:157|308:213,1,67.5000025749208
411,333,80903,6,0,P|405:276|399:187,2,135.000005149842
491,122,81803,2,0,L|476:200,1,67.5000025749208
413,49,82103,6,0,P|340:31|269:54,1,135.000005149842
208,170,82553,1,0,0:0:0:0:
208,170,82703,2,0,P|202:106|193:31,1,135.000005149842
139,231,83153,1,0,0:0:0:0:
139,231,83303,6,0,P|193:259|279:230,1,135.000005149842
346,185,83753,1,0,0:0:0:0:
208,170,83903,1,0,0:0:0:0:
405,240,84053,2,0,B|430:197|430:197|402:94,1,135.000005149842
407,114,84503,5,0,0:0:0:0:
256,192,84578,12,0,88103,0:0:0:0:
