osu file format v14

[General]
AudioFilename: Yusuke - V.mp3
AudioLeadIn: 2000
PreviewTime: 57728
Countdown: 0
SampleSet: Normal
StackLeniency: 0.3
Mode: 0
LetterboxInBreaks: 0
WidescreenStoryboard: 1

[Editor]
Bookmarks: 503,1103,19553,38903,58103,67703,77303,88103
DistanceSpacing: 1.5
BeatDivisor: 4
GridSize: 32
TimelineZoom: 2.6

[Metadata]
Title:V
TitleUnicode:V
Artist:Yusuke
ArtistUnicode:遊助
Creator:squishi
Version:Hard
Source:ポケットモンスター XY
Tags:
BeatmapID:1490245
BeatmapSetID:704466

[Difficulty]
HPDrainRate:5
CircleSize:4.2
OverallDifficulty:7
ApproachRate:8
SliderMultiplier:1.1
SliderTickRate:1

[Events]
//Background and Video events
0,0,"sc.jpg",0,0
//Break Periods
//Storyboard Layer 0 (Background)
//Storyboard Layer 1 (Fail)
//Storyboard Layer 2 (Pass)
//Storyboard Layer 3 (Foreground)
//Storyboard Sound Samples

[TimingPoints]
503,300,4,1,2,70,1,0
5303,-83.3333333333333,4,1,2,70,0,0
10103,-90.9090909090909,4,1,2,70,0,0
19553,-83.3333333333333,4,1,2,70,0,0
29153,-80,4,1,2,70,0,0
38603,-80,4,1,1,70,0,0
38903,-100,4,1,2,70,0,0
55703,-100,4,1,1,70,0,0
58103,-76.9230769230769,4,1,1,70,0,1
74903,-100,4,1,2,80,0,0
77303,-133.333333333333,4,1,2,70,0,0
84803,-100,4,1,1,60,0,0
85103,-100,4,1,1,50,0,0
85403,-100,4,1,1,40,0,0
85703,-100,4,1,1,30,0,0
86003,-100,4,1,1,25,0,0
86303,-100,4,1,1,20,0,0
86603,-100,4,1,1,10,0,0
86903,-100,4,1,100,5,0,0

[Colours]
Combo1 : 241,156,154
Combo2 : 120,175,220
Combo3 : 255,0,0
Combo4 : 242,226,115
Combo5 : 136,136,136
Combo6 : 0,128,192
Combo7 : 67,197,89
Combo8 : 190,148,109

[HitObjects]
50,178,503,6,0,P|110:202|166:183,1,110,0|2,0:0|0:0,0:0:0:0:
209,142,953,2,0,L|326:130,1,110,0|2,0:0|0:0,0:0:0:0:
377,180,1403,2,0,P|388:214|376:295,1,110,0|2,0:0|0:0,0:0:0:0:
306,326,1853,2,0,L|187:340,1,110,0|2,0:0|0:0,0:0:0:0:
135,288,2303,2,2,P|124:240|133:212,1,55
179,182,2603,2,2,P|178:154|168:129,1,55
103,97,2903,6,0,L|231:65,1,110,0|2,0:0|0:0,0:0:0:0:
284,97,3353,2,0,P|345:93|386:43,1,110,0|2,0:0|0:0,0:0:0:0:
425,2,3803,2,0,P|417:57|457:106,1,110,0|2,0:0|0:0,0:0:0:0:
512,147,4253,2,0,L|394:166,1,110
352,227,4703,1,0,0:0:0:0:
352,227,5003,6,0,P|359:250|354:274,3,27.5
319,195,5303,2,0,L|228:189,1,65.9999979858399
182,225,5603,1,8,0:0:0:0:
126,171,5753,2,0,P|118:119|169:51,1,131.99999597168
243,38,6203,1,8,0:0:0:0:
243,38,6353,2,0,L|385:55,1,131.99999597168
435,115,6803,1,8,0:0:0:0:
357,131,6953,2,0,L|215:148,1,131.99999597168
153,155,7403,1,8,0:0:0:0:
92,348,7703,6,0,P|88:291|103:254,1,65.9999979858399
149,230,8003,1,8,0:0:0:0:
165,309,8153,2,0,L|296:298,1,131.99999597168
328,229,8603,1,8,0:0:0:0:
377,286,8753,2,0,P|435:300|507:266,1,131.99999597168
512,196,9203,2,8,P|514:163|504:127,1,65.9999979858399,8|0,0:0|0:0,0:0:0:0:
431,171,9503,2,8,P|409:145|378:125,1,65.9999979858399,8|0,0:0|0:0,0:0:0:0:
358,200,9803,2,8,P|325:202|290:217,1,65.9999979858399,8|0,0:0|0:0,0:0:0:0:
340,273,10103,6,12,P|288:305|258:357,1,121.000003692627,0|8,0:0|0:0,0:0:0:0:
129,267,10703,2,0,P|121:200|126:186,1,60.5000018463135
152,143,11003,1,8,0:0:0:0:
152,143,11153,1,0,0:0:0:0:
68,156,11303,2,0,P|29:161|-1:151,1,60.5000018463135
152,143,11603,2,0,P|191:138|221:148,1,60.5000018463135,8|0,0:0|0:0,0:0:0:0:
263,201,11903,2,0,P|312:208|345:199,2,60.5000018463135,0|0|8,0:0|0:0|0:0,0:0:0:0:
187,219,12353,6,0,P|186:305|218:346,1,121.000003692627
274,357,12803,1,8,0:0:0:0:
274,357,12953,2,0,L|407:350,1,121.000003692627
441,293,13403,2,8,P|445:252|437:226,1,60.5000018463135,8|0,0:0|0:0,0:0:0:0:
330,203,13703,2,8,P|348:226|358:255,1,60.5000018463135,0|0,0:0|0:0,0:0:0:0:
267,263,14003,2,8,P|234:237|208:230,1,60.5000018463135,8|0,0:0|0:0,0:0:0:0:
136,253,14303,1,0,0:0:0:0:
136,253,14603,6,8,P|97:257|66:255,1,60.5000018463135,8|0,0:0|0:0,0:0:0:0:
36,189,14903,2,0,L|27:49,2,121.000003692627,0|8|0,0:0|0:0|0:0,0:0:0:0:
75,256,15653,1,0,0:0:0:0:
75,256,15803,2,8,P|80:295|55:335,1,60.5000018463135,8|0,0:0|0:0,0:0:0:0:
155,360,16103,2,0,L|282:355,1,121.000003692627,0|8,0:0|0:0,0:0:0:0:
319,295,16553,1,0,0:0:0:0:
319,295,16703,2,0,P|329:234|316:214,1,60.5000018463135
270,189,17003,1,8,0:0:0:0:
270,189,17153,6,0,P|332:202|381:168,1,121.000003692627
403,97,17603,1,8,0:0:0:0:
334,41,17753,1,0,0:0:0:0:
318,131,17903,1,8,0:0:0:0:
168,348,18353,6,0,P|181:286|147:237,1,121.000003692627
76,215,18803,1,8,0:0:0:0:
20,284,18953,1,0,0:0:0:0:
107,300,19103,1,8,0:0:0:0:
76,215,19253,1,0,0:0:0:0:
76,215,19553,6,0,P|100:159|77:88,1,131.99999597168
145,48,20003,2,8,L|240:31,1,65.9999979858399,8|0,0:0|0:0,0:0:0:0:
339,73,20303,1,0,0:0:0:0:
263,98,20453,1,0,0:0:0:0:
282,17,20603,1,8,0:0:0:0:
323,149,20753,6,0,P|272:174|194:136,1,131.99999597168
127,186,21203,2,8,L|118:265,1,65.9999979858399,8|0,0:0|0:0,0:0:0:0:
225,343,21503,2,8,L|217:277,1,65.9999979858399,0|0,0:0|0:0,0:0:0:0:
204,149,21803,1,8,0:0:0:0:
204,149,22103,6,0,P|202:95|222:62,1,65.9999979858399
323,149,22403,2,0,P|325:203|305:236,1,65.9999979858399,8|0,0:0|0:0,0:0:0:0:
217,277,22703,1,0,0:0:0:0:
141,291,22853,1,0,0:0:0:0:
69,306,23003,1,8,0:0:0:0:
94,235,23153,6,0,P|101:172|64:111,1,131.99999597168
7,76,23603,1,8,0:0:0:0:
7,76,23753,2,0,P|93:111|146:82,1,131.99999597168
191,39,24203,2,8,P|250:30|279:33,1,65.9999979858399,8|0,0:0|0:0,0:0:0:0:
306,96,24503,6,0,L|320:241,1,131.99999597168,0|8,0:0|0:0,0:0:0:0:
318,227,25103,2,0,P|285:248|243:246,1,65.9999979858399
184,228,25403,1,8,0:0:0:0:
248,175,25553,2,0,P|273:249|230:317,1,131.99999597168
172,334,26003,2,8,L|95:341,1,65.9999979858399,8|0,0:0|0:0,0:0:0:0:
19,241,26303,2,8,L|96:248,1,65.9999979858399,0|0,0:0|0:0,0:0:0:0:
253,295,26603,1,8,0:0:0:0:
19,242,26903,6,0,P|16:180|37:158,1,65.9999979858399
87,137,27203,2,8,L|152:146,1,65.9999979858399,8|0,0:0|0:0,0:0:0:0:
214,224,27503,2,8,L|68:249,1,131.99999597168,0|8,0:0|0:0,0:0:0:0:
43,308,27953,1,0,0:0:0:0:
43,308,28103,2,0,P|10:254|15:229,1,65.9999979858399
36,178,28403,1,8,0:0:0:0:
83,246,28553,2,8,L|214:224,1,131.99999597168,0|8,0:0|0:0,0:0:0:0:
275,274,29003,1,8,0:0:0:0:
335,190,29153,6,0,B|347:151|332:126|332:126|310:95|342:37,1,137.5
284,113,29603,2,8,P|231:122|193:99,1,68.75,8|0,0:0|0:0,0:0:0:0:
142,63,29903,2,8,L|137:156,1,68.75,0|0,0:0|0:0,0:0:0:0:
86,188,30203,1,8,0:0:0:0:
159,209,30353,2,0,P|229:218|286:187,1,137.5
284,113,30803,2,8,L|286:21,1,68.75,8|0,0:0|0:0,0:0:0:0:
159,209,31103,2,8,L|160:277,1,68.75,0|0,0:0|0:0,0:0:0:0:
142,63,31403,1,8,0:0:0:0:
15,166,31703,6,0,P|7:218|23:246,1,68.75
82,263,32003,2,0,P|90:315|74:343,1,68.75,8|0,0:0|0:0,0:0:0:0:
148,372,32303,2,0,L|216:375,1,68.75
275,319,32603,1,8,0:0:0:0:
216,375,32753,6,0,P|196:304|235:249,1,137.5
306,213,33203,1,8,0:0:0:0:
227,253,33353,2,0,P|157:259|102:221,1,137.5
81,148,33803,1,8,0:0:0:0:
138,359,34103,6,0,P|152:300|149:282,1,68.75
103,222,34403,1,8,0:0:0:0:
72,295,34553,1,0,0:0:0:0:
22,237,34703,2,0,P|22:185|39:156,1,68.75
95,133,35003,1,8,0:0:0:0:
27,97,35153,2,0,L|169:84,1,137.5
224,134,35603,2,8,P|272:137|299:120,1,68.75,8|0,0:0|0:0,0:0:0:0:
340,70,35903,6,0,L|335:0,2,68.75
393,253,36503,5,2,0:0:0:0:
330,293,36653,2,2,P|245:308|205:277,1,137.5
176,214,37103,2,2,P|183:351|176:358,1,137.5
117,360,37553,2,2,L|278:378,1,137.5
330,342,38003,2,2,P|337:295|323:254,1,68.75
274,218,38303,2,0,P|343:233|402:184,1,137.5,0|4,0:0|0:3,0:0:0:0:
219,132,38903,2,0,P|150:117|106:142,1,110,0|8,0:0|0:0,0:0:0:0:
69,191,39353,2,0,L|63:304,1,110
86,368,39803,1,8,0:0:0:0:
111,258,40103,6,0,P|161:238|228:269,1,110,0|8,0:0|0:0,0:0:0:0:
255,312,40553,2,0,P|252:231|283:198,1,110
330,169,41003,1,8,0:0:0:0:
428,260,41303,6,0,L|305:269,1,110,0|8,0:0|0:0,0:0:0:0:
266,210,41753,2,0,P|255:153|283:104,1,110
337,58,42203,1,8,0:0:0:0:
216,152,42503,6,0,P|174:162|108:141,1,110,0|8,0:0|0:0,0:0:0:0:
61,80,42953,2,0,L|70:204,1,110
80,264,43403,1,8,0:0:0:0:
197,312,43703,6,0,P|258:313|301:285,1,110,0|8,0:0|0:0,0:0:0:0:
323,215,44153,2,0,L|332:83,1,110
334,29,44603,1,8,0:0:0:0:
276,152,44903,6,0,P|215:158|167:138,1,110,0|8,0:0|0:0,0:0:0:0:
129,77,45353,2,0,P|135:152|104:189,1,110
50,215,45803,1,8,0:0:0:0:
171,266,46103,6,0,L|304:250,1,110,0|8,0:0|0:0,0:0:0:0:
343,290,46553,2,0,P|394:292|454:255,1,110
458,197,47003,1,8,0:0:0:0:
343,290,47303,6,0,P|342:341|348:359,1,55
458,251,47603,2,0,P|461:223|457:196,1,55
380,137,47903,2,0,L|315:130,3,55
264,171,48503,6,0,P|229:182|148:154,1,110,0|8,0:0|0:0,0:0:0:0:
128,95,48953,1,0,0:0:0:0:
159,164,49103,2,0,P|170:199|142:280,1,110,0|8,0:0|0:0,0:0:0:0:
94,314,49553,1,0,0:0:0:0:
94,314,49703,2,0,P|77:275|111:198,1,110,0|8,0:0|0:0,0:0:0:0:
158,62,50303,2,0,P|176:112|158:163,1,110,0|8,0:0|0:0,0:0:0:0:
48,49,50903,6,0,L|179:64,1,110,0|8,0:0|0:0,0:0:0:0:
210,125,51353,1,0,0:0:0:0:
210,125,51503,2,0,P|268:147|326:130,1,110,0|8,0:0|0:0,0:0:0:0:
410,34,52103,2,0,L|475:25,2,55,0|0|8,0:0|0:0|0:0,0:0:0:0:
313,137,52703,2,0,P|291:195|308:253,1,110,0|8,0:0|0:0,0:0:0:0:
457,320,53303,2,0,P|352:316|336:326,1,110,0|8,0:0|0:0,0:0:0:0:
294,370,53753,1,0,0:0:0:0:
272,298,53903,2,0,L|150:279,1,110,0|8,0:0|0:0,0:0:0:0:
66,178,54503,1,0,0:0:0:0:
66,178,54653,2,8,P|55:117|62:102,1,55,8|0,0:0|0:0,0:0:0:0:
52,126,55103,6,8,P|82:185|46:287,1,165,8|0,0:0|0:0,0:0:0:0:
108,338,55703,5,4,0:0:0:0:
167,167,56153,5,0,0:0:0:0:
184,358,56603,5,4,0:0:0:0:
250,155,57053,5,0,0:0:0:0:
259,375,57503,5,4,0:0:0:0:
329,143,57803,6,8,P|360:131|389:133,1,55
459,176,58103,6,0,P|412:110|446:48,1,142.99999345398,0|8,0:0|0:0,0:0:0:0:
488,12,58553,1,0,0:0:0:0:
393,89,58703,2,0,P|329:92|303:78,1,71.4999967269899
216,25,59003,2,0,P|181:18|146:25,1,71.4999967269899,8|0,0:0|0:0,0:0:0:0:
187,240,59303,6,0,P|194:164|181:78,1,142.99999345398,0|8,0:0|0:0,0:0:0:0:
216,25,59753,1,0,0:0:0:0:
106,110,59903,2,0,P|113:180|106:251,1,142.99999345398,0|8,0:0|0:0,0:0:0:0:
56,310,60353,1,0,0:0:0:0:
155,313,60503,6,0,P|194:319|237:307,1,71.4999967269899
350,225,60803,2,0,P|314:218|280:225,1,71.4999967269899,8|0,0:0|0:0,0:0:0:0:
321,378,61103,6,0,P|327:339|315:296,1,71.4999967269899
186,169,61403,2,0,P|179:204|186:238,1,71.4999967269899,8|0,0:0|0:0,0:0:0:0:
300,104,61703,6,0,L|149:80,1,142.99999345398,0|8,0:0|0:0,0:0:0:0:
86,117,62153,1,0,0:0:0:0:
183,69,62303,2,0,P|190:27|183:-2,1,71.4999967269899
86,117,62603,2,0,P|79:151|86:186,1,71.4999967269899,8|0,0:0|0:0,0:0:0:0:
184,269,62903,5,0,0:0:0:0:
264,251,63053,1,0,0:0:0:0:
214,188,63203,1,8,0:0:0:0:
242,329,63353,2,0,P|308:320|336:231,1,142.99999345398,4|0,0:0|0:0,0:0:0:0:
331,184,63803,2,8,P|326:138|347:98,1,71.4999967269899,8|0,0:0|0:0,0:0:0:0:
469,134,64103,5,0,0:0:0:0:
399,157,64253,1,0,0:0:0:0:
414,80,64403,1,8,0:0:0:0:
448,210,64553,6,8,P|392:231|327:161,1,142.99999345398,12|0,0:0|0:0,0:0:0:0:
383,258,65003,2,8,P|383:302|368:335,1,71.4999967269899,8|0,0:0|0:0,0:0:0:0:
159,309,65303,6,8,L|321:288,1,142.99999345398
366,128,65903,2,8,L|204:107,1,142.99999345398
159,309,66503,2,8,P|153:360|169:390,1,71.4999967269899,8|0,0:0|0:0,0:0:0:0:
300,290,66803,2,8,P|306:239|290:209,1,71.4999967269899,8|0,0:0|0:0,0:0:0:0:
192,177,67103,5,2,0:0:0:0:
116,158,67253,1,2,0:0:0:0:
41,139,67403,1,8,0:0:0:0:
64,213,67553,1,0,0:0:0:0:
7,259,67703,6,0,P|41:283|133:242,1,142.99999345398,0|8,0:0|0:0,0:0:0:0:
64,213,68153,1,0,0:0:0:0:
58,307,68303,2,0,P|59:360|73:381,1,71.4999967269899
196,293,68603,2,0,P|209:260|205:225,1,71.4999967269899,8|0,0:0|0:0,0:0:0:0:
135,138,68903,5,0,0:0:0:0:
216,153,69053,1,0,0:0:0:0:
294,166,69203,1,8,0:0:0:0:
375,180,69353,1,0,0:0:0:0:
349,99,69503,2,0,L|180:77,1,142.99999345398,0|8,0:0|0:0,0:0:0:0:
135,138,69953,1,0,0:0:0:0:
229,166,70103,6,0,P|252:124|252:89,1,71.4999967269899
116,152,70403,2,0,P|121:187|140:216,1,71.4999967269899,8|0,0:0|0:0,0:0:0:0:
239,309,70703,6,0,L|246:213,1,71.4999967269899
118,309,71003,2,0,L|123:380,1,71.4999967269899,8|0,0:0|0:0,0:0:0:0:
297,368,71303,2,0,P|377:365|417:301,1,142.99999345398,0|8,0:0|0:0,0:0:0:0:
372,258,71753,2,0,P|368:214|371:203,2,35.749998363495
413,319,72053,1,0,0:0:0:0:
512,232,72203,2,8,L|427:241,1,71.4999967269899,8|0,0:0|0:0,0:0:0:0:
321,161,72503,6,0,P|289:156|338:101,2,142.99999345398,0|8|0,0:0|0:0|0:0,0:0:0:0:
391,133,73253,1,0,0:0:0:0:
320,235,73403,2,8,P|270:228|241:206,1,71.4999967269899,8|0,0:0|0:0,0:0:0:0:
194,133,73703,6,0,L|212:301,2,142.99999345398,0|8|0,0:0|0:0|0:0,0:0:0:0:
134,81,74453,1,0,0:0:0:0:
203,139,74603,2,8,P|250:147|296:121,1,71.4999967269899,8|0,0:0|0:0,0:0:0:0:
366,46,74903,6,0,P|342:94|352:148,1,110,0|10,0:0|0:0,0:0:0:0:
404,199,75353,2,0,L|416:316,1,110,0|2,0:0|0:0,0:0:0:0:
363,373,75803,2,0,P|329:384|248:372,1,110,0|10,0:0|0:0,0:0:0:0:
217,302,76253,2,0,L|203:183,1,110,0|2,0:0|0:0,0:0:0:0:
255,131,76703,2,2,P|303:120|331:129,1,55,2|0,0:0|0:0,0:0:0:0:
361,175,77003,2,2,P|389:174|414:164,1,55,2|0,0:0|0:0,0:0:0:0:
488,225,77303,6,0,L|481:325,1,82.5000031471254
344,352,77903,2,0,P|318:357|287:348,1,41.2500015735627
242,302,78203,2,0,P|221:300|201:304,1,41.2500015735627
140,346,78503,2,0,L|148:250,1,82.5000031471254
128,195,78953,1,0,0:0:0:0:
197,209,79103,2,0,P|232:216|254:213,2,41.2500015735627
128,195,79553,6,0,P|81:189|39:207,1,82.5000031471254
86,261,80003,1,0,0:0:0:0:
9,265,80153,2,0,P|2:305|12:345,1,82.5000031471254
82,364,80603,2,0,L|130:362,1,41.2500015735627
176,310,80903,2,0,P|183:259|164:217,2,82.5000031471254
270,355,81803,2,0,L|324:348,1,41.2500015735627
363,299,82103,6,0,P|366:255|345:208,1,82.5000031471254
299,84,82703,2,0,P|288:120|295:140,1,41.2500015735627
353,219,83003,2,0,P|364:183|357:163,1,41.2500015735627
252,208,83303,6,0,L|153:222,1,82.5000031471254
102,177,83753,1,0,0:0:0:0:
96,288,83903,1,0,0:0:0:0:
0,224,84053,1,0,0:0:0:0:
256,192,84503,5,0,0:0:0:0:
256,192,84803,12,0,88103,0:0:0:0:
