osu file format v14

[General]
AudioFilename: audio.mp3
AudioLeadIn: 0
PreviewTime: 57776
Countdown: 0
SampleSet: Soft
StackLeniency: 0.7
Mode: 3
LetterboxInBreaks: 0
SpecialStyle: 0
WidescreenStoryboard: 0

[Editor]
DistanceSpacing: 1.5
BeatDivisor: 4
GridSize: 4
TimelineZoom: 2

[Metadata]
Title:V (TV Size)
TitleUnicode:V (TV Size)
Artist:Yusuke
ArtistUnicode:遊助
Creator:SuzumeAyase
Version:MEGA EVOLUTION
Source:ポケットモンスター XY
Tags:Mirsaaa volt pokemon pokémon the series xy japanese pop rock anime nintendo game freak j-rock j-pop jpop jrock rock op opening 1 one pocket monsters x and y
BeatmapID:4082685
BeatmapSetID:1968395

[Difficulty]
HPDrainRate:8
CircleSize:4
OverallDifficulty:8
ApproachRate:5
SliderMultiplier:1.4
SliderTickRate:1

[Events]
//Background and Video events
Video,-54,"pokemonxy.mp4"
0,0,"pokemonX.jpg",0,0
//Break Periods
//Storyboard Layer 0 (Background)
//Storyboard Layer 1 (Fail)
//Storyboard Layer 2 (Pass)
//Storyboard Layer 3 (Foreground)
//Storyboard Layer 4 (Overlay)
//Storyboard Sound Samples

[TimingPoints]
551,300,4,2,1,60,1,0
58151,-100,4,2,1,60,0,1
74951,-100,4,2,1,60,0,0

[HitObjects]
64,192,551,128,2,851:0:0:0:0:
192,192,551,1,4,0:0:0:0:
448,192,551,1,0,0:0:0:0:
320,192,851,1,0,0:0:0:0:
448,192,851,1,0,0:0:0:0:
64,192,1001,1,2,0:0:0:0:
192,192,1001,128,0,1301:0:0:0:0:
320,192,1151,1,0,0:0:0:0:
64,192,1301,1,0,0:0:0:0:
448,192,1301,1,0,0:0:0:0:
192,192,1451,1,2,0:0:0:0:
320,192,1451,128,0,1751:0:0:0:0:
64,192,1751,1,0,0:0:0:0:
192,192,1751,1,0,0:0:0:0:
320,192,1901,1,2,0:0:0:0:
448,192,1901,128,0,2201:0:0:0:0:
64,192,2201,128,0,2501:0:0:0:0:
192,192,2201,1,0,0:0:0:0:
320,192,2351,1,2,0:0:0:0:
448,192,2351,128,0,2651:0:0:0:0:
320,192,2501,128,0,2801:0:0:0:0:
64,192,2651,1,0,0:0:0:0:
192,192,2651,128,0,2951:0:0:0:0:
64,192,2801,128,0,2951:0:0:0:0:
320,192,2951,1,2,0:0:0:0:
448,192,2951,128,0,3251:0:0:0:0:
64,192,3251,1,0,0:0:0:0:
192,192,3251,1,0,0:0:0:0:
320,192,3401,128,2,3701:0:0:0:0:
448,192,3401,1,0,0:0:0:0:
192,192,3551,1,0,0:0:0:0:
64,192,3701,1,0,0:0:0:0:
448,192,3701,1,0,0:0:0:0:
192,192,3851,128,2,4151:0:0:0:0:
320,192,3851,1,0,0:0:0:0:
320,192,4151,1,0,0:0:0:0:
448,192,4151,1,0,0:0:0:0:
64,192,4301,128,2,4601:0:0:0:0:
192,192,4301,1,0,0:0:0:0:
320,192,4601,128,0,4976:0:0:0:0:
448,192,4601,128,0,4976:0:0:0:0:
64,192,4751,128,2,4976:0:0:0:0:
192,192,4751,128,0,4976:0:0:0:0:
448,192,5051,1,0,0:0:0:0:
320,192,5126,1,0,0:0:0:0:
64,192,5201,1,0,0:0:0:0:
192,192,5276,1,0,0:0:0:0:
64,192,5351,1,2,0:0:0:0:
320,192,5351,1,4,0:0:0:0:
448,192,5351,128,0,5501:0:0:0:0:
192,192,5501,128,0,5651:0:0:0:0:
64,192,5651,1,8,0:0:0:0:
320,192,5651,1,0,0:0:0:50:Hat open.wav
448,192,5651,1,0,0:0:0:0:
320,192,5801,128,0,5951:0:0:0:0:
64,192,5951,1,2,0:0:0:0:
192,192,5951,1,0,0:0:0:50:Hat open.wav
64,192,6101,128,2,6251:0:0:0:0:
448,192,6101,1,0,0:0:0:0:
192,192,6251,1,8,0:0:0:0:
320,192,6251,1,0,0:0:0:50:Hat open.wav
448,192,6251,1,0,0:0:0:0:
192,192,6401,128,0,6551:0:0:0:0:
64,192,6551,1,2,0:0:0:0:
448,192,6551,1,0,0:0:0:50:Hat open.wav
320,192,6701,128,0,6851:0:0:0:0:
64,192,6851,1,8,0:0:0:0:
192,192,6851,1,0,0:0:0:50:Hat open.wav
448,192,6851,1,0,0:0:0:0:
192,192,7001,128,0,7151:0:0:0:0:
320,192,7151,1,2,0:0:0:0:
448,192,7151,1,0,0:0:0:50:Hat open.wav
64,192,7301,1,2,0:0:0:0:
448,192,7301,128,0,7451:0:0:0:0:
64,192,7451,1,8,0:0:0:0:
192,192,7451,1,0,0:0:0:50:Hat open.wav
320,192,7451,1,0,0:0:0:0:
448,192,7601,1,0,0:0:0:0:
64,192,7751,128,2,7901:0:0:0:0:
192,192,7751,1,4,0:0:0:0:
320,192,7901,128,0,8051:0:0:0:0:
64,192,8051,1,8,0:0:0:0:
192,192,8051,1,0,0:0:0:50:Hat open.wav
448,192,8051,1,0,0:0:0:0:
192,192,8201,128,0,8351:0:0:0:0:
320,192,8351,1,2,0:0:0:0:
448,192,8351,1,0,0:0:0:50:Hat open.wav
64,192,8501,1,2,0:0:0:0:
448,192,8501,128,0,8651:0:0:0:0:
64,192,8651,1,8,0:0:0:0:
192,192,8651,1,0,0:0:0:50:Hat open.wav
320,192,8651,1,0,0:0:0:0:
320,192,8801,128,0,8951:0:0:0:0:
64,192,8951,1,2,0:0:0:0:
448,192,8951,1,0,0:0:0:50:Hat open.wav
192,192,9101,128,0,9251:0:0:0:0:
64,192,9251,1,8,0:0:0:0:
320,192,9251,1,0,0:0:0:0:
448,192,9251,1,0,0:0:0:0:
192,192,9401,1,2,0:0:0:0:
448,192,9401,1,0,0:0:0:0:
64,192,9551,1,8,0:0:0:0:
192,192,9551,1,0,0:0:0:0:
320,192,9551,1,0,0:0:0:0:
64,192,9701,1,2,0:0:0:0:
448,192,9701,1,0,0:0:0:0:
320,192,9851,1,8,0:0:0:0:
448,192,9851,1,0,0:0:0:0:
64,192,9926,1,8,0:0:0:0:
192,192,9926,1,0,0:0:0:0:
320,192,10001,1,8,0:0:0:0:
448,192,10001,1,0,0:0:0:0:
192,192,10076,1,0,0:0:0:0:
64,192,10151,1,2,0:0:0:0:
320,192,10151,128,4,10376:0:0:0:0:
448,192,10151,1,0,0:0:0:0:
64,192,10451,1,2,0:0:0:0:
320,192,10451,128,0,10751:0:0:0:0:
64,192,10751,128,2,10901:0:0:0:0:
448,192,10751,1,0,0:0:0:0:
192,192,10901,128,0,11051:0:0:0:0:
320,192,11051,128,2,11201:0:0:0:0:
448,192,11051,1,0,0:0:0:0:
192,192,11201,128,0,11351:0:0:0:0:
64,192,11351,1,2,0:0:0:0:
448,192,11351,128,0,11501:0:0:0:0:
64,192,11501,128,0,11651:0:0:0:0:
320,192,11651,128,2,11801:0:0:0:0:
448,192,11651,1,0,0:0:0:0:
192,192,11801,128,0,11951:0:0:0:0:
64,192,11951,1,2,0:0:0:0:
448,192,11951,128,0,12101:0:0:0:0:
64,192,12101,128,0,12251:0:0:0:0:
192,192,12251,1,2,0:0:0:0:
320,192,12251,128,0,12401:0:0:0:0:
64,192,12401,1,8,0:0:0:0:
192,192,12401,128,4,12701:0:0:0:0:
448,192,12401,1,0,0:0:0:0:
64,192,12551,1,2,0:0:0:0:
448,192,12551,1,0,0:0:0:0:
320,192,12701,128,0,12851:0:0:0:0:
64,192,12851,128,2,13001:0:0:0:0:
448,192,12851,1,0,0:0:0:0:
448,192,13001,128,0,13301:0:0:0:0:
192,192,13151,1,2,0:0:0:0:
320,192,13151,1,0,0:0:0:0:
64,192,13301,128,0,13376:0:0:0:0:
64,192,13451,128,2,13601:0:0:0:0:
192,192,13451,1,0,0:0:0:0:
448,192,13601,128,0,13751:0:0:0:0:
192,192,13751,128,2,13901:0:0:0:0:
320,192,13751,1,0,0:0:0:0:
64,192,13901,128,0,14051:0:0:0:0:
320,192,14051,128,2,14351:0:0:0:0:
448,192,14051,1,0,0:0:0:0:
64,192,14351,1,2,0:0:0:0:
192,192,14351,1,0,0:0:0:0:
64,192,14501,1,8,0:0:0:0:
320,192,14501,1,0,0:0:0:0:
448,192,14501,1,0,0:0:0:0:
192,192,14651,1,2,0:0:0:0:
448,192,14651,1,0,0:0:0:50:Tom1.wav
64,192,14801,1,0,0:0:0:50:Tom2.wav
320,192,14801,1,0,0:0:0:0:
64,192,14951,128,2,15251:0:0:0:0:
192,192,14951,1,4,0:0:0:0:
448,192,14951,1,0,0:0:0:50:Tom3.wav
320,192,15251,128,2,15551:0:0:0:0:
448,192,15251,1,0,0:0:0:0:
64,192,15551,1,2,0:0:0:0:
192,192,15551,128,0,15851:0:0:0:0:
320,192,15851,1,2,0:0:0:0:
448,192,15851,128,0,16001:0:0:0:0:
64,192,16001,128,0,16151:0:0:0:0:
192,192,16151,1,2,0:0:0:0:
320,192,16151,128,0,16301:0:0:0:0:
448,192,16301,1,0,0:0:0:50:Tom1.wav
320,192,16376,1,0,0:0:0:0:
64,192,16451,1,2,0:0:0:0:
192,192,16451,1,0,0:0:0:0:
320,192,16601,1,0,0:0:0:50:Tom2.wav
448,192,16601,1,0,0:0:0:0:
64,192,16751,1,2,0:0:0:0:
192,192,16751,1,8,0:0:0:0:
448,192,16751,1,0,0:0:0:0:
64,192,16901,1,8,0:0:0:0:
192,192,16901,1,0,0:0:0:0:
320,192,16901,1,0,0:0:0:0:
64,192,17051,1,2,0:0:0:0:
320,192,17051,1,8,0:0:0:0:
448,192,17051,1,0,0:0:0:0:
192,192,17201,128,2,17351:0:0:0:0:
320,192,17201,128,4,17351:0:0:0:0:
448,192,17201,128,0,17501:0:0:0:0:
64,192,17501,1,2,0:0:0:0:
192,192,17501,1,0,0:0:0:50:Tom1.wav
320,192,17651,1,0,0:0:0:50:Tom1.wav
448,192,17651,1,0,0:0:0:0:
64,192,17801,1,0,0:0:0:50:Tom1.wav
192,192,17801,1,0,0:0:0:0:
64,192,17951,128,2,18101:0:0:0:0:
320,192,17951,128,8,18251:0:0:0:0:
448,192,17951,128,0,18101:0:0:0:0:
64,192,18401,128,2,18701:0:0:0:0:
192,192,18401,128,4,18551:0:0:0:0:
448,192,18401,128,0,18551:0:0:0:0:
320,192,18701,1,2,0:0:0:0:
448,192,18701,1,0,0:0:0:50:Tom1.wav
64,192,18851,1,0,0:0:0:50:Tom2.wav
192,192,18851,1,0,0:0:0:0:
320,192,19001,1,0,0:0:0:50:Tom3.wav
448,192,19001,1,0,0:0:0:0:
64,192,19151,128,8,19226:0:0:0:0:
192,192,19151,128,0,19226:0:0:0:0:
448,192,19151,128,0,19226:0:0:0:0:
64,192,19301,128,2,19376:0:0:0:0:
320,192,19301,128,8,19376:0:0:0:0:
448,192,19301,128,0,19376:0:0:0:0:
64,192,19601,1,2,0:0:0:0:
320,192,19601,128,4,19901:0:0:0:0:
448,192,19601,1,0,0:0:0:0:
64,192,19901,1,2,0:0:0:0:
192,192,19901,1,0,0:0:0:0:
64,192,20051,1,8,0:0:0:0:
320,192,20051,1,0,0:0:0:0:
448,192,20051,1,0,0:0:0:0:
448,192,20201,1,0,0:0:0:0:
192,192,20351,1,2,0:0:0:0:
320,192,20351,1,0,0:0:0:0:
192,192,20501,1,2,0:0:0:0:
64,192,20651,1,8,0:0:0:0:
320,192,20651,128,0,20801:0:0:0:0:
448,192,20651,1,0,0:0:0:0:
192,192,20801,128,0,20951:0:0:0:0:
64,192,20951,1,2,0:0:0:0:
448,192,20951,1,0,0:0:0:0:
320,192,21101,1,0,0:0:0:0:
64,192,21251,1,8,0:0:0:0:
192,192,21251,1,0,0:0:0:0:
448,192,21251,128,0,21401:0:0:0:0:
320,192,21401,1,0,0:0:0:0:
64,192,21551,128,2,21701:0:0:0:0:
192,192,21551,1,0,0:0:0:0:
320,192,21701,1,2,0:0:0:0:
448,192,21701,1,0,0:0:0:0:
64,192,21851,1,8,0:0:0:0:
192,192,21851,1,0,0:0:0:0:
448,192,21851,1,0,0:0:0:0:
320,192,22001,1,0,0:0:0:0:
64,192,22151,1,2,0:0:0:0:
448,192,22151,128,0,22301:0:0:0:0:
192,192,22301,128,0,22451:0:0:0:0:
64,192,22451,1,8,0:0:0:0:
320,192,22451,128,0,22601:0:0:0:0:
448,192,22451,1,0,0:0:0:0:
64,192,22601,128,0,22751:0:0:0:0:
320,192,22751,128,2,22901:0:0:0:0:
448,192,22751,1,0,0:0:0:0:
64,192,22901,1,2,0:0:0:0:
192,192,22901,128,0,23051:0:0:0:0:
64,192,23051,1,8,0:0:0:0:
320,192,23051,1,0,0:0:0:0:
448,192,23051,128,0,23201:0:0:0:0:
320,192,23201,128,0,23351:0:0:0:0:
64,192,23351,1,2,0:0:0:0:
192,192,23351,1,0,0:0:0:0:
64,192,23501,128,0,23651:0:0:0:0:
192,192,23651,128,8,23801:0:0:0:0:
320,192,23651,1,0,0:0:0:0:
448,192,23651,1,0,0:0:0:0:
448,192,23801,128,0,23951:0:0:0:0:
64,192,23951,1,2,0:0:0:0:
192,192,23951,1,0,0:0:0:0:
320,192,24101,1,2,0:0:0:0:
448,192,24101,1,0,0:0:0:0:
64,192,24251,1,8,0:0:0:0:
192,192,24251,1,0,0:0:0:0:
448,192,24251,1,0,0:0:0:0:
320,192,24401,1,0,0:0:0:0:
64,192,24551,128,2,24701:0:0:0:0:
448,192,24551,1,0,0:0:0:0:
192,192,24701,1,0,0:0:0:0:
64,192,24851,1,8,0:0:0:0:
320,192,24851,1,0,0:0:0:0:
448,192,24851,128,0,25001:0:0:0:0:
192,192,25001,1,0,0:0:0:0:
64,192,25151,128,2,25301:0:0:0:0:
448,192,25151,1,0,0:0:0:0:
192,192,25301,1,2,0:0:0:0:
320,192,25301,128,0,25451:0:0:0:0:
64,192,25451,1,8,0:0:0:0:
192,192,25451,1,0,0:0:0:0:
448,192,25451,1,0,0:0:0:0:
448,192,25601,128,0,25751:0:0:0:0:
64,192,25751,1,2,0:0:0:0:
192,192,25751,1,0,0:0:0:0:
320,192,25901,128,0,26051:0:0:0:0:
64,192,26051,128,8,26201:0:0:0:0:
192,192,26051,1,0,0:0:0:0:
448,192,26051,1,0,0:0:0:0:
320,192,26201,1,0,0:0:0:0:
64,192,26351,1,2,0:0:0:0:
448,192,26351,128,0,26501:0:0:0:0:
192,192,26501,1,2,0:0:0:0:
320,192,26501,1,0,0:0:0:0:
64,192,26651,1,8,0:0:0:0:
320,192,26651,1,0,0:0:0:0:
448,192,26651,1,0,0:0:0:0:
192,192,26801,1,0,0:0:0:0:
64,192,26951,1,2,0:0:0:0:
448,192,26951,128,0,27101:0:0:0:0:
192,192,27101,128,0,27251:0:0:0:0:
64,192,27251,1,8,0:0:0:0:
320,192,27251,128,0,27401:0:0:0:0:
448,192,27251,1,0,0:0:0:0:
64,192,27401,128,0,27551:0:0:0:0:
320,192,27551,1,2,0:0:0:0:
448,192,27551,128,0,27701:0:0:0:0:
64,192,27701,1,2,0:0:0:0:
192,192,27701,1,0,0:0:0:0:
64,192,27851,1,8,0:0:0:0:
320,192,27851,128,0,28001:0:0:0:0:
448,192,27851,1,0,0:0:0:0:
192,192,28001,128,0,28151:0:0:0:0:
64,192,28151,1,2,0:0:0:0:
448,192,28151,128,0,28301:0:0:0:0:
320,192,28301,128,0,28451:0:0:0:0:
64,192,28451,128,8,28601:0:0:0:0:
192,192,28451,1,0,0:0:0:0:
448,192,28451,1,0,0:0:0:0:
192,192,28601,128,0,28751:0:0:0:0:
320,192,28751,1,2,0:0:0:0:
448,192,28751,1,0,0:0:0:50:Hat open.wav
64,192,28901,1,8,0:0:0:0:
192,192,28901,1,0,0:0:0:0:
448,192,28901,1,0,0:0:0:0:
64,192,29051,1,8,0:0:0:0:
192,192,29051,1,0,0:0:0:0:
320,192,29051,1,0,0:0:0:0:
64,192,29201,1,4,0:0:0:0:
320,192,29201,1,2,0:0:0:0:
448,192,29201,128,0,29501:0:0:0:0:
64,192,29501,1,2,0:0:0:0:
192,192,29501,1,0,0:0:0:0:
64,192,29651,1,8,0:0:0:0:
320,192,29651,128,0,29801:0:0:0:0:
448,192,29651,1,0,0:0:0:0:
192,192,29801,1,0,0:0:0:0:
64,192,29951,128,2,30101:0:0:0:0:
448,192,29951,1,0,0:0:0:0:
320,192,30101,128,2,30251:0:0:0:0:
64,192,30251,1,8,0:0:0:0:
192,192,30251,1,0,0:0:0:0:
448,192,30251,1,0,0:0:0:0:
192,192,30401,128,0,30551:0:0:0:0:
64,192,30551,1,2,0:0:0:0:
448,192,30551,1,0,0:0:0:0:
320,192,30701,128,0,30851:0:0:0:0:
64,192,30851,128,8,31001:0:0:0:0:
192,192,30851,1,0,0:0:0:0:
448,192,30851,1,0,0:0:0:0:
320,192,31001,1,0,0:0:0:0:
64,192,31151,1,2,0:0:0:0:
448,192,31151,128,0,31301:0:0:0:0:
192,192,31301,1,2,0:0:0:0:
320,192,31301,1,0,0:0:0:0:
64,192,31451,1,8,0:0:0:0:
320,192,31451,1,0,0:0:0:0:
448,192,31451,1,0,0:0:0:0:
192,192,31601,1,0,0:0:0:0:
64,192,31751,128,2,31901:0:0:0:0:
448,192,31751,1,0,0:0:0:0:
320,192,31901,128,0,32051:0:0:0:0:
64,192,32051,1,8,0:0:0:0:
192,192,32051,128,0,32201:0:0:0:0:
448,192,32051,1,0,0:0:0:0:
448,192,32201,128,0,32351:0:0:0:0:
64,192,32351,1,2,0:0:0:0:
192,192,32351,128,0,32501:0:0:0:0:
320,192,32501,128,2,32651:0:0:0:0:
448,192,32501,1,0,0:0:0:0:
64,192,32651,128,8,32801:0:0:0:0:
192,192,32651,1,0,0:0:0:0:
448,192,32651,1,0,0:0:0:0:
192,192,32801,128,0,32951:0:0:0:0:
320,192,32951,1,2,0:0:0:0:
448,192,32951,1,0,0:0:0:0:
192,192,33101,1,0,0:0:0:0:
64,192,33251,1,8,0:0:0:0:
320,192,33251,1,0,0:0:0:0:
448,192,33251,128,0,33401:0:0:0:0:
192,192,33401,128,0,33551:0:0:0:0:
64,192,33551,1,2,0:0:0:0:
448,192,33551,1,0,0:0:0:0:
192,192,33701,1,2,0:0:0:0:
320,192,33701,1,0,0:0:0:0:
64,192,33851,1,8,0:0:0:0:
192,192,33851,1,0,0:0:0:0:
448,192,33851,1,0,0:0:0:0:
320,192,34001,1,0,0:0:0:0:
64,192,34151,1,2,0:0:0:0:
448,192,34151,1,0,0:0:0:0:
192,192,34301,128,0,34451:0:0:0:0:
64,192,34451,1,8,0:0:0:0:
320,192,34451,1,0,0:0:0:0:
448,192,34451,1,0,0:0:0:0:
320,192,34601,128,0,34751:0:0:0:0:
64,192,34751,128,2,34901:0:0:0:0:
192,192,34751,1,0,0:0:0:0:
320,192,34901,1,2,0:0:0:0:
448,192,34901,128,0,35051:0:0:0:0:
64,192,35051,1,8,0:0:0:0:
192,192,35051,128,0,35201:0:0:0:0:
320,192,35051,1,0,0:0:0:0:
448,192,35201,128,0,35351:0:0:0:0:
64,192,35351,1,2,0:0:0:0:
192,192,35351,1,0,0:0:0:0:
320,192,35501,128,0,35651:0:0:0:0:
64,192,35651,128,8,35801:0:0:0:0:
192,192,35651,1,0,0:0:0:50:Hat open.wav
448,192,35651,1,0,0:0:0:0:
448,192,35801,128,0,35951:0:0:0:0:
192,192,35951,128,2,36101:0:0:0:0:
320,192,35951,1,0,0:0:0:50:Hat open.wav
64,192,36101,1,8,0:0:0:0:
320,192,36101,1,0,0:0:0:0:
448,192,36101,1,0,0:0:0:0:
64,192,36251,1,0,0:0:0:50:Tom1.wav
192,192,36251,1,0,0:0:0:0:
320,192,36401,1,0,0:0:0:50:Tom2.wav
448,192,36401,1,0,0:0:0:0:
64,192,36551,1,8,0:0:0:0:
192,192,36551,1,0,0:0:0:0:
448,192,36551,1,0,0:0:0:0:
64,192,36701,1,8,0:0:0:0:
192,192,36701,1,0,0:0:0:0:
320,192,36701,1,0,0:0:0:0:
320,192,36851,1,2,0:0:0:0:
448,192,36851,1,0,0:0:0:0:
64,192,37001,1,0,0:0:0:50:Tom1.wav
192,192,37001,1,0,0:0:0:0:
320,192,37076,1,0,0:0:0:0:
64,192,37151,1,2,0:0:0:0:
448,192,37151,1,0,0:0:0:50:Tom1.wav
192,192,37301,1,0,0:0:0:0:
64,192,37451,1,2,0:0:0:0:
320,192,37451,1,0,0:0:0:50:Tom2.wav
192,192,37601,1,0,0:0:0:50:Tom2.wav
448,192,37601,1,0,0:0:0:0:
192,192,37751,1,2,0:0:0:0:
320,192,37751,1,0,0:0:0:0:
64,192,37901,1,8,0:0:0:0:
320,192,37901,1,0,0:0:0:0:
448,192,37901,1,0,0:0:0:0:
64,192,38051,1,8,0:0:0:0:
192,192,38051,128,0,38351:0:0:0:0:
448,192,38051,1,0,0:0:0:0:
64,192,38351,1,2,0:0:0:0:
320,192,38351,128,0,38651:0:0:0:0:
448,192,38351,1,0,0:0:0:0:
64,192,38651,128,2,38951:0:0:0:0:
448,192,38651,1,0,0:0:0:50:Hat open.wav
192,192,38951,1,4,0:0:0:0:
320,192,38951,1,2,0:0:0:0:
448,192,38951,128,0,39251:0:0:0:0:
64,192,39251,128,8,39401:0:0:0:0:
192,192,39251,1,0,0:0:0:0:
320,192,39401,1,2,0:0:0:0:
448,192,39401,1,0,0:0:0:0:
192,192,39551,128,0,39701:0:0:0:0:
64,192,39701,1,2,0:0:0:0:
448,192,39701,1,0,0:0:0:0:
64,192,39851,1,8,0:0:0:0:
192,192,39851,1,0,0:0:0:0:
320,192,39851,128,0,40001:0:0:0:0:
448,192,40001,1,0,0:0:0:0:
64,192,40151,128,2,40301:0:0:0:0:
192,192,40151,1,0,0:0:0:0:
320,192,40301,1,0,0:0:0:0:
64,192,40451,1,8,0:0:0:0:
192,192,40451,128,0,40601:0:0:0:0:
448,192,40451,1,0,0:0:0:0:
320,192,40601,1,2,0:0:0:0:
448,192,40601,1,0,0:0:0:0:
320,192,40751,128,0,41051:0:0:0:0:
64,192,40901,1,2,0:0:0:0:
192,192,40901,1,0,0:0:0:0:
64,192,41051,1,8,0:0:0:0:
448,192,41051,1,0,0:0:0:0:
192,192,41201,1,0,0:0:0:0:
320,192,41351,1,2,0:0:0:0:
448,192,41351,128,0,41651:0:0:0:0:
64,192,41501,1,0,0:0:0:0:
192,192,41651,1,8,0:0:0:0:
320,192,41651,1,0,0:0:0:0:
64,192,41801,1,2,0:0:0:0:
448,192,41801,1,0,0:0:0:0:
192,192,41951,1,0,0:0:0:0:
320,192,42101,1,2,0:0:0:0:
448,192,42101,1,0,0:0:0:0:
64,192,42251,128,8,42401:0:0:0:0:
192,192,42251,1,0,0:0:0:0:
448,192,42251,1,0,0:0:0:0:
320,192,42401,1,0,0:0:0:0:
64,192,42551,1,2,0:0:0:0:
448,192,42551,128,0,42851:0:0:0:0:
192,192,42701,1,0,0:0:0:0:
64,192,42851,1,8,0:0:0:0:
320,192,42851,1,0,0:0:0:0:
192,192,43001,1,2,0:0:0:0:
448,192,43001,1,0,0:0:0:0:
320,192,43151,128,0,43451:0:0:0:0:
64,192,43301,1,2,0:0:0:0:
192,192,43301,1,0,0:0:0:0:
64,192,43451,1,8,0:0:0:0:
448,192,43451,1,0,0:0:0:0:
320,192,43601,1,0,0:0:0:0:
64,192,43751,1,2,0:0:0:0:
192,192,43751,128,0,44051:0:0:0:0:
320,192,44051,1,8,0:0:0:0:
448,192,44051,1,0,0:0:0:0:
64,192,44201,1,2,0:0:0:0:
192,192,44201,1,0,0:0:0:0:
320,192,44351,1,0,0:0:0:0:
64,192,44501,1,2,0:0:0:0:
448,192,44501,1,0,0:0:0:0:
192,192,44651,1,8,0:0:0:0:
320,192,44651,1,0,0:0:0:0:
448,192,44651,128,0,44801:0:0:0:0:
64,192,44801,1,0,0:0:0:0:
320,192,44951,128,2,45101:0:0:0:0:
448,192,44951,1,0,0:0:0:0:
192,192,45101,1,0,0:0:0:0:
64,192,45251,128,8,45401:0:0:0:0:
448,192,45251,1,0,0:0:0:0:
192,192,45401,1,2,0:0:0:0:
320,192,45401,1,0,0:0:0:0:
64,192,45551,128,0,45851:0:0:0:0:
192,192,45701,1,2,0:0:0:0:
448,192,45701,1,0,0:0:0:0:
320,192,45851,1,8,0:0:0:0:
448,192,45851,1,0,0:0:0:0:
192,192,46001,1,0,0:0:0:0:
64,192,46151,1,2,0:0:0:0:
448,192,46151,128,0,46451:0:0:0:0:
320,192,46301,1,0,0:0:0:0:
64,192,46451,1,8,0:0:0:0:
192,192,46451,1,0,0:0:0:0:
320,192,46601,1,2,0:0:0:0:
448,192,46601,1,0,0:0:0:0:
192,192,46751,1,0,0:0:0:0:
64,192,46901,1,2,0:0:0:0:
448,192,46901,1,0,0:0:0:0:
64,192,47051,1,8,0:0:0:0:
192,192,47051,1,0,0:0:0:50:Hat open.wav
320,192,47051,1,0,0:0:0:0:
448,192,47201,1,0,0:0:0:0:
64,192,47351,1,2,0:0:0:0:
192,192,47351,1,0,0:0:0:50:Hat open.wav
320,192,47501,1,0,0:0:0:0:
64,192,47651,1,8,0:0:0:0:
192,192,47651,1,0,0:0:0:0:
448,192,47651,1,0,0:0:0:0:
64,192,47801,1,8,0:0:0:0:
192,192,47801,1,0,0:0:0:0:
320,192,47801,1,0,0:0:0:0:
64,192,47951,1,8,0:0:0:0:
320,192,47951,1,0,0:0:0:0:
448,192,47951,1,0,0:0:0:0:
192,192,48101,1,0,0:0:0:50:Tom1.wav
448,192,48101,1,0,0:0:0:0:
64,192,48251,1,0,0:0:0:50:Tom2.wav
320,192,48251,1,0,0:0:0:0:
192,192,48401,1,0,0:0:0:50:Tom3.wav
448,192,48401,1,0,0:0:0:0:
64,192,48551,1,4,0:0:0:0:
320,192,48551,1,2,0:0:0:0:
448,192,48551,128,0,48851:0:0:0:0:
64,192,48851,128,0,49151:0:0:0:50:Hat open.wav
192,192,49001,1,2,0:0:0:0:
448,192,49001,1,0,0:0:0:0:
192,192,49151,1,8,0:0:0:0:
320,192,49151,128,0,49451:0:0:0:50:Hat open.wav
448,192,49151,1,0,0:0:0:0:
64,192,49451,128,0,49751:0:0:0:50:Hat open.wav
192,192,49601,1,2,0:0:0:0:
320,192,49601,1,0,0:0:0:0:
448,192,49751,128,0,50051:0:0:0:50:Hat open.wav
64,192,50051,1,2,0:0:0:0:
192,192,50051,128,0,50351:0:0:0:50:Hat open.wav
64,192,50351,1,8,0:0:0:0:
320,192,50351,128,0,50651:0:0:0:50:Hat open.wav
448,192,50351,1,0,0:0:0:0:
448,192,50651,128,0,50951:0:0:0:50:Hat open.wav
64,192,50801,1,8,0:0:0:0:
192,192,50801,1,0,0:0:0:0:
320,192,50801,1,0,0:0:0:0:
64,192,50951,128,2,51251:0:0:0:0:
192,192,50951,1,0,0:0:0:50:Hat open.wav
320,192,51251,128,0,51551:0:0:0:50:Hat open.wav
64,192,51401,1,2,0:0:0:0:
448,192,51401,1,0,0:0:0:0:
64,192,51551,1,8,0:0:0:0:
192,192,51551,128,0,51851:0:0:0:50:Hat open.wav
448,192,51551,1,0,0:0:0:0:
448,192,51851,128,0,52151:0:0:0:50:Hat open.wav
64,192,52001,1,2,0:0:0:0:
192,192,52001,1,0,0:0:0:0:
320,192,52151,128,0,52451:0:0:0:50:Hat open.wav
64,192,52301,1,8,0:0:0:0:
192,192,52301,1,0,0:0:0:0:
64,192,52451,1,2,0:0:0:0:
448,192,52451,1,0,0:0:0:50:Hat open.wav
192,192,52751,128,8,53051:0:0:0:0:
320,192,52751,1,0,0:0:0:50:Hat open.wav
448,192,52751,1,0,0:0:0:0:
64,192,53051,1,0,0:0:0:50:Hat open.wav
320,192,53201,1,8,0:0:0:0:
448,192,53201,1,0,0:0:0:0:
64,192,53351,128,4,53651:0:0:0:0:
192,192,53351,1,2,0:0:0:0:
448,192,53351,1,0,0:0:0:0:
320,192,53651,128,0,53951:0:0:0:50:Hat open.wav
64,192,53801,1,2,0:0:0:0:
448,192,53801,1,0,0:0:0:0:
64,192,53951,1,8,0:0:0:0:
192,192,53951,128,0,54251:0:0:0:50:Hat open.wav
448,192,53951,1,0,0:0:0:0:
448,192,54251,128,0,54551:0:0:0:50:Hat open.wav
192,192,54401,1,2,0:0:0:0:
320,192,54401,1,0,0:0:0:0:
64,192,54551,128,0,54851:0:0:0:50:Hat open.wav
192,192,54701,1,8,0:0:0:0:
448,192,54701,1,0,0:0:0:0:
320,192,54851,1,2,0:0:0:0:
448,192,54851,1,0,0:0:0:50:Hat open.wav
192,192,55001,1,0,0:0:0:25:soft-hitclap.wav
320,192,55076,1,0,0:0:0:25:soft-hitclap.wav
64,192,55151,1,8,0:0:0:0:
192,192,55151,1,0,0:0:0:0:
448,192,55151,1,0,0:0:0:0:
64,192,55301,1,0,0:0:0:50:Tom1.wav
320,192,55301,1,0,0:0:0:0:
192,192,55451,1,0,0:0:0:50:Tom2.wav
448,192,55451,1,0,0:0:0:0:
64,192,55601,1,0,0:0:0:50:Tom3.wav
320,192,55601,1,0,0:0:0:0:
192,192,55751,1,4,0:0:0:0:
320,192,55751,1,2,0:0:0:0:
448,192,55751,128,0,56051:0:0:0:0:
64,192,56051,1,8,0:0:0:0:
192,192,56051,1,0,0:0:0:0:
64,192,56201,1,4,0:0:0:0:
320,192,56201,128,2,56501:0:0:0:0:
448,192,56201,1,0,0:0:0:0:
64,192,56501,1,8,0:0:0:0:
448,192,56501,1,0,0:0:0:0:
64,192,56651,1,4,0:0:0:0:
192,192,56651,128,2,56951:0:0:0:0:
320,192,56651,1,0,0:0:0:0:
320,192,56951,1,8,0:0:0:0:
448,192,56951,1,0,0:0:0:0:
64,192,57101,128,4,57551:0:0:0:0:
192,192,57101,1,2,0:0:0:0:
448,192,57101,1,0,0:0:0:0:
192,192,57551,1,4,0:0:0:0:
320,192,57551,128,2,57701:0:0:0:0:
448,192,57551,128,8,57701:0:0:0:0:
64,192,57851,128,0,58001:0:0:0:0:
192,192,57926,1,0,0:0:0:0:
448,192,58001,128,0,58151:0:0:0:0:
320,192,58076,1,0,0:0:0:0:
64,192,58151,1,4,0:0:0:0:
192,192,58151,128,2,58451:0:0:0:0:
64,192,58451,1,8,0:0:0:0:
320,192,58451,1,0,0:0:0:50:Hat open.wav
448,192,58451,1,0,0:0:0:0:
192,192,58601,1,0,0:0:0:0:
320,192,58751,1,2,0:0:0:0:
448,192,58751,1,0,0:0:0:50:Hat open.wav
64,192,58901,1,2,0:0:0:0:
192,192,58901,1,0,0:0:0:0:
64,192,59051,1,8,0:0:0:0:
320,192,59051,1,0,0:0:0:50:Hat open.wav
448,192,59051,128,0,59201:0:0:0:0:
192,192,59201,128,0,59351:0:0:0:0:
64,192,59351,1,2,0:0:0:0:
320,192,59351,128,0,59651:0:0:0:50:Hat open.wav
448,192,59501,1,0,0:0:0:0:
64,192,59651,128,8,59801:0:0:0:0:
192,192,59651,1,0,0:0:0:50:Hat open.wav
320,192,59801,128,0,59951:0:0:0:0:
192,192,59951,128,2,60251:0:0:0:0:
448,192,59951,1,0,0:0:0:50:Hat open.wav
64,192,60101,1,2,0:0:0:0:
320,192,60101,1,0,0:0:0:0:
64,192,60251,1,8,0:0:0:0:
448,192,60251,128,0,60401:0:0:0:50:Hat open.wav
320,192,60401,128,0,60551:0:0:0:0:
64,192,60551,128,2,60851:0:0:0:0:
192,192,60551,1,0,0:0:0:50:Hat open.wav
320,192,60701,1,0,0:0:0:0:
192,192,60851,1,8,0:0:0:0:
448,192,60851,128,0,61151:0:0:0:50:Hat open.wav
64,192,61001,1,0,0:0:0:0:
192,192,61151,128,2,61451:0:0:0:0:
320,192,61151,1,0,0:0:0:50:Hat open.wav
448,192,61301,1,2,0:0:0:0:
64,192,61301,1,0,0:0:0:0:
64,192,61451,1,8,0:0:0:0:
320,192,61451,128,0,61751:0:0:0:50:Hat open.wav
192,192,61601,1,0,0:0:0:0:
64,192,61751,128,2,62051:0:0:0:0:
448,192,61751,1,0,0:0:0:50:Hat open.wav
320,192,61901,1,0,0:0:0:0:
192,192,62051,1,8,0:0:0:0:
448,192,62051,1,0,0:0:0:50:Hat open.wav
320,192,62201,128,0,62351:0:0:0:0:
64,192,62351,128,2,62501:0:0:0:0:
192,192,62351,1,0,0:0:0:50:Hat open.wav
320,192,62501,1,2,0:0:0:0:
448,192,62501,1,0,0:0:0:0:
64,192,62651,1,8,0:0:0:0:
192,192,62651,128,0,62801:0:0:0:50:Hat open.wav
448,192,62651,1,0,0:0:0:0:
320,192,62801,1,0,0:0:0:0:
64,192,62951,1,2,0:0:0:0:
192,192,62951,1,4,0:0:0:0:
448,192,62951,128,0,63101:0:0:0:0:
192,192,63101,128,0,63251:0:0:0:0:
64,192,63251,1,8,0:0:0:0:
320,192,63251,128,0,63401:0:0:0:50:Hat open.wav
448,192,63251,1,0,0:0:0:0:
64,192,63401,128,0,63551:0:0:0:0:
320,192,63551,1,2,0:0:0:0:
448,192,63551,1,0,0:0:0:50:Hat open.wav
64,192,63701,1,2,0:0:0:0:
192,192,63701,1,0,0:0:0:0:
64,192,63851,1,8,0:0:0:0:
320,192,63851,128,0,64001:0:0:0:50:Hat open.wav
448,192,63851,1,0,0:0:0:0:
192,192,64001,1,0,0:0:0:0:
64,192,64151,128,2,64301:0:0:0:0:
448,192,64151,1,0,0:0:0:50:Hat open.wav
320,192,64301,128,0,64451:0:0:0:0:
64,192,64451,1,8,0:0:0:0:
192,192,64451,128,0,64601:0:0:0:50:Hat open.wav
448,192,64451,1,0,0:0:0:0:
448,192,64601,128,0,64751:0:0:0:0:
64,192,64751,1,2,0:0:0:0:
192,192,64751,1,0,0:0:0:50:Hat open.wav
320,192,64901,1,2,0:0:0:0:
448,192,64901,1,0,0:0:0:0:
64,192,65051,128,8,65201:0:0:0:0:
192,192,65051,1,0,0:0:0:50:Hat open.wav
448,192,65051,1,0,0:0:0:0:
320,192,65201,1,0,0:0:0:0:
64,192,65351,1,2,0:0:0:0:
192,192,65351,128,4,65651:0:0:0:0:
448,192,65351,1,0,0:0:0:0:
64,192,65651,1,8,0:0:0:0:
320,192,65651,1,0,0:0:0:50:Hat open.wav
448,192,65651,1,0,0:0:0:0:
192,192,65801,1,2,0:0:0:0:
448,192,65801,1,0,0:0:0:0:
64,192,65951,1,8,0:0:0:0:
192,192,65951,1,0,0:0:0:50:Hat open.wav
320,192,65951,1,0,0:0:0:0:
64,192,66101,1,2,0:0:0:0:
448,192,66101,1,0,0:0:0:0:
192,192,66251,1,8,0:0:0:0:
320,192,66251,1,0,0:0:0:50:Hat open.wav
448,192,66251,1,0,0:0:0:0:
64,192,66401,1,2,0:0:0:0:
320,192,66401,1,0,0:0:0:0:
64,192,66551,1,4,0:0:0:0:
192,192,66551,1,8,0:0:0:0:
448,192,66551,1,0,0:0:0:0:
192,192,66701,1,2,0:0:0:0:
320,192,66701,1,0,0:0:0:0:
64,192,66851,1,8,0:0:0:0:
320,192,66851,1,0,0:0:0:0:
448,192,66851,1,0,0:0:0:0:
192,192,67001,1,2,0:0:0:0:
448,192,67001,1,0,0:0:0:0:
64,192,67151,1,8,0:0:0:0:
192,192,67151,1,0,0:0:0:0:
320,192,67151,1,0,0:0:0:0:
64,192,67301,1,8,0:0:0:0:
320,192,67301,1,0,0:0:0:0:
448,192,67301,1,0,0:0:0:0:
192,192,67451,1,0,0:0:0:50:Tom1.wav
448,192,67451,1,0,0:0:0:0:
64,192,67601,1,0,0:0:0:50:Tom2.wav
320,192,67601,1,0,0:0:0:0:
64,192,67751,1,2,0:0:0:0:
192,192,67751,128,4,68051:0:0:0:0:
448,192,67751,1,0,0:0:0:50:Tom3.wav
64,192,68051,1,8,0:0:0:0:
320,192,68051,1,0,0:0:0:50:Hat open.wav
448,192,68051,1,0,0:0:0:0:
192,192,68201,1,0,0:0:0:0:
320,192,68351,1,2,0:0:0:0:
448,192,68351,1,0,0:0:0:50:Hat open.wav
64,192,68501,1,2,0:0:0:0:
192,192,68501,1,0,0:0:0:0:
64,192,68651,1,8,0:0:0:0:
320,192,68651,1,0,0:0:0:50:Hat open.wav
448,192,68651,128,0,68801:0:0:0:0:
192,192,68801,128,0,68951:0:0:0:0:
64,192,68951,1,2,0:0:0:0:
320,192,68951,128,0,69101:0:0:0:50:Hat open.wav
64,192,69101,128,0,69251:0:0:0:0:
192,192,69251,1,8,0:0:0:0:
320,192,69251,1,0,0:0:0:50:Hat open.wav
448,192,69251,128,0,69401:0:0:0:0:
192,192,69401,128,0,69551:0:0:0:0:
320,192,69551,1,2,0:0:0:0:
448,192,69551,128,0,69701:0:0:0:50:Hat open.wav
64,192,69701,1,2,0:0:0:0:
192,192,69701,1,0,0:0:0:0:
64,192,69851,1,8,0:0:0:0:
320,192,69851,1,0,0:0:0:50:Hat open.wav
448,192,69851,128,0,70001:0:0:0:0:
192,192,70001,128,0,70151:0:0:0:0:
64,192,70151,128,2,70451:0:0:0:0:
448,192,70151,1,0,0:0:0:50:Hat open.wav
320,192,70301,1,0,0:0:0:0:
192,192,70451,1,8,0:0:0:0:
448,192,70451,128,0,70751:0:0:0:50:Hat open.wav
64,192,70601,1,0,0:0:0:0:
192,192,70751,128,2,71051:0:0:0:0:
320,192,70751,1,0,0:0:0:50:Hat open.wav
64,192,70901,1,2,0:0:0:0:
448,192,70901,1,0,0:0:0:0:
320,192,71051,128,8,71351:0:0:0:0:
448,192,71051,1,0,0:0:0:50:Hat open.wav
192,192,71201,1,0,0:0:0:0:
64,192,71351,128,2,71651:0:0:0:0:
448,192,71351,1,0,0:0:0:50:Hat open.wav
320,192,71501,1,0,0:0:0:0:
192,192,71651,1,8,0:0:0:0:
448,192,71651,1,0,0:0:0:50:Hat open.wav
320,192,71801,128,0,71951:0:0:0:0:
64,192,71951,128,2,72101:0:0:0:0:
192,192,71951,1,0,0:0:0:50:Hat open.wav
320,192,72101,1,2,0:0:0:0:
448,192,72101,1,0,0:0:0:0:
64,192,72251,1,8,0:0:0:0:
192,192,72251,1,0,0:0:0:50:Hat open.wav
448,192,72251,1,0,0:0:0:0:
320,192,72401,1,0,0:0:0:0:
64,192,72551,1,2,0:0:0:0:
448,192,72551,128,0,72851:0:0:0:0:
192,192,72701,1,0,0:0:0:0:
64,192,72851,1,8,0:0:0:0:
320,192,72851,1,0,0:0:0:50:Hat open.wav
192,192,73001,1,0,0:0:0:0:
64,192,73151,128,2,73451:0:0:0:0:
448,192,73151,1,0,0:0:0:50:Hat open.wav
192,192,73301,1,2,0:0:0:0:
320,192,73301,1,0,0:0:0:0:
192,192,73451,1,8,0:0:0:0:
448,192,73451,128,0,73751:0:0:0:50:Hat open.wav
320,192,73601,1,0,0:0:0:0:
64,192,73751,1,2,0:0:0:0:
192,192,73751,1,0,0:0:0:50:Hat open.wav
64,192,73901,1,8,0:0:0:0:
192,192,73901,1,0,0:0:0:0:
448,192,73901,1,0,0:0:0:0:
64,192,74051,1,8,0:0:0:0:
320,192,74051,1,0,0:0:0:0:
448,192,74051,1,0,0:0:0:0:
192,192,74201,1,8,0:0:0:0:
320,192,74201,1,0,0:0:0:0:
448,192,74201,1,0,0:0:0:0:
64,192,74351,1,2,0:0:0:0:
192,192,74351,1,0,0:0:0:0:
320,192,74501,1,0,0:0:0:50:Tom1.wav
448,192,74501,1,0,0:0:0:0:
192,192,74651,1,2,0:0:0:0:
320,192,74651,1,0,0:0:0:0:
64,192,74801,1,0,0:0:0:50:Tom2.wav
192,192,74801,1,0,0:0:0:0:
64,192,74951,1,2,0:0:0:0:
320,192,74951,1,4,0:0:0:0:
448,192,74951,128,0,75251:0:0:0:0:
64,192,75251,1,8,0:0:0:0:
192,192,75251,1,0,0:0:0:0:
192,192,75401,1,2,0:0:0:0:
320,192,75401,128,4,75701:0:0:0:0:
448,192,75401,1,0,0:0:0:0:
64,192,75701,1,8,0:0:0:0:
448,192,75701,1,0,0:0:0:0:
64,192,75851,1,2,0:0:0:0:
192,192,75851,128,4,76151:0:0:0:0:
320,192,75851,1,0,0:0:0:0:
320,192,76151,1,8,0:0:0:0:
448,192,76151,1,0,0:0:0:0:
64,192,76301,128,2,76601:0:0:0:0:
192,192,76301,1,4,0:0:0:0:
448,192,76301,1,0,0:0:0:0:
320,192,76601,1,2,0:0:0:0:
448,192,76601,1,0,0:0:0:0:
64,192,76751,1,2,0:0:0:0:
192,192,76751,128,0,77051:0:0:0:0:
64,192,77051,1,8,0:0:0:0:
320,192,77051,1,0,0:0:0:0:
448,192,77051,128,0,77201:0:0:0:0:
192,192,77201,128,0,77351:0:0:0:0:
64,192,77351,1,0,0:0:0:0:
320,192,77351,128,0,77576:0:0:0:0:
64,192,77651,1,0,0:0:0:0:
320,192,77651,128,0,77951:0:0:0:0:
448,192,77801,1,0,0:0:0:0:
64,192,77951,128,0,78101:0:0:0:0:
192,192,78101,128,0,78251:0:0:0:0:
320,192,78251,128,0,78401:0:0:0:0:
448,192,78251,1,0,0:0:0:0:
64,192,78401,1,0,0:0:0:0:
192,192,78401,128,0,78551:0:0:0:0:
320,192,78551,1,0,0:0:0:0:
448,192,78551,128,0,78701:0:0:0:0:
64,192,78701,128,0,78851:0:0:0:0:
192,192,78701,1,0,0:0:0:0:
320,192,78851,128,0,79001:0:0:0:0:
64,192,79001,1,0,0:0:0:0:
192,192,79001,128,0,79151:0:0:0:0:
320,192,79151,1,0,0:0:0:0:
448,192,79151,128,0,79301:0:0:0:0:
64,192,79301,128,0,79451:0:0:0:0:
320,192,79451,128,0,79601:0:0:0:0:
64,192,79601,128,4,79901:0:0:0:0:
192,192,79601,128,0,79901:0:0:0:0:
320,192,79901,128,0,80051:0:0:0:0:
64,192,80051,128,0,80201:0:0:0:0:
192,192,80201,1,0,0:0:0:0:
448,192,80201,128,0,80501:0:0:0:0:
64,192,80501,128,0,80576:0:0:0:0:
64,192,80651,128,0,80801:0:0:0:0:
320,192,80651,1,0,0:0:0:0:
448,192,80801,128,0,80951:0:0:0:0:
320,192,80876,1,0,0:0:0:0:
192,192,80951,128,0,81101:0:0:0:0:
64,192,81101,128,0,81251:0:0:0:0:
448,192,81101,1,0,0:0:0:0:
320,192,81251,128,0,81551:0:0:0:0:
192,192,81551,1,0,0:0:0:0:
448,192,81551,128,0,81851:0:0:0:0:
64,192,81851,1,0,0:0:0:0:
192,192,81851,128,0,82001:0:0:0:0:
320,192,82001,128,0,82151:0:0:0:0:
448,192,82001,1,0,0:0:0:0:
64,192,82151,128,0,82451:0:0:0:0:
192,192,82151,1,0,0:0:0:0:
320,192,82451,128,0,82751:0:0:0:0:
448,192,82451,1,0,0:0:0:0:
64,192,82601,1,0,0:0:0:0:
448,192,82601,1,0,0:0:0:0:
192,192,82751,128,0,83051:0:0:0:0:
448,192,83051,128,0,83201:0:0:0:0:
64,192,83201,128,0,83351:0:0:0:0:
320,192,83351,128,0,83651:0:0:0:0:
64,192,83501,1,0,0:0:0:0:
448,192,83501,1,0,0:0:0:0:
192,192,83651,128,0,83801:0:0:0:0:
64,192,83801,128,0,83951:0:0:0:0:
448,192,83951,128,0,84101:0:0:0:0:
320,192,84101,128,0,84551:0:0:0:0:
64,192,84251,1,0,0:0:0:0:
192,192,84251,1,0,0:0:0:0:
64,192,84551,128,4,86951:0:0:0:0:
448,192,84551,128,0,86951:0:0:0:0:
