osu file format v14

[General]
AudioFilename: audio.mp3
AudioLeadIn: 2000
PreviewTime: 57728
Countdown: 0
SampleSet: None
StackLeniency: 0.4
Mode: 0
LetterboxInBreaks: 0
EpilepsyWarning: 1
WidescreenStoryboard: 1

[Editor]
DistanceSpacing: 1.5
BeatDivisor: 4
GridSize: 4
TimelineZoom: 2.3

[Metadata]
Title:V (TV Size)
TitleUnicode:V (TV Size)
Artist:Yusuke
ArtistUnicode:遊助
Creator:DivineEnigma
Version:Expert
Source:ポケットモンスター XY
Tags:volt (ボルト) v / jikyuu 850 yen no santa claus pokemon xy o-moei dj_lucky hailie syraxaxojaxco hazu- cookiebite
BeatmapID:1664367
BeatmapSetID:470384

[Difficulty]
HPDrainRate:7.6
CircleSize:3.7
OverallDifficulty:7.7
ApproachRate:9.2
SliderMultiplier:1.92
SliderTickRate:2

[Events]
//Background and Video events
0,0,"bg.jpg",0,0
//Break Periods
//Storyboard Layer 0 (Background)
//Storyboard Layer 1 (Fail)
//Storyboard Layer 2 (Pass)
//Storyboard Layer 3 (Foreground)
//Storyboard Sound Samples

[TimingPoints]
503,300,4,3,0,75,1,0
503,-133.333333333333,4,3,0,75,0,0
4703,-142.857142857143,4,3,71,75,0,0
4928,-142.857142857143,4,3,0,5,0,0
5003,-166.666666666667,4,3,0,40,0,0
5228,-166.666666666667,4,3,0,5,0,0
5303,-100,4,3,17,75,0,0
7628,-100,4,3,0,5,0,0
7703,-100,4,3,17,75,0,0
9803,-100,4,3,0,55,0,0
9878,-100,4,3,0,60,0,0
9953,-100,4,3,0,65,0,0
10028,-100,4,3,0,70,0,0
10103,-133.333333333333,4,3,80,75,0,0
17153,-100,4,3,0,65,0,0
19553,-133.333333333333,4,3,17,75,0,0
19703,-133.333333333333,4,3,0,75,0,0
19721,-133.333333333333,4,3,17,75,0,0
24653,-133.333333333333,4,3,0,75,0,0
24671,-133.333333333333,4,3,17,75,0,0
24953,-133.333333333333,4,3,0,75,0,0
24971,-133.333333333333,4,3,17,75,0,0
29303,-133.333333333333,4,3,0,75,0,0
29321,-133.333333333333,4,3,17,75,0,0
38603,-133.333333333333,4,3,0,75,0,0
38828,-99.9999999999999,4,3,0,5,0,0
38903,-133.333333333333,4,3,17,75,0,0
39053,-133.333333333333,4,3,0,75,0,0
39071,-133.333333333333,4,3,17,75,0,0
41453,-133.333333333333,4,3,0,75,0,0
41471,-133.333333333333,4,3,17,75,0,0
42653,-133.333333333333,4,3,0,75,0,0
42671,-133.333333333333,4,3,17,75,0,0
43853,-133.333333333333,4,3,0,75,0,0
43871,-133.333333333333,4,3,17,75,0,0
46253,-133.333333333333,4,3,0,75,0,0
46271,-133.333333333333,4,3,17,75,0,0
47453,-133.333333333333,4,3,0,75,0,0
47471,-133.333333333333,4,3,0,75,0,0
57353,-133.333333333333,4,3,0,5,0,0
57503,-133.333333333333,4,3,0,75,0,0
58103,-100,4,3,17,100,0,1
58253,-100,4,3,0,100,0,1
58271,-100,4,3,17,100,0,1
59453,-100,4,3,0,100,0,1
59471,-100,4,3,17,100,0,1
61853,-100,4,3,0,100,0,1
61871,-100,4,3,17,100,0,1
65453,-100,4,3,0,100,0,1
65471,-100,4,3,17,100,0,1
67403,-100,4,3,0,100,0,0
67703,-100,4,3,17,100,0,1
67853,-100,4,3,0,100,0,1
67871,-100,4,3,17,100,0,1
69053,-100,4,3,0,100,0,1
69071,-100,4,3,17,100,0,1
71453,-100,4,3,0,100,0,1
71471,-100,4,3,17,100,0,1
72653,-100,4,3,0,100,0,1
72671,-100,4,3,17,100,0,1
74903,-100,4,3,0,100,0,1
77003,-133.333333333333,4,3,0,100,0,1
77228,-133.333333333333,4,3,0,5,0,1
77303,-111.111111111111,4,2,0,75,0,0
88103,-100,4,2,0,5,0,0

[Colours]
Combo1 : 192,192,192
Combo2 : 255,45,45
Combo3 : 255,157,157
Combo4 : 94,94,255
Combo5 : 183,183,255
Combo6 : 247,202,136
SliderTrackOverride : 20,20,20

[HitObjects]
108,284,503,6,0,B|188:268|160:332|244:316,1,144.000005493164,4|2,0:0|0:0,0:0:0:0:
300,152,953,2,0,P|234:172|224:240,1,144.000005493164,8|0,0:0|1:0,0:0:0:0:
352,368,1403,2,0,L|368:224,1,144.000005493164,8|0,0:0|1:0,0:0:0:0:
207,95,1853,2,0,L|223:239,1,144.000005493164,4|2,0:0|1:3,0:0:0:0:
380,140,2303,5,4,0:0:0:0:
380,124,2603,1,2,0:0:0:0:
380,108,2903,6,0,P|432:64|504:76,1,144.000005493164,4|2,0:0|0:0,0:0:0:0:
380,224,3353,2,0,P|312:218|269:158,1,144.000005493164,8|0,0:0|1:0,0:0:0:0:
468,172,3803,2,0,L|456:316,1,144.000005493164,8|0,0:0|1:0,0:0:0:0:
281,303,4253,2,0,L|269:159,1,144.000005493164,4|2,0:0|1:3,0:0:0:0:
116,40,4703,6,0,P|148:56|176:112,1,100.799996923828,2|0,0:0|0:0,0:0:0:0:
88,156,5003,2,0,L|91:127,3,28.7999991210938,4|0|0|0,0:0|0:0|0:0|0:0,0:0:0:0:
172,200,5303,5,4,0:2:0:0:
96,308,5453,2,0,L|0:316,1,96,0|0,0:0|1:0,0:0:0:0:
172,200,5753,2,0,L|184:304,1,96,0|4,0:0|0:0,0:0:0:0:
248,128,6053,1,4,0:0:0:0:
92,232,6203,1,0,1:0:0:0:
288,212,6353,6,0,P|328:172|336:132,1,96,0|4,0:0|0:0,0:0:0:0:
96,84,6653,1,0,0:0:0:0:
172,200,6803,1,0,1:0:0:0:
68,352,6953,2,0,L|56:252,1,96,0|4,0:0|0:0,0:0:0:0:
96,84,7253,1,4,0:0:0:0:
172,200,7403,2,0,L|316:172,1,144,0|0,1:0|0:0,0:0:0:0:
364,164,7703,5,4,0:0:0:0:
272,332,7853,2,0,L|256:236,1,96,0|0,0:0|1:0,0:0:0:0:
288,40,8153,1,0,0:0:0:0:
380,208,8303,1,4,0:0:0:0:
208,112,8453,1,4,0:0:0:0:
380,208,8603,1,0,1:0:0:0:
472,32,8753,6,0,P|420:60|392:88,1,96,0|4,0:0|0:0,0:0:0:0:
384,292,9053,1,0,0:0:0:0:
496,148,9203,1,0,1:0:0:0:
313,172,9353,2,0,P|261:164|220:148,1,96,4|0,0:0|1:0,0:0:0:0:
128,100,9653,1,4,0:0:0:0:
176,376,9803,1,0,1:0:0:0:
170,342,9878,1,0,1:0:0:0:
164,309,9953,1,0,1:0:0:0:
159,276,10028,1,0,1:0:0:0:
153,243,10103,6,0,L|8:260,1,144.000005493164,8|8,0:0|0:0,0:0:0:0:
88,352,10553,1,0,0:0:0:0:
116,172,10703,2,0,L|44:180,1,72.0000027465821,8|0,0:0|0:0,0:0:0:0:
153,243,11003,2,0,L|225:251,1,72.0000027465821,8|0,0:0|0:0,0:0:0:0:
236,88,11303,6,0,B|208:112|208:112|200:148,1,72.0000027465821,8|0,0:0|0:0,0:0:0:0:
304,296,11603,2,0,B|316:261|316:261|305:226,1,72.0000027465821,8|0,0:0|0:0,0:0:0:0:
236,88,11903,1,8,0:0:0:0:
224,250,12053,1,0,0:0:0:0:
320,136,12203,1,8,0:0:0:0:
447,288,12353,6,0,L|299:296,1,144.000005493164,4|0,0:2|0:0,0:0:0:0:
200,146,12803,1,8,0:0:0:0:
152,253,12953,2,0,L|224:249,1,72.0000027465821,0|8,0:0|0:0,0:0:0:0:
116,148,13253,1,0,0:0:0:0:
60,324,13403,1,8,0:0:0:0:
24,228,13553,1,0,0:0:0:0:
148,352,13703,6,0,L|220:348,1,72.0000027465821,8|0,0:0|0:0,0:0:0:0:
375,299,14003,2,0,L|303:295,1,72.0000027465821,8|0,0:0|0:0,0:0:0:0:
168,128,14303,1,8,0:0:0:0:
224,268,14453,1,2,0:0:0:0:
304,192,14603,2,0,L|308:120,1,72.0000027465821,4|4,0:0|0:0,0:0:0:0:
80,112,14903,6,0,P|84:160|156:216,1,144.000005493164,8|8,0:0|0:0,0:0:0:0:
168,128,15353,1,0,0:0:0:0:
88,276,15503,2,0,L|16:268,1,72.0000027465821,8|0,0:0|0:0,0:0:0:0:
180,288,15803,1,8,0:0:0:0:
120,384,15953,1,0,0:0:0:0:
272,284,16103,6,0,B|348:276|324:332|408:316,1,144.000005493164,8|8,0:0|0:0,0:0:0:0:
304,132,16553,1,0,0:0:0:0:
384,240,16703,1,2,1:3:0:0:
432,68,16853,1,2,1:3:0:0:
384,240,17003,1,2,1:3:0:0:
336,28,17153,6,0,L|144:48,1,192,4|8,1:0|0:0,0:0:0:0:
80,280,17603,1,4,0:0:0:0:
264,160,17753,1,4,0:0:0:0:
48,164,17903,1,2,1:3:0:0:
48,164,18353,6,0,L|100:352,1,192,4|8,1:0|0:0,0:0:0:0:
296,152,18803,1,4,0:0:0:0:
184,336,18953,1,4,0:0:0:0:
180,128,19103,1,2,1:3:0:0:
276,368,19253,1,2,1:3:0:0:
276,368,19553,6,0,P|352:356|380:300,1,144.000005493164,4|4,0:2|0:0,0:0:0:0:
272,172,20003,2,0,P|236:184|212:208,1,72.0000027465821,0|0,1:0|0:0,0:0:0:0:
364,164,20303,1,4,0:0:0:0:
216,88,20453,1,4,0:0:0:0:
292,272,20603,1,0,1:0:0:0:
448,152,20753,6,0,P|416:88|344:76,1,144.000005493164,0|0,0:0|0:0,0:0:0:0:
200,175,21203,2,0,L|272:171,1,72.0000027465821,0|0,1:0|0:0,0:0:0:0:
396,260,21503,2,0,L|324:256,1,72.0000027465821,4|4,0:0|0:0,0:0:0:0:
160,280,21803,1,0,1:0:0:0:
252,348,21953,1,0,0:0:0:0:
84,352,22103,6,0,L|76:280,1,72.0000027465821,4|0,0:0|0:0,0:0:0:0:
200,175,22403,2,0,L|192:247,1,72.0000027465821,0|0,1:0|0:0,0:0:0:0:
376,200,22703,1,4,0:0:0:0:
284,360,22853,1,4,0:0:0:0:
272,244,23003,1,0,1:0:0:0:
496,276,23153,6,0,B|420:264|448:320|360:308,1,144.000005493164
272,244,23603,1,0,1:0:0:0:
368,128,23753,2,0,L|376:204,1,72.0000027465821,0|4,0:0|0:0,0:0:0:0:
280,328,24053,1,4,0:0:0:0:
192,246,24203,2,0,L|199:174,1,72.0000027465821,0|0,1:0|0:0,0:0:0:0:
336,44,24503,6,0,P|416:52|456:100,2,144.000005493164,4|0|4,0:0|1:0|0:0,0:0:0:0:
280,232,25253,1,4,0:0:0:0:
368,128,25403,1,0,1:0:0:0:
198,174,25553,6,0,L|194:102,1,72.0000027465821,0|0,0:0|0:0,0:0:0:0:
356,208,25853,1,0,0:0:0:0:
152,252,26003,2,0,P|120:220|112:196,1,72.0000027465821,0|0,1:0|0:0,0:0:0:0:
356,208,26303,2,0,L|336:356,1,144.000005493164,4|0,0:0|1:0,0:0:0:0:
248,255,26753,1,0,0:0:0:0:
412,368,26903,6,0,L|424:296,1,72.0000027465821,4|0,0:0|0:0,0:0:0:0:
248,255,27203,2,0,L|260:327,1,72.0000027465821,0|0,1:0|0:0,0:0:0:0:
356,208,27503,2,0,L|375:65,1,144.000005493164,4|0,0:0|1:0,0:0:0:0:
464,160,27953,1,0,0:0:0:0:
276,108,28103,6,0,P|244:88|228:56,1,72.0000027465821,4|0,0:0|0:0,0:0:0:0:
168,212,28403,2,0,P|188:180|189:144,1,72.0000027465821,0|0,1:0|0:0,0:0:0:0:
40,284,28703,1,4,0:0:0:0:
76,144,28853,1,2,1:3:0:0:
120,324,29003,1,2,1:3:0:0:
284,188,29153,6,0,P|304:248|248:308,1,144.000005493164,4|0,0:2|0:0,0:0:0:0:
168,212,29603,2,0,L|176:140,1,72.0000027465821,0|0,1:0|0:0,0:0:0:0:
376,68,29903,1,4,0:0:0:0:
284,188,30053,1,4,0:0:0:0:
288,20,30203,1,0,1:0:0:0:
508,104,30353,6,0,B|428:104|456:156|372:156,1,144.000005493164,0|0,0:0|0:0,0:0:0:0:
240,243,30803,2,0,P|256:212|283:188,1,72.0000027465821,0|0,1:0|0:0,0:0:0:0:
280,314,31103,2,0,P|306:337|323:369,1,72.0000027465821,4|4,0:0|0:0,0:0:0:0:
192,310,31403,2,0,P|156:311|121:301,1,72.0000027465821,0|0,1:0|0:0,0:0:0:0:
88,128,31703,5,4,0:0:0:0:
208,144,31853,1,0,0:0:0:0:
24,188,32003,2,0,P|4:152|0:120,1,72.0000027465821,0|0,1:0|0:0,0:0:0:0:
160,56,32303,1,4,0:0:0:0:
132,224,32453,1,4,0:0:0:0:
88,128,32603,1,0,1:0:0:0:
228,240,32753,6,0,L|372:232,1,144.000005493164
292,324,33203,1,0,1:0:0:0:
288,160,33353,2,0,L|288:80,1,72.0000027465821,0|4,0:0|0:0,0:0:0:0:
288,236,33653,1,4,0:0:0:0:
204,140,33803,1,0,1:0:0:0:
372,140,33953,1,0,0:0:0:0:
192,240,34103,5,4,0:0:0:0:
112,140,34253,2,0,L|112:64,1,72.0000027465821,0|0,0:0|1:0,0:0:0:0:
192,240,34553,1,0,0:0:0:0:
96,348,34703,2,0,P|56:328|36:304,1,72.0000027465821,4|4,0:0|0:0,0:0:0:0:
192,240,35003,1,0,1:0:0:0:
296,344,35153,6,0,B|396:360|396:360|424:324,1,144.000005493164,0|0,0:0|0:0,0:0:0:0:
192,240,35603,2,0,B|192:276|192:276|204:312,1,72.0000027465821,0|0,1:0|0:0,0:0:0:0:
288,160,35903,1,4,0:0:0:0:
296,344,36053,1,0,1:0:0:0:
368,208,36203,1,4,0:0:0:0:
192,240,36353,1,4,0:0:0:0:
368,120,36503,6,0,P|408:128|432:148,1,72.0000027465821,2|2,0:0|0:0,0:0:0:0:
336,24,36803,1,0,0:0:0:0:
112,104,36953,6,0,P|92:68|92:36,1,72.0000027465821,2|2,0:0|0:0,0:0:0:0:
216,132,37253,1,0,0:0:0:0:
88,320,37403,6,0,P|46:319|19:303,1,72.0000027465821,2|2,0:0|0:0,0:3:0:0:
164,243,37703,1,0,0:0:0:0:
324,360,37853,5,2,0:0:0:0:
148,224,38003,1,2,0:0:0:0:
340,376,38303,1,2,0:0:0:0:
364,368,38603,6,0,L|384:260,1,108.000004119873,4|0,0:1|0:0,0:0:0:0:
444,208,38903,6,0,L|296:220,1,144.000005493164,4|0,0:0|1:0,0:0:0:0:
164,136,39353,1,4,0:0:0:0:
236,76,39503,2,0,P|252:112|256:144,1,72.0000027465821,0|4,0:0|0:0,0:0:0:0:
184,276,39803,2,0,P|188:240|203:207,1,72.0000027465821,0|0,1:0|0:0,0:0:0:0:
276,344,40103,6,0,L|200:360,1,72.0000027465821,4|0,0:0|0:0,0:0:0:0:
72,203,40403,1,0,1:0:0:0:
28,288,40553,2,0,L|100:292,1,72.0000027465821,4|0,0:0|0:0,0:0:0:0:
104,116,40853,2,0,L|32:120,1,72.0000027465821,4|0,0:0|1:0,0:0:0:0:
156,204,41153,1,0,0:0:0:0:
156,48,41303,6,0,B|208:48|208:48|240:72|240:72|292:72,1,144.000005493164,4|0,0:0|1:0,0:0:0:0:
440,56,41753,2,0,L|364:44,1,72.0000027465821,4|0,0:0|0:0,0:0:0:0:
228,168,42053,2,0,L|304:156,1,72.0000027465821,4|0,0:0|1:0,0:0:0:0:
420,136,42353,1,0,0:0:0:0:
468,284,42503,6,0,B|396:272|416:331|328:316,1,144.000005493164,4|0,0:0|1:0,0:0:0:0:
176,224,42953,1,0,1:0:0:0:
252,372,43103,1,0,0:0:0:0:
324,224,43253,1,4,0:0:0:0:
160,380,43403,2,0,L|160:308,1,72.0000027465821,0|0,1:0|0:0,0:0:0:0:
40,188,43703,6,0,L|112:172,1,72.0000027465821,4|0,0:0|0:0,0:0:0:0:
280,112,44003,1,0,1:0:0:0:
196,68,44153,2,0,L|188:140,1,72.0000027465821,4|0,0:0|0:0,0:0:0:0:
368,140,44453,2,0,L|360:68,1,72.0000027465821,4|0,0:0|1:0,0:0:0:0:
276,192,44753,1,0,0:0:0:0:
452,168,44903,6,0,L|432:16,1,144.000005493164,4|0,0:0|1:0,0:0:0:0:
280,112,45353,2,0,L|352:116,1,72.0000027465821,4|0,0:0|0:0,0:0:0:0:
416,244,45653,2,0,L|344:248,1,72.0000027465821,4|0,0:0|1:0,0:0:0:0:
220,256,45953,1,0,0:0:0:0:
100,356,46103,6,0,P|180:376|224:324,1,144.000005493164,4|0,0:0|1:0,0:0:0:0:
84,200,46553,2,0,L|80:272,1,72.0000027465821,4|0,0:0|0:0,0:0:0:0:
216,184,46853,2,0,L|220:256,1,72.0000027465821,4|0,0:0|1:0,0:0:0:0:
168,108,47153,1,0,0:0:0:0:
324,192,47303,6,0,P|364:176|388:152,1,72.0000027465821,4|0,0:0|0:0,0:0:0:0:
168,108,47603,5,0,1:0:0:0:
216,296,47753,1,0,1:0:0:0:
244,64,47903,5,0,1:0:0:0:
124,184,48053,1,4,0:0:0:0:
296,272,48203,1,4,0:0:0:0:
140,320,48353,1,4,0:0:0:0:
359,331,48503,6,0,L|323:191,1,144.000005493164,4|0,0:2|0:0,0:0:0:0:
284,32,48953,1,4,0:0:0:0:
264,120,49103,2,0,P|304:120|336:104,1,72.0000027465821,0|0,1:0|0:0,0:0:0:0:
196,44,49403,2,0,P|160:48|130:66,1,72.0000027465821,0|4,0:0|0:0,0:0:0:0:
184,208,49703,6,0,L|188:136,1,72.0000027465821,0|0,0:0|1:0,0:0:0:0:
296,272,50003,2,0,L|292:200,1,72.0000027465821,4|0,0:0|0:0,0:0:0:0:
147,275,50303,2,0,P|119:254|108:220,1,72.0000027465821,0|0,1:0|0:0,0:0:0:0:
332,340,50603,2,0,P|364:312|372:280,1,72.0000027465821,0|0,0:0|1:0,0:0:0:0:
216,312,50903,6,0,L|228:384,1,72.0000027465821,4|0,0:2|0:0,0:0:0:0:
307,200,51203,2,0,L|295:272,1,72.0000027465821,0|4,0:0|0:0,0:0:0:0:
152,140,51503,2,0,P|181:162|198:195,1,72.0000027465821,0|0,1:0|0:0,0:0:0:0:
320,32,51803,2,0,P|284:34|252:51,1,72.0000027465821,0|4,0:0|0:0,0:0:0:0:
416,184,52103,5,0,0:0:0:0:
332,144,52253,2,0,L|188:196,1,144.000005493164,0|0,1:0|0:0,0:0:0:0:
332,348,52703,2,0,L|196:299,1,144.000005493164,0|0,1:0|0:0,0:0:0:0:
24,232,53153,1,0,1:0:0:0:
112,280,53303,6,0,L|112:208,1,72.0000027465821,4|0,0:2|0:0,0:0:0:0:
24,76,53603,2,0,L|24:148,1,72.0000027465821,0|4,0:0|0:0,0:0:0:0:
104,36,53903,2,0,B|156:36|156:36|188:60|188:60|240:60,1,144.000005493164,0|0,1:0|0:0,0:0:0:0:
356,60,54353,1,4,0:0:0:0:
296,232,54503,5,0,0:0:0:0:
304,136,54653,2,0,P|236:156|200:220,1,144.000005493164,0|0,1:0|0:0,0:0:0:0:
332,348,55103,1,0,1:0:0:0:
296,232,55253,1,0,1:0:0:0:
176,328,55403,2,0,L|252:316,1,72.0000027465821,4|4,0:0|0:0,0:0:0:0:
500,192,55703,6,0,B|424:204|468:252|380:264,1,144.000005493164,4|2,1:0|0:0,0:0:0:0:
267,118,56153,2,0,P|336:117|372:176,1,144.000005493164,4|2,1:0|0:0,0:0:0:0:
223,359,56603,6,0,L|207:215,1,144.000005493164,4|2,1:0|0:0,0:0:0:0:
408,90,57053,2,0,L|264:118,1,144.000005493164,4|0,1:0|0:0,0:0:0:0:
112,280,57503,1,0,1:0:0:0:
112,280,57803,5,0,0:0:0:0:
76,180,57953,1,0,0:0:0:0:
230,25,58103,6,0,L|206:217,1,192,4|0,0:2|1:0,0:0:0:0:
132,88,58553,1,0,0:0:0:0:
292,224,58703,2,0,L|388:208,1,96,4|4,0:0|0:0,0:0:0:0:
256,128,59003,1,0,1:0:0:0:
352,304,59153,1,0,0:0:0:0:
448,120,59303,6,0,P|368:96|264:68,1,192,4|0,0:0|1:0,0:0:0:0:
120,108,59753,1,0,0:0:0:0:
232,280,59903,2,0,L|248:184,1,96,4|4,0:0|0:0,0:0:0:0:
152,336,60203,1,0,1:0:0:0:
328,248,60353,1,0,0:0:0:0:
120,108,60503,6,0,L|144:200,1,96,4|0,0:0|0:0,0:0:0:0:
328,247,60803,2,0,L|352:155,1,96,0|0,1:0|0:0,0:0:0:0:
56,208,61103,2,0,L|80:300,1,96,4|4,0:0|0:0,0:0:0:0:
248,184,61403,2,0,L|272:92,1,96,0|0,1:0|0:0,0:0:0:0:
44,96,61703,6,0,P|80:40|188:72,1,192,4|0,0:0|1:0,0:0:0:0:
164,280,62153,1,0,1:0:0:0:
272,91,62303,1,0,0:0:0:0:
56,184,62453,1,4,0:0:0:0:
236,356,62603,2,0,L|248:260,1,96,0|0,1:0|0:0,0:0:0:0:
280,56,62903,5,4,0:0:0:0:
144,200,63053,1,0,0:0:0:0:
344,152,63203,1,0,1:0:0:0:
176,8,63353,2,0,P|186:55|196:104,1,96,0|4,0:0|0:0,0:0:0:0:
236,356,63653,1,4,0:0:0:0:
160,256,63803,2,0,L|256:244,1,96,0|0,1:0|0:0,0:0:0:0:
464,168,64103,5,4,0:0:0:0:
344,328,64253,1,0,0:0:0:0:
364,136,64403,1,0,1:0:0:0:
480,348,64553,2,0,P|464:292|448:256,1,96,0|4,0:0|0:0,0:0:0:0:
260,152,64853,1,4,0:0:0:0:
340,46,65003,2,0,B|364:88|364:88|364:142,1,96,0|0,1:0|0:0,0:0:0:0:
128,56,65303,6,0,L|224:32,1,96,4|0,0:0|0:0,0:0:0:0:
20,164,65603,5,0,1:0:0:0:
148,332,65753,1,4,0:0:0:0:
128,96,65903,5,0,1:0:0:0:
64,368,66053,1,4,0:0:0:0:
212,180,66203,5,0,1:0:0:0:
0,284,66353,1,4,0:0:0:0:
212,96,66503,5,0,1:0:0:0:
108,232,66653,1,4,0:0:0:0:
296,224,66803,1,0,1:0:0:0:
128,144,66953,1,4,0:0:0:0:
256,336,67103,5,0,1:0:0:0:
304,100,67253,1,0,1:0:0:0:
200,272,67403,5,4,0:0:0:0:
376,188,67553,1,4,0:0:0:0:
212,56,67703,6,0,P|208:140|288:204,1,192,4|0,0:2|1:0,0:0:0:0:
304,100,68153,1,0,0:0:0:0:
147,237,68303,2,0,L|127:141,1,96,4|4,0:0|0:0,0:0:0:0:
172,352,68603,1,0,1:0:0:0:
36,284,68753,1,0,0:0:0:0:
286,203,68903,6,0,P|330:235|350:271,1,96,4|0,0:0|0:0,0:0:0:0:
384,128,69203,1,0,1:0:0:0:
260,300,69353,1,0,0:0:0:0:
264,112,69503,2,0,L|264:16,1,96,4|4,0:0|0:0,0:0:0:0:
212,172,69803,1,0,1:0:0:0:
352,80,69953,1,0,0:0:0:0:
104,72,70103,6,0,P|140:36|188:31,1,96,4|0,0:0|0:0,0:0:0:0:
52,148,70403,2,0,P|16:112|11:63,1,96,0|0,1:0|0:0,0:0:0:0:
128,200,70703,2,0,P|92:236|43:240,1,96,4|4,0:0|0:0,0:0:0:0:
180,124,71003,2,0,P|216:160|220:208,1,96,0|0,1:0|0:0,0:0:0:0:
4,332,71303,6,0,L|200:308,1,192,4|0,0:0|1:0,0:0:0:0:
392,256,71753,1,0,1:0:0:0:
272,224,71903,2,0,P|268:280|284:316,1,96,0|4,0:0|0:0,0:0:0:0:
348,160,72203,2,0,P|356:104|344:67,1,96,0|0,1:0|0:0,0:0:0:0:
84,136,72503,6,0,B|132:100|132:100|264:116,1,192,4|0,0:0|1:0,0:0:0:0:
140,308,72953,1,0,0:0:0:0:
48,224,73103,2,0,L|144:208,1,96,4|4,0:0|0:0,0:0:0:0:
316,336,73403,2,0,L|220:320,1,96,0|0,1:0|0:0,0:0:0:0:
408,136,73703,5,4,0:0:0:0:
316,336,73853,1,0,1:0:0:0:
244,72,74003,5,0,1:0:0:0:
376,260,74153,1,0,1:0:0:0:
96,204,74303,5,8,0:0:0:0:
316,128,74453,1,8,0:0:0:0:
212,344,74603,5,4,0:0:0:0:
160,80,74753,1,4,0:0:0:0:
460,272,74903,6,0,P|384:262|270:242,1,192,4|2,1:1|0:0,0:0:0:0:
24,100,75353,2,0,P|99:90|213:70,1,192,4|2,1:1|0:0,0:0:0:0:
112,360,75803,6,0,P|94:265|82:170,1,192,4|2,1:1|0:0,0:0:0:0:
376,28,76253,2,0,P|363:123|346:217,1,192,4|4,1:1|0:0,0:0:0:0:
213,69,76703,1,4,0:0:0:0:
240,336,77003,6,0,P|295:331|347:318,1,108.000004119873,2|0,0:0|0:0,0:0:0:0:
346,318,77303,6,0,P|261:335|172:336,1,172.799994726563
64,240,77753,1,0,0:0:0:0:
160,144,77903,2,0,L|172:232,1,86.3999973632813,0|0,0:0|0:0,0:0:0:0:
320,108,78203,1,0,0:0:0:0:
280,232,78353,1,0,0:0:0:0:
408,100,78503,6,0,P|392:60|360:28,1,86.3999973632813
204,76,78803,2,0,P|245:65|288:71,1,86.3999973632813
392,244,79103,1,0,0:0:0:0:
252,160,79253,1,0,0:0:0:0:
408,100,79403,1,0,0:0:0:0:
288,264,79553,6,0,B|200:264|220:328|128:316,1,172.799994726563,4|0,0:2|0:0,0:0:0:0:
48,184,80003,1,0,0:0:0:0:
148,152,80153,2,0,P|156:196|144:236,1,86.3999973632813,0|0,0:0|0:0,0:0:0:0:
112,60,80453,1,0,0:0:0:0:
248,184,80603,2,0,P|292:184|336:188,1,86.3999973632813,0|0,0:0|0:0,0:0:0:0:
472,48,80903,6,0,P|428:48|384:52,1,86.3999973632813,0|0,0:0|0:0,0:0:0:0:
444,232,81203,2,0,P|444:188|440:144,1,86.3999973632813,0|0,0:0|0:0,0:0:0:0:
248,184,81503,2,0,P|292:184|336:188,1,86.3999973632813,0|0,0:0|0:0,0:0:0:0:
240,328,81803,1,0,0:0:0:0:
360,284,81953,1,0,0:0:0:0:
184,252,82103,6,0,P|140:268|116:380,1,172.799994726563,0|0,0:0|0:0,0:0:0:0:
240,328,82553,1,0,0:0:0:0:
248,184,82703,2,0,P|248:140|244:96,1,86.3999973632813,0|0,0:0|0:0,0:0:0:0:
184,252,83003,1,0,0:0:0:0:
334,187,83153,1,0,0:0:0:0:
152,152,83303,6,0,P|100:152|72:48,1,172.799994726563,0|0,0:0|0:0,0:0:0:0:
244,97,83753,2,0,P|248:183|245:269,1,172.799994726563,0|0,0:0|0:0,0:0:0:0:
152,152,84203,1,0,0:0:0:0:
432,352,84503,5,4,0:2:0:0:
256,192,84578,12,0,88103,0:0:0:0:
