osu file format v14

[General]
AudioFilename: audio.mp3
AudioLeadIn: 0
PreviewTime: 57718
Countdown: 1
SampleSet: Soft
StackLeniency: 0.4
Mode: 0
LetterboxInBreaks: 0
WidescreenStoryboard: 0

[Editor]
DistanceSpacing: 0.8
BeatDivisor: 8
GridSize: 4
TimelineZoom: 2.799999

[Metadata]
Title:V
TitleUnicode:V
Artist:Yusuke
ArtistUnicode:遊助
Creator:-Keitaro
Version:full ver looool
Source:ポケットモンスター XY
Tags:Kamiji 上地 Volt (ボルト) Bolt ボルト V / Jikyuu 850 yen no Santa Claus 時給850円のサンタクロース TV Size TVサイズ Pokémon the Series: XY Pokemon Pocket Monsters XY エックスワイ (エックスワイ) (ExWye) Nintendo GAME FREAK J-Pop Jpop ジェイポップ full version ver
BeatmapID:1988504
BeatmapSetID:952266

[Difficulty]
HPDrainRate:5.5
CircleSize:4
OverallDifficulty:9.4
ApproachRate:9.5
SliderMultiplier:2
SliderTickRate:1

[Events]
//Background and Video events
0,0,"BG.jpg",0,0
//Break Periods
//Storyboard Layer 0 (Background)
//Storyboard Layer 1 (Fail)
//Storyboard Layer 2 (Pass)
//Storyboard Layer 3 (Foreground)
//Storyboard Sound Samples

[TimingPoints]
480,300,4,2,0,100,1,0
480,-117.647058823529,4,2,0,100,0,0
5273,-100,4,2,0,100,0,0
7598,-100,4,2,0,5,0,0
7673,-100,4,2,0,100,0,0
10073,-133.333333333333,4,2,0,100,0,0
17123,-100,4,2,0,100,0,0
38573,-66.6666666666667,4,2,0,100,0,0
38798,-133.333333333333,4,2,0,5,0,0
38873,-100,4,2,0,100,0,0
41198,-133.333333333333,4,2,0,5,0,0
41273,-100,4,2,0,100,0,0
42398,-133.333333333333,4,2,0,5,0,0
42473,-100,4,2,0,100,0,0
43598,-133.333333333333,4,2,0,5,0,0
43673,-100,4,2,0,100,0,0
44798,-133.333333333333,4,2,0,5,0,0
44873,-100,4,2,0,100,0,0
45998,-133.333333333333,4,2,0,5,0,0
46073,-100,4,2,0,100,0,0
47198,-133.333333333333,4,2,0,5,0,0
47273,-100,4,2,0,100,0,0
48473,-133.333333333333,4,2,0,100,0,0
55673,-100,4,2,0,100,0,0
58073,-90.9090909090909,4,2,0,100,0,1
65273,-90.9090909090909,4,2,0,100,0,0
65573,-90.9090909090909,4,2,0,100,0,1
67373,-90.9090909090909,4,2,0,100,0,0
67673,-90.9090909090909,4,2,0,100,0,1
74873,-117.647058823529,4,2,0,100,0,0
127673,-117.647058823529,4,2,0,100,0,1
134873,-117.647058823529,4,2,0,100,0,0
135173,-117.647058823529,4,2,0,100,0,1
136973,-117.647058823529,4,2,0,100,0,0
137273,-117.647058823529,4,2,0,100,0,1
144473,-117.647058823529,4,2,0,100,0,0

[Colours]
Combo1 : 176,45,45
Combo2 : 26,165,1
Combo3 : 230,0,0
Combo4 : 54,141,41

[HitObjects]
121,75,480,6,0,P|82:157|140:244,1,170.000003242493
329,169,930,2,0,B|287:136|287:136|136:158,1,170.000003242493
202,319,1380,2,0,L|167:130,1,170.000003242493
345,0,1830,2,0,L|326:190,1,170.000003242493
310,329,2280,1,0,0:0:0:0:
479,318,2430,1,0,0:0:0:0:
310,329,2580,1,0,0:0:0:0:
479,318,2730,1,0,0:0:0:0:
244,232,2880,6,0,B|203:263|203:263|215:404,1,170.000003242493
448,168,3330,2,0,B|489:199|489:199|477:340,1,170.000003242493
247,62,3780,2,0,L|243:250,1,170.000003242493
440,0,4230,2,0,L|444:188,1,170.000003242493
338,25,4680,1,0,0:0:0:0:
342,296,4980,6,0,L|373:286,5,28.3333338737488
279,338,5280,6,0,L|153:329,1,100
347,157,5580,2,0,L|247:164,1,100
82,262,5880,1,0,0:0:0:0:
260,246,6030,1,0,0:0:0:0:
57,93,6180,2,0,P|47:157|61:209,1,100
263,343,6480,6,0,P|270:294|260:246,1,100
78,359,6780,2,0,P|71:309|81:261,1,100
176,74,7080,1,0,0:0:0:0:
172,308,7230,1,0,0:0:0:0:
366,140,7380,2,0,L|243:150,1,100
13,197,7680,6,0,B|96:202|96:202|112:226|112:226|212:229,1,200
176,74,8130,1,0,0:0:0:0:
292,244,8280,1,0,0:0:0:0:
277,18,8430,1,0,0:0:0:0:
100,235,8580,2,0,L|216:227,1,100
441,143,8880,6,0,P|384:136|329:163,1,100
193,384,9180,1,0,0:0:0:0:
273,99,9330,1,0,0:0:0:0:
425,345,9480,1,0,0:0:0:0:
345,60,9630,1,0,0:0:0:0:
232,319,9780,6,0,L|233:377,3,50
309,306,10080,6,0,L|313:395,1,75.0000028610231
428,270,10380,2,0,L|424:359,1,75.0000028610231
305,231,10680,2,0,L|309:320,1,75.0000028610231
431,195,10980,2,0,L|427:284,1,75.0000028610231
294,128,11280,5,0,0:0:0:0:
308,305,11580,1,0,0:0:0:0:
368,119,11880,2,0,L|276:130,1,75.0000028610231
197,144,12180,1,0,0:0:0:0:
303,274,12330,6,0,B|307:219|307:219|294:190|294:190|292:94,1,150.000005722046
189,69,12780,2,0,L|198:162,1,75.0000028610231
68,115,13080,2,0,L|59:208,1,75.0000028610231
196,143,13380,2,0,L|205:236,1,75.0000028610231
48,280,13680,5,0,0:0:0:0:
60,189,13830,1,0,0:0:0:0:
213,291,13980,2,0,L|201:206,1,75.0000028610231
141,336,14280,1,0,0:0:0:0:
302,302,14430,1,0,0:0:0:0:
302,302,14580,2,0,L|299:378,1,75.0000028610231
458,220,14880,6,0,P|463:269|458:304,1,75.0000028610231
304,227,15180,2,0,P|299:276|304:311,1,75.0000028610231
455,145,15480,2,0,P|460:194|455:229,1,75.0000028610231
306,152,15780,2,0,P|301:201|306:236,1,75.0000028610231
388,41,16080,5,0,0:0:0:0:
380,181,16230,1,0,0:0:0:0:
304,61,16380,1,0,0:0:0:0:
306,152,16530,1,0,0:0:0:0:
388,41,16680,5,0,0:0:0:0:
138,91,16830,1,0,0:0:0:0:
380,181,16980,1,0,0:0:0:0:
112,85,17130,6,0,L|134:312,1,200
306,152,17580,1,0,0:0:0:0:
231,352,17730,1,0,0:0:0:0:
237,9,17880,1,0,0:0:0:0:
237,9,18330,6,0,P|255:92|270:240,1,200
217,377,18780,1,0,0:0:0:0:
341,88,18930,1,0,0:0:0:0:
411,376,19080,1,0,0:0:0:0:
170,67,19230,1,0,0:0:0:0:
170,67,19530,6,0,B|289:64|225:156|358:133,1,200
444,74,19980,2,0,L|447:200,1,100
450,335,20280,1,0,0:0:0:0:
377,239,20430,1,0,0:0:0:0:
502,256,20580,1,0,0:0:0:0:
340,369,20730,6,0,B|293:341|293:341|122:358,1,200
27,254,21180,2,0,L|19:378,1,100
125,168,21480,1,0,0:0:0:0:
148,355,21630,1,0,0:0:0:0:
177,105,21780,2,0,P|123:89|67:113,1,100
281,223,22080,6,0,L|290:82,1,100
360,30,22380,1,0,0:0:0:0:
405,141,22530,1,0,0:0:0:0:
504,26,22680,1,0,0:0:0:0:
287,123,22830,1,0,0:0:0:0:
504,26,22980,1,0,0:0:0:0:
287,123,23130,6,0,B|180:148|180:148|96:73,1,200
21,28,23580,2,0,P|29:84|15:150,1,100
76,293,23880,1,0,0:0:0:0:
22,126,24030,1,0,0:0:0:0:
76,293,24180,2,0,L|200:266,1,100
400,346,24480,6,0,L|295:328,1,100
392,197,24780,2,0,L|497:179,1,100
301,329,25080,1,0,0:0:0:0:
211,192,25230,2,0,P|202:124|217:80,1,100
488,149,25530,6,0,B|413:153|413:153|382:138|382:138|268:143,1,200
185,18,25980,2,0,P|239:17|292:61,1,100
105,218,26280,1,0,0:0:0:0:
211,97,26430,1,0,0:0:0:0:
28,42,26580,2,0,L|40:162,1,100
69,333,26880,5,0,0:0:0:0:
174,172,27030,1,0,0:0:0:0:
218,346,27180,1,0,0:0:0:0:
105,218,27330,1,0,0:0:0:0:
144,372,27480,2,0,L|360:374,1,200
442,316,27930,1,0,0:0:0:0:
327,154,28080,5,0,0:0:0:0:
343,373,28230,1,0,0:0:0:0:
484,219,28380,1,0,0:0:0:0:
288,79,28530,2,0,P|250:124|257:196,1,100
432,384,28830,1,0,0:0:0:0:
420,37,28980,1,0,0:0:0:0:
180,257,29130,6,0,B|264:258|264:258|285:250|285:250|397:253,1,200
234,63,29580,2,0,L|248:183,1,100
420,37,29880,1,0,0:0:0:0:
378,252,30030,2,0,P|313:259|270:240,1,100
142,126,30330,6,0,L|137:336,1,200
281,247,30780,2,0,L|288:365,1,100
142,126,31080,1,0,0:0:0:0:
212,291,31230,1,0,0:0:0:0:
321,77,31380,2,0,L|198:81,1,100
21,234,31680,5,0,0:0:0:0:
64,60,31830,1,0,0:0:0:0:
156,272,31980,1,0,0:0:0:0:
142,126,32130,1,0,0:0:0:0:
62,355,32280,1,0,0:0:0:0:
91,197,32430,1,0,0:0:0:0:
205,350,32580,1,0,0:0:0:0:
338,121,32730,6,0,B|241:119|241:119|227:130|227:130|135:125,1,200
280,340,33180,1,0,0:0:0:0:
272,198,33330,1,0,0:0:0:0:
439,251,33480,1,0,0:0:0:0:
439,251,33630,1,0,0:0:0:0:
347,21,33780,2,0,L|337:129,1,100
323,311,34080,6,0,B|453:289|377:365|515:342,1,200
479,201,34530,1,0,0:0:0:0:
306,336,34680,2,0,L|289:212,1,100
390,85,34980,1,0,0:0:0:0:
430,307,35130,2,0,B|423:218|423:218|434:187|434:187|427:87,1,200
282,227,35580,1,0,0:0:0:0:
212,57,35730,1,0,0:0:0:0:
160,285,35880,5,0,0:0:0:0:
230,145,36030,1,0,0:0:0:0:
321,304,36180,1,0,0:0:0:0:
156,258,36330,1,0,0:0:0:0:
333,141,36480,5,0,0:0:0:0:
242,384,36630,2,0,L|232:266,1,100
56,114,36930,5,0,0:0:0:0:
147,357,37080,2,0,L|157:239,1,100
212,56,37380,5,0,0:0:0:0:
319,300,37530,2,0,L|303:188,1,100
132,120,37830,5,0,0:0:0:0:
25,364,37980,2,0,L|41:252,1,100
242,384,38280,2,0,L|232:266,1,100
139,73,38580,6,0,B|93:52|93:52|98:188|98:188|145:165,1,225.000008583069
210,126,38880,6,0,B|322:117|264:192|409:153,1,200
512,74,39330,2,0,B|462:53|462:53|478:231,1,200
358,359,39780,1,0,0:0:0:0:
474,324,39930,1,0,0:0:0:0:
298,228,40080,6,0,B|172:223|236:299|104:276,1,200
71,122,40530,2,0,P|132:96|143:199,1,200
31,354,40980,1,0,0:0:0:0:
54,217,41130,1,0,0:0:0:0:
227,354,41280,6,0,B|148:348|148:348|122:360|122:360|16:353,1,200
262,179,41730,2,0,P|268:203|261:287,1,100
145,195,42030,1,0,0:0:0:0:
275,82,42180,2,0,L|404:92,1,100
483,21,42480,6,0,B|447:121|447:121|496:235,1,200
364,370,42930,2,0,L|377:265,1,100
309,141,43230,1,0,0:0:0:0:
181,278,43380,2,0,P|237:303|302:280,1,100
139,24,43680,6,0,B|145:126|145:126|134:149|134:149|139:256,1,200
20,68,44130,1,0,0:0:0:0:
242,100,44280,1,0,0:0:0:0:
16,191,44430,1,0,0:0:0:0:
265,86,44580,2,0,L|270:215,1,100
397,353,44880,6,0,P|412:290|285:291,1,200
217,384,45330,1,0,0:0:0:0:
161,207,45480,1,0,0:0:0:0:
89,362,45630,1,0,0:0:0:0:
305,258,45780,2,0,P|302:192|287:148,1,100
164,11,46080,6,0,B|155:77|155:77|173:138|173:138|158:218,1,200
56,283,46530,1,0,0:0:0:0:
12,157,46680,2,0,P|59:139|93:186,1,100
239,323,46980,2,0,P|197:330|158:287,1,100
274,133,47280,5,0,0:0:0:0:
334,336,47430,1,0,0:0:0:0:
415,89,47580,1,0,0:0:0:0:
384,272,47730,1,0,0:0:0:0:
305,30,47880,5,0,0:0:0:0:
460,180,48030,1,0,0:0:0:0:
303,129,48180,1,0,0:0:0:0:
447,76,48330,1,0,0:0:0:0:
343,250,48480,6,0,B|246:237|294:296|184:289,1,150.000005722046
111,258,48930,1,0,0:0:0:0:
185,358,49080,2,0,P|193:286|180:187,1,150.000005722046
106,137,49530,1,0,0:0:0:0:
31,166,49680,6,0,P|29:228|37:265,1,75.0000028610231
185,134,49980,2,0,P|187:196|179:233,1,75.0000028610231
23,16,50280,2,0,L|31:184,1,150.000005722046
106,137,50730,1,0,0:0:0:0:
338,203,50880,6,0,B|270:199|270:199|251:209|251:209|185:205,1,150.000005722046
119,287,51330,1,0,0:0:0:0:
195,373,51480,2,0,L|203:282,1,75.0000028610231
344,277,51780,2,0,L|336:186,1,75.0000028610231
462,64,52080,6,0,P|462:156|428:234,1,150.000005722046
337,202,52530,1,0,0:0:0:0:
248,263,52680,2,0,L|248:343,1,75.0000028610231
163,222,52980,2,0,L|167:125,1,75.0000028610231
181,34,53280,6,0,P|128:76|27:62,1,150.000005722046
166,147,53730,1,0,0:0:0:0:
56,266,53880,2,0,L|55:172,1,75.0000028610231
277,229,54180,2,0,L|278:135,1,75.0000028610231
56,340,54480,6,0,L|55:246,1,75.0000028610231
166,147,54780,1,0,0:0:0:0:
194,338,54930,1,0,0:0:0:0:
351,222,55080,2,0,L|246:231,1,75.0000028610231
213,365,55380,2,0,L|317:360,1,75.0000028610231
394,299,55680,6,0,P|432:222|341:250,1,200
111,298,56130,2,0,B|182:290|182:290|221:308|221:308|309:298,1,200
255,53,56580,2,0,P|199:109|261:233,1,200
497,170,57030,2,0,B|467:126|467:126|275:146,1,200
126,62,57480,5,0,0:0:0:0:
126,62,57780,6,0,L|96:64,5,28.3333338737488
159,64,58080,6,0,L|162:179,1,110.000003356934
374,24,58380,2,0,L|371:139,1,110.000003356934
258,284,58680,1,0,0:0:0:0:
276,74,58830,1,0,0:0:0:0:
364,282,58980,2,0,P|298:294|249:279,1,110.000003356934
81,135,59280,6,0,B|78:225|78:225|92:258|92:258|84:365,1,220.000006713867
210,226,59730,1,0,0:0:0:0:
33,98,59880,2,0,L|27:233,1,110.000003356934
202,19,60180,1,0,0:0:0:0:
210,226,60330,1,0,0:0:0:0:
310,20,60480,6,0,P|242:11|176:29,1,110.000003356934
318,224,60780,2,0,P|250:233|184:215,1,110.000003356934
124,124,61080,1,0,0:0:0:0:
356,118,61230,1,0,0:0:0:0:
100,126,61380,2,0,L|104:246,1,110.000003356934
277,304,61680,6,0,B|156:300|210:390|65:358,1,220.000006713867
103,235,62130,1,0,0:0:0:0:
358,346,62280,2,0,P|354:277|365:212,1,110.000003356934
188,277,62580,2,0,P|192:208|181:143,1,110.000003356934
334,35,62880,5,0,0:0:0:0:
359,236,63030,1,0,0:0:0:0:
441,30,63180,1,0,0:0:0:0:
443,236,63330,1,0,0:0:0:0:
334,35,63480,5,0,0:0:0:0:
403,312,63630,1,0,0:0:0:0:
506,113,63780,2,0,L|388:110,1,110.000003356934
97,212,64080,5,0,0:0:0:0:
359,236,64230,1,0,0:0:0:0:
161,106,64380,5,0,0:0:0:0:
248,377,64530,1,0,0:0:0:0:
283,48,64680,5,0,0:0:0:0:
241,353,64830,1,0,0:0:0:0:
434,137,64980,6,0,P|381:121|326:121,1,110.000003356934
102,321,65280,6,0,L|96:197,1,110.000003356934
298,11,65580,5,0,0:0:0:0:
321,382,65730,1,0,0:0:0:0:
213,2,65880,5,0,0:0:0:0:
186,376,66030,1,0,0:0:0:0:
373,74,66180,5,0,0:0:0:0:
95,339,66330,1,0,0:0:0:0:
437,149,66480,5,0,0:0:0:0:
33,268,66630,1,0,0:0:0:0:
476,244,66780,5,0,0:0:0:0:
9,144,66930,1,0,0:0:0:0:
511,123,67080,5,0,0:0:0:0:
11,263,67230,1,0,0:0:0:0:
309,13,67380,6,0,P|321:93|322:134,1,110.000003356934
84,373,67680,6,0,L|88:212,1,110.000003356934
372,384,67980,2,0,L|369:274,1,110.000003356934
148,98,68280,1,0,0:0:0:0:
227,348,68430,1,0,0:0:0:0:
336,70,68580,2,0,P|260:69|196:83,1,110.000003356934
86,263,68880,6,0,B|209:232|156:330|313:292,1,220.000006713867
371,211,69330,1,0,0:0:0:0:
246,75,69480,2,0,L|258:210,1,110.000003356934
477,11,69780,1,0,0:0:0:0:
463,189,69930,1,0,0:0:0:0:
367,20,70080,6,0,L|502:8,1,110.000003356934
353,179,70380,2,0,L|462:188,1,110.000003356934
261,324,70680,1,0,0:0:0:0:
308,95,70830,1,0,0:0:0:0:
368,322,70980,2,0,P|302:332|240:315,1,110.000003356934
24,196,71280,6,0,B|118:188|118:188|144:201|144:201|255:189,1,220.000006713867
159,84,71730,1,0,0:0:0:0:
33,305,71880,2,0,L|23:189,1,110.000003356934
265,384,72180,2,0,L|275:268,1,110.000003356934
145,35,72480,6,0,B|183:157|94:154|162:291,1,220.000006713867
65,91,72930,1,0,0:0:0:0:
352,188,73080,2,0,L|206:193,1,110.000003356934
449,50,73380,1,0,0:0:0:0:
236,63,73530,1,0,0:0:0:0:
459,157,73680,6,0,P|461:91|440:33,1,110.000003356934
277,300,73980,5,0,0:0:0:0:
330,55,74130,1,0,0:0:0:0:
440,330,74280,5,0,0:0:0:0:
379,121,74430,1,0,0:0:0:0:
321,380,74580,5,0,0:0:0:0:
345,201,74730,1,0,0:0:0:0:
512,384,74880,5,0,0:0:0:0:
