osu file format v14

[General]
AudioFilename: audio.mp3
AudioLeadIn: 0
PreviewTime: 35878
Countdown: 0
SampleSet: Soft
StackLeniency: 0.7
Mode: 3
LetterboxInBreaks: 0
SpecialStyle: 0
WidescreenStoryboard: 0

[Editor]
DistanceSpacing: 0.8
BeatDivisor: 4
GridSize: 16
TimelineZoom: 1.499999

[Metadata]
Title:Bu Jin Jin Shi Xi Huan
TitleUnicode:不仅仅是喜欢
Artist:Yusa & Xiao Quan
ArtistUnicode:孙语赛 & 萧全
Creator:ExNeko
Version:Advanced
Source:
Tags:
BeatmapID:1839907
BeatmapSetID:879831

[Difficulty]
HPDrainRate:6
CircleSize:4
OverallDifficulty:6
ApproachRate:5
SliderMultiplier:1.4
SliderTickRate:1

[Events]
//Background and Video events
0,0,"1150675.jpg",0,0
//Break Periods
//Storyboard Layer 0 (Background)
//Storyboard Layer 1 (Fail)
//Storyboard Layer 2 (Pass)
//Storyboard Layer 3 (Foreground)
//Storyboard Sound Samples

[TimingPoints]
1515,545.454545454546,4,2,1,0,1,0
1515,-111.111111111111,4,2,1,0,0,0
16787,-1000,4,2,1,0,0,0
18151,-111.111111111111,4,2,1,0,0,0
18696,-100,4,2,1,0,0,0
18969,-50,4,2,1,0,0,0
19003,-125,4,2,1,0,0,0
19515,-33.3333333333333,4,2,1,0,0,0
19549,-125,4,2,1,0,0,0
20060,-50,4,2,1,0,0,0
20094,-125,4,2,1,0,0,0
20606,-33.3333333333333,4,2,1,0,0,0
20640,-125,4,2,1,0,0,0
21151,-50,4,2,1,0,0,0
21185,-125,4,2,1,0,0,0
21697,-33.3333333333333,4,2,1,0,0,0
21731,-125,4,2,1,0,0,0
22242,-50,4,2,1,0,0,0
22276,-125,4,2,1,0,0,0
22788,-33.3333333333333,4,2,1,0,0,0
22822,-125,4,2,1,0,0,0
23333,-50,4,2,1,0,0,0
23367,-125,4,2,1,0,0,0
23879,-33.3333333333333,4,2,1,0,0,0
23913,-125,4,2,1,0,0,0
24424,-50,4,2,1,0,0,0
24458,-125,4,2,1,0,0,0
24970,-33.3333333333333,4,2,1,0,0,0
25004,-125,4,2,1,0,0,0
25515,-50,4,2,1,0,0,0
25549,-125,4,2,1,0,0,0
26061,-33.3333333333333,4,2,1,0,0,0
26095,-125,4,2,1,0,0,0
26606,-50,4,2,1,0,0,0
26640,-125,4,2,1,0,0,0
27152,-33.3333333333333,4,2,1,0,0,0
27186,-125,4,2,1,0,0,0
27696,-50,4,2,1,0,0,0
27730,-125,4,2,1,0,0,0
28242,-33.3333333333333,4,2,1,0,0,0
28276,-125,4,2,1,0,0,0
28787,-50,4,2,1,0,0,0
28821,-125,4,2,1,0,0,0
29333,-33.3333333333333,4,2,1,0,0,0
29367,-125,4,2,1,0,0,0
29878,-50,4,2,1,0,0,0
29912,-125,4,2,1,0,0,0
30424,-33.3333333333333,4,2,1,0,0,0
30458,-125,4,2,1,0,0,0
30969,-50,4,2,1,0,0,0
31003,-125,4,2,1,0,0,0
31515,-33.3333333333333,4,2,1,0,0,0
31549,-125,4,2,1,0,0,0
32060,-50,4,2,1,0,0,0
32094,-125,4,2,1,0,0,0
32606,-33.3333333333333,4,2,1,0,0,0
32640,-125,4,2,1,0,0,0
33151,-50,4,2,1,0,0,0
33185,-125,4,2,1,0,0,0
33697,-33.3333333333333,4,2,1,0,0,0
33731,-125,4,2,1,0,0,0
34242,-50,4,2,1,0,0,0
34276,-125,4,2,1,0,0,0
34788,-33.3333333333333,4,2,1,0,0,0
34822,-125,4,2,1,0,0,0
35333,-50,4,2,1,0,0,0
35367,-125,4,2,1,0,0,0
35879,-33.3333333333333,4,2,1,0,0,0
35913,-125,4,2,1,0,0,0
36424,-37.5009375234381,4,2,1,0,0,0
36458,-125,4,2,1,0,0,0
36662,-333.333333333333,4,2,1,0,0,0
36696,-125,4,2,1,0,0,0
36969,-25,4,2,1,0,0,0
37003,-125,4,2,1,0,0,0
37208,-333.333333333333,4,2,1,0,0,0
37242,-125,4,2,1,0,0,0
37515,-37.5009375234381,4,2,1,0,0,0
37549,-125,4,2,1,0,0,0
37753,-333.333333333333,4,2,1,0,0,0
37787,-125,4,2,1,0,0,0
38060,-25,4,2,1,0,0,0
38094,-125,4,2,1,0,0,0
38299,-333.333333333333,4,2,1,0,0,0
38333,-125,4,2,1,0,0,0
38605,-37.5009375234381,4,2,1,0,0,0
38639,-125,4,2,1,0,0,0
38843,-333.333333333333,4,2,1,0,0,0
38877,-125,4,2,1,0,0,0
39150,-25,4,2,1,0,0,0
39184,-125,4,2,1,0,0,0
39389,-333.333333333333,4,2,1,0,0,0
39423,-125,4,2,1,0,0,0
39696,-37.5009375234381,4,2,1,0,0,0
39730,-125,4,2,1,0,0,0
39934,-333.333333333333,4,2,1,0,0,0
39968,-125,4,2,1,0,0,0
40241,-25,4,2,1,0,0,0
40275,-125,4,2,1,0,0,0
40480,-333.333333333333,4,2,1,0,0,0
40514,-125,4,2,1,0,0,0
40787,-37.5009375234381,4,2,1,0,0,0
40821,-125,4,2,1,0,0,0
41025,-333.333333333333,4,2,1,0,0,0
41059,-125,4,2,1,0,0,0
41332,-25,4,2,1,0,0,0
41366,-125,4,2,1,0,0,0
41571,-333.333333333333,4,2,1,0,0,0
41605,-125,4,2,1,0,0,0
41878,-37.5009375234381,4,2,1,0,0,0
41912,-125,4,2,1,0,0,0
42116,-333.333333333333,4,2,1,0,0,0
42150,-125,4,2,1,0,0,0
42423,-25,4,2,1,0,0,0
42457,-125,4,2,1,0,0,0
42662,-333.333333333333,4,2,1,0,0,0
42696,-125,4,2,1,0,0,0
42968,-37.5009375234381,4,2,1,0,0,0
43002,-125,4,2,1,0,0,0
43206,-333.333333333333,4,2,1,0,0,0
43240,-125,4,2,1,0,0,0
43513,-25,4,2,1,0,0,0
43547,-125,4,2,1,0,0,0
43752,-333.333333333333,4,2,1,0,0,0
43786,-125,4,2,1,0,0,0
44059,-37.5009375234381,4,2,1,0,0,0
44093,-125,4,2,1,0,0,0
44297,-333.333333333333,4,2,1,0,0,0
44331,-125,4,2,1,0,0,0
44604,-25,4,2,1,0,0,0
44638,-125,4,2,1,0,0,0
44843,-333.333333333333,4,2,1,0,0,0
44877,-125,4,2,1,0,0,0
45151,-37.5009375234381,4,2,1,0,0,0
45185,-125,4,2,1,0,0,0
45389,-333.333333333333,4,2,1,0,0,0
45423,-125,4,2,1,0,0,0
45696,-25,4,2,1,0,0,0
45730,-125,4,2,1,0,0,0
45935,-333.333333333333,4,2,1,0,0,0
45969,-125,4,2,1,0,0,0
46242,-37.5009375234381,4,2,1,0,0,0
46276,-125,4,2,1,0,0,0
46480,-333.333333333333,4,2,1,0,0,0
46514,-125,4,2,1,0,0,0
46787,-25,4,2,1,0,0,0
46821,-125,4,2,1,0,0,0
47026,-333.333333333333,4,2,1,0,0,0
47060,-125,4,2,1,0,0,0
47332,-37.5009375234381,4,2,1,0,0,0
47366,-125,4,2,1,0,0,0
47570,-333.333333333333,4,2,1,0,0,0
47604,-125,4,2,1,0,0,0
47877,-25,4,2,1,0,0,0
47911,-125,4,2,1,0,0,0
48116,-333.333333333333,4,2,1,0,0,0
48150,-125,4,2,1,0,0,0
48423,-37.5009375234381,4,2,1,0,0,0
48457,-125,4,2,1,0,0,0
48661,-333.333333333333,4,2,1,0,0,0
48695,-125,4,2,1,0,0,0
48968,-25,4,2,1,0,0,0
49002,-125,4,2,1,0,0,0
49207,-333.333333333333,4,2,1,0,0,0
49241,-125,4,2,1,0,0,0
49515,-37.5009375234381,4,2,1,0,0,0
49549,-125,4,2,1,0,0,0
49753,-333.333333333333,4,2,1,0,0,0
49787,-125,4,2,1,0,0,0
50060,-25,4,2,1,0,0,0
50094,-125,4,2,1,0,0,0
50299,-333.333333333333,4,2,1,0,0,0
50333,-125,4,2,1,0,0,0
50606,-37.5009375234381,4,2,1,0,0,0
50640,-125,4,2,1,0,0,0
50844,-333.333333333333,4,2,1,0,0,0
50878,-125,4,2,1,0,0,0
51151,-25,4,2,1,0,0,0
51185,-125,4,2,1,0,0,0
51390,-333.333333333333,4,2,1,0,0,0
51424,-125,4,2,1,0,0,0
51696,-37.5009375234381,4,2,1,0,0,0
51730,-125,4,2,1,0,0,0
51934,-333.333333333333,4,2,1,0,0,0
51968,-125,4,2,1,0,0,0
52241,-25,4,2,1,0,0,0
52275,-125,4,2,1,0,0,0
52480,-333.333333333333,4,2,1,0,0,0
52514,-125,4,2,1,0,0,0
52787,-37.5009375234381,4,2,1,0,0,0
52821,-125,4,2,1,0,0,0
53025,-333.333333333333,4,2,1,0,0,0
53059,-125,4,2,1,0,0,0
53332,-12.5,4,2,1,0,0,0
53366,-125,4,2,1,0,0,0
53571,-333.333333333333,4,2,1,0,0,0
53605,-125,4,2,1,0,0,0
54696,-100,4,2,1,0,0,0
54969,-200,4,2,1,0,0,0
55787,-50,4,2,1,0,0,0
56060,-125,4,2,1,0,0,0
72424,-200,4,2,1,0,0,0
73242,-50,4,2,1,0,0,0
73515,-37.5009375234381,4,2,1,0,0,0
73549,-125,4,2,1,0,0,0
73753,-333.333333333333,4,2,1,0,0,0
73787,-125,4,2,1,0,0,0
74060,-25,4,2,1,0,0,0
74094,-125,4,2,1,0,0,0
74299,-333.333333333333,4,2,1,0,0,0
74333,-125,4,2,1,0,0,0
74606,-37.5009375234381,4,2,1,0,0,0
74640,-125,4,2,1,0,0,0
74844,-333.333333333333,4,2,1,0,0,0
74878,-125,4,2,1,0,0,0
75151,-25,4,2,1,0,0,0
75185,-125,4,2,1,0,0,0
75390,-333.333333333333,4,2,1,0,0,0
75424,-125,4,2,1,0,0,0
75696,-37.5009375234381,4,2,1,0,0,0
75730,-125,4,2,1,0,0,0
75934,-333.333333333333,4,2,1,0,0,0
75968,-125,4,2,1,0,0,0
76241,-25,4,2,1,0,0,0
76275,-125,4,2,1,0,0,0
76480,-333.333333333333,4,2,1,0,0,0
76514,-125,4,2,1,0,0,0
76787,-37.5009375234381,4,2,1,0,0,0
76821,-125,4,2,1,0,0,0
77025,-333.333333333333,4,2,1,0,0,0
77059,-125,4,2,1,0,0,0
77332,-25,4,2,1,0,0,0
77366,-125,4,2,1,0,0,0
77571,-333.333333333333,4,2,1,0,0,0
77605,-125,4,2,1,0,0,0
77878,-37.5009375234381,4,2,1,0,0,0
77912,-125,4,2,1,0,0,0
78116,-333.333333333333,4,2,1,0,0,0
78150,-125,4,2,1,0,0,0
78423,-25,4,2,1,0,0,0
78457,-125,4,2,1,0,0,0
78662,-333.333333333333,4,2,1,0,0,0
78696,-125,4,2,1,0,0,0
78969,-37.5009375234381,4,2,1,0,0,0
79003,-125,4,2,1,0,0,0
79207,-333.333333333333,4,2,1,0,0,0
79241,-125,4,2,1,0,0,0
79514,-25,4,2,1,0,0,0
79548,-125,4,2,1,0,0,0
79753,-333.333333333333,4,2,1,0,0,0
79787,-125,4,2,1,0,0,0
80059,-37.5009375234381,4,2,1,0,0,0
80093,-125,4,2,1,0,0,0
80297,-333.333333333333,4,2,1,0,0,0
80331,-125,4,2,1,0,0,0
80604,-25,4,2,1,0,0,0
80638,-125,4,2,1,0,0,0
80843,-333.333333333333,4,2,1,0,0,0
80877,-125,4,2,1,0,0,0
81150,-37.5009375234381,4,2,1,0,0,0
81184,-125,4,2,1,0,0,0
81388,-333.333333333333,4,2,1,0,0,0
81422,-125,4,2,1,0,0,0
81695,-25,4,2,1,0,0,0
81729,-125,4,2,1,0,0,0
81934,-333.333333333333,4,2,1,0,0,0
81968,-125,4,2,1,0,0,0
82242,-37.5009375234381,4,2,1,0,0,0
82276,-125,4,2,1,0,0,0
82480,-333.333333333333,4,2,1,0,0,0
82514,-125,4,2,1,0,0,0
82787,-25,4,2,1,0,0,0
82821,-125,4,2,1,0,0,0
83026,-333.333333333333,4,2,1,0,0,0
83060,-125,4,2,1,0,0,0
83333,-37.5009375234381,4,2,1,0,0,0
83367,-125,4,2,1,0,0,0
83571,-333.333333333333,4,2,1,0,0,0
83605,-125,4,2,1,0,0,0
83878,-25,4,2,1,0,0,0
83912,-125,4,2,1,0,0,0
84117,-333.333333333333,4,2,1,0,0,0
84151,-125,4,2,1,0,0,0
84423,-37.5009375234381,4,2,1,0,0,0
84457,-125,4,2,1,0,0,0
84661,-333.333333333333,4,2,1,0,0,0
84695,-125,4,2,1,0,0,0
84968,-25,4,2,1,0,0,0
85002,-125,4,2,1,0,0,0
85207,-333.333333333333,4,2,1,0,0,0
85241,-125,4,2,1,0,0,0
85514,-37.5009375234381,4,2,1,0,0,0
85548,-125,4,2,1,0,0,0
85752,-333.333333333333,4,2,1,0,0,0
85786,-125,4,2,1,0,0,0
86059,-25,4,2,1,0,0,0
86093,-125,4,2,1,0,0,0
86298,-333.333333333333,4,2,1,0,0,0
86332,-125,4,2,1,0,0,0
86606,-37.5009375234381,4,2,1,0,0,0
86640,-125,4,2,1,0,0,0
86844,-333.333333333333,4,2,1,0,0,0
86878,-125,4,2,1,0,0,0
87151,-25,4,2,1,0,0,0
87185,-125,4,2,1,0,0,0
87390,-333.333333333333,4,2,1,0,0,0
87424,-125,4,2,1,0,0,0
87697,-37.5009375234381,4,2,1,0,0,0
87731,-125,4,2,1,0,0,0
87935,-333.333333333333,4,2,1,0,0,0
87969,-125,4,2,1,0,0,0
88242,-12.5,4,2,1,0,0,0
88276,-125,4,2,1,0,0,0

[HitObjects]
192,192,219,5,0,0:0:0:0:
320,192,424,128,0,969:0:0:0:0:
64,192,696,128,0,969:0:0:0:0:
192,192,969,128,0,1515:0:0:0:0:
448,192,1242,128,0,1515:0:0:0:0:
64,192,1515,128,0,3424:0:0:0:0:
320,192,1787,1,0,0:0:0:0:
192,192,2060,1,0,0:0:0:0:
448,192,2333,1,0,0:0:0:0:
320,192,2605,1,0,0:0:0:0:
192,192,2878,1,0,0:0:0:0:
320,192,3151,1,0,0:0:0:0:
448,192,3424,1,0,0:0:0:0:
192,192,3696,128,0,5605:0:0:0:0:
320,192,3969,1,0,0:0:0:0:
64,192,4242,1,0,0:0:0:0:
448,192,4515,1,0,0:0:0:0:
320,192,4787,1,0,0:0:0:0:
64,192,5060,1,0,0:0:0:0:
448,192,5333,1,0,0:0:0:0:
64,192,5605,1,0,0:0:0:0:
320,192,5878,128,0,7787:0:0:0:0:
192,192,6151,1,0,0:0:0:0:
448,192,6424,1,0,0:0:0:0:
64,192,6696,1,0,0:0:0:0:
192,192,6969,1,0,0:0:0:0:
448,192,7242,1,0,0:0:0:0:
64,192,7515,1,0,0:0:0:0:
192,192,7787,1,0,0:0:0:0:
448,192,8060,128,0,9969:0:0:0:0:
320,192,8333,1,0,0:0:0:0:
192,192,8605,1,0,0:0:0:0:
64,192,8878,1,0,0:0:0:0:
192,192,9151,1,0,0:0:0:0:
320,192,9424,1,0,0:0:0:0:
64,192,9696,1,0,0:0:0:0:
192,192,9969,1,0,0:0:0:0:
320,192,10242,128,0,10787:0:0:0:0:
64,192,10515,128,0,10787:0:0:0:0:
448,192,10787,1,0,0:0:0:0:
192,192,11060,1,0,0:0:0:0:
448,192,11333,128,0,12151:0:0:0:0:
64,192,11605,128,0,11878:0:0:0:0:
320,192,11878,1,0,0:0:0:0:
192,192,12151,128,0,12424:0:0:0:0:
64,192,12424,1,0,0:0:0:0:
320,192,12424,128,0,12969:0:0:0:0:
448,192,12696,128,0,12969:0:0:0:0:
192,192,12969,1,0,0:0:0:0:
64,192,13242,1,0,0:0:0:0:
320,192,13515,128,0,14333:0:0:0:0:
448,192,13787,128,0,14060:0:0:0:0:
64,192,14060,1,0,0:0:0:0:
192,192,14333,128,0,14605:0:0:0:0:
448,192,14605,1,0,0:0:0:0:
448,192,14878,1,0,0:0:0:0:
320,192,15151,1,0,0:0:0:0:
192,192,15424,1,0,0:0:0:0:
64,192,15696,1,0,0:0:0:0:
320,192,15969,1,0,0:0:0:0:
192,192,16242,1,0,0:0:0:0:
64,192,16515,1,0,0:0:0:0:
320,192,16787,1,0,0:0:0:0:
64,192,18969,1,0,0:0:0:0:
192,192,18969,1,0,0:0:0:0:
320,192,18969,1,0,0:0:0:0:
448,192,19242,1,0,0:0:0:0:
320,192,19378,1,0,0:0:0:0:
192,192,19515,1,0,0:0:0:0:
64,192,19515,1,0,0:0:0:0:
448,192,19515,1,0,0:0:0:0:
192,192,19787,1,0,0:0:0:0:
320,192,20060,1,0,0:0:0:0:
448,192,20060,1,0,0:0:0:0:
64,192,20060,1,0,0:0:0:0:
192,192,20469,1,0,0:0:0:0:
64,192,20605,1,0,0:0:0:0:
320,192,20605,1,0,0:0:0:0:
448,192,20605,1,0,0:0:0:0:
320,192,20878,1,0,0:0:0:0:
320,192,21151,1,0,0:0:0:0:
192,192,21151,1,0,0:0:0:0:
64,192,21151,1,0,0:0:0:0:
64,192,21424,1,0,0:0:0:0:
448,192,21560,1,0,0:0:0:0:
320,192,21696,1,0,0:0:0:0:
192,192,21696,1,0,0:0:0:0:
64,192,21696,1,0,0:0:0:0:
192,192,21969,1,0,0:0:0:0:
320,192,22242,1,0,0:0:0:0:
448,192,22242,1,0,0:0:0:0:
64,192,22242,1,0,0:0:0:0:
320,192,22651,1,0,0:0:0:0:
64,192,22787,1,0,0:0:0:0:
192,192,22787,1,0,0:0:0:0:
448,192,22787,1,0,0:0:0:0:
320,192,23060,1,0,0:0:0:0:
64,192,23333,1,0,0:0:0:0:
192,192,23333,1,0,0:0:0:0:
448,192,23333,1,0,0:0:0:0:
64,192,23605,1,0,0:0:0:0:
192,192,23878,1,0,0:0:0:0:
320,192,23878,1,0,0:0:0:0:
448,192,23878,1,0,0:0:0:0:
448,192,24151,1,0,0:0:0:0:
320,192,24424,1,0,0:0:0:0:
192,192,24424,1,0,0:0:0:0:
64,192,24424,1,0,0:0:0:0:
320,192,24833,1,0,0:0:0:0:
192,192,24969,1,0,0:0:0:0:
64,192,24969,1,0,0:0:0:0:
448,192,24969,1,0,0:0:0:0:
448,192,25242,1,0,0:0:0:0:
192,192,25515,1,0,0:0:0:0:
320,192,25515,1,0,0:0:0:0:
448,192,25515,1,0,0:0:0:0:
64,192,25787,1,0,0:0:0:0:
320,192,25924,1,0,0:0:0:0:
192,192,26060,1,0,0:0:0:0:
64,192,26060,1,0,0:0:0:0:
448,192,26060,1,0,0:0:0:0:
320,192,26333,1,0,0:0:0:0:
192,192,26605,1,0,0:0:0:0:
320,192,26605,1,0,0:0:0:0:
448,192,26605,1,0,0:0:0:0:
64,192,27015,1,0,0:0:0:0:
320,192,27151,1,0,0:0:0:0:
192,192,27151,1,0,0:0:0:0:
448,192,27151,1,0,0:0:0:0:
192,192,27424,1,0,0:0:0:0:
64,192,27696,1,0,0:0:0:0:
320,192,27696,1,0,0:0:0:0:
448,192,27696,1,0,0:0:0:0:
448,192,27969,128,0,28242:0:0:0:0:
192,192,28242,128,0,28651:0:0:0:0:
64,192,28242,1,0,0:0:0:0:
320,192,28242,1,0,0:0:0:0:
192,192,28787,1,0,0:0:0:0:
64,192,28787,1,0,0:0:0:0:
448,192,28787,1,0,0:0:0:0:
320,192,28924,1,0,0:0:0:0:
192,192,29060,128,0,29333:0:0:0:0:
64,192,29333,128,0,29605:0:0:0:0:
320,192,29333,1,0,0:0:0:0:
448,192,29333,1,0,0:0:0:0:
448,192,29605,1,0,0:0:0:0:
320,192,29878,128,0,30015:0:0:0:0:
192,192,29878,1,0,0:0:0:0:
64,192,29878,1,0,0:0:0:0:
192,192,30151,1,0,0:0:0:0:
448,192,30287,1,0,0:0:0:0:
320,192,30424,128,0,30560:0:0:0:0:
192,192,30424,1,0,0:0:0:0:
64,192,30424,1,0,0:0:0:0:
448,192,30696,1,0,0:0:0:0:
192,192,30969,128,0,31105:0:0:0:0:
64,192,30969,1,0,0:0:0:0:
320,192,30969,1,0,0:0:0:0:
320,192,31242,128,0,31378:0:0:0:0:
448,192,31515,128,0,31924:0:0:0:0:
320,192,31515,1,0,0:0:0:0:
64,192,31515,1,0,0:0:0:0:
64,192,31787,128,0,31924:0:0:0:0:
192,192,32060,1,0,0:0:0:0:
448,192,32060,128,0,32333:0:0:0:0:
64,192,32060,128,0,32333:0:0:0:0:
192,192,32333,128,0,32605:0:0:0:0:
448,192,32605,128,0,33015:0:0:0:0:
64,192,32605,1,0,0:0:0:0:
320,192,32605,128,0,33015:0:0:0:0:
192,192,33015,1,0,0:0:0:0:
320,192,33151,1,0,0:0:0:0:
448,192,33151,1,0,0:0:0:0:
64,192,33151,128,0,33424:0:0:0:0:
192,192,33287,128,0,33560:0:0:0:0:
320,192,33424,128,0,33696:0:0:0:0:
448,192,33696,128,0,33833:0:0:0:0:
64,192,33696,128,0,33833:0:0:0:0:
192,192,33696,128,0,33969:0:0:0:0:
448,192,33969,1,0,0:0:0:0:
192,192,34105,128,0,34378:0:0:0:0:
448,192,34242,1,0,0:0:0:0:
320,192,34242,128,0,34515:0:0:0:0:
64,192,34242,128,0,34515:0:0:0:0:
448,192,34515,128,0,34651:0:0:0:0:
320,192,34787,128,0,35060:0:0:0:0:
64,192,34787,128,0,35060:0:0:0:0:
192,192,34787,128,0,34924:0:0:0:0:
448,192,34924,128,0,35196:0:0:0:0:
192,192,35060,128,0,35333:0:0:0:0:
64,192,35333,1,0,0:0:0:0:
448,192,35333,128,0,35742:0:0:0:0:
320,192,35333,128,0,35605:0:0:0:0:
192,192,35605,1,0,0:0:0:0:
192,192,35878,1,0,0:0:0:0:
448,192,35878,1,0,0:0:0:0:
64,192,35878,128,0,36287:0:0:0:0:
320,192,36151,128,0,36287:0:0:0:0:
448,192,36151,128,0,36287:0:0:0:0:
64,192,36424,1,0,0:0:0:0:
320,192,36424,1,0,0:0:0:0:
448,192,36424,1,0,0:0:0:0:
192,192,36424,1,0,0:0:0:0:
448,192,36696,1,0,0:0:0:0:
448,192,36969,1,0,0:0:0:0:
192,192,36969,1,0,0:0:0:0:
320,192,36969,1,0,0:0:0:0:
64,192,36969,1,0,0:0:0:0:
64,192,37242,1,0,0:0:0:0:
64,192,37378,1,0,0:0:0:0:
64,192,37515,1,0,0:0:0:0:
192,192,37515,1,0,0:0:0:0:
320,192,37515,1,0,0:0:0:0:
448,192,37515,1,0,0:0:0:0:
320,192,37787,1,0,0:0:0:0:
320,192,38060,1,0,0:0:0:0:
192,192,38060,1,0,0:0:0:0:
64,192,38060,1,0,0:0:0:0:
448,192,38060,1,0,0:0:0:0:
192,192,38333,1,0,0:0:0:0:
64,192,38605,1,0,0:0:0:0:
192,192,38605,1,0,0:0:0:0:
448,192,38605,1,0,0:0:0:0:
320,192,38605,1,0,0:0:0:0:
448,192,38878,1,0,0:0:0:0:
448,192,39015,1,0,0:0:0:0:
192,192,39151,1,0,0:0:0:0:
448,192,39151,1,0,0:0:0:0:
320,192,39151,1,0,0:0:0:0:
64,192,39151,1,0,0:0:0:0:
448,192,39424,1,0,0:0:0:0:
448,192,39560,1,0,0:0:0:0:
192,192,39696,1,0,0:0:0:0:
448,192,39696,1,0,0:0:0:0:
320,192,39696,1,0,0:0:0:0:
64,192,39696,1,0,0:0:0:0:
64,192,39969,1,0,0:0:0:0:
320,192,40242,1,0,0:0:0:0:
192,192,40242,1,0,0:0:0:0:
64,192,40242,1,0,0:0:0:0:
448,192,40242,1,0,0:0:0:0:
320,192,40515,1,0,0:0:0:0:
64,192,40787,1,0,0:0:0:0:
192,192,40787,1,0,0:0:0:0:
448,192,40787,1,0,0:0:0:0:
320,192,40787,1,0,0:0:0:0:
448,192,41060,1,0,0:0:0:0:
192,192,41333,1,0,0:0:0:0:
448,192,41333,1,0,0:0:0:0:
320,192,41333,1,0,0:0:0:0:
64,192,41333,1,0,0:0:0:0:
192,192,41605,1,0,0:0:0:0:
192,192,41742,1,0,0:0:0:0:
192,192,41878,1,0,0:0:0:0:
448,192,41878,1,0,0:0:0:0:
320,192,41878,1,0,0:0:0:0:
64,192,41878,1,0,0:0:0:0:
320,192,42151,1,0,0:0:0:0:
320,192,42424,1,0,0:0:0:0:
192,192,42424,1,0,0:0:0:0:
64,192,42424,1,0,0:0:0:0:
448,192,42424,1,0,0:0:0:0:
64,192,42696,1,0,0:0:0:0:
64,192,42969,1,0,0:0:0:0:
192,192,42969,1,0,0:0:0:0:
448,192,42969,1,0,0:0:0:0:
320,192,42969,1,0,0:0:0:0:
448,192,43242,1,0,0:0:0:0:
448,192,43378,1,0,0:0:0:0:
192,192,43515,1,0,0:0:0:0:
448,192,43515,1,0,0:0:0:0:
320,192,43515,1,0,0:0:0:0:
64,192,43515,1,0,0:0:0:0:
320,192,43787,1,0,0:0:0:0:
192,192,44060,1,0,0:0:0:0:
448,192,44060,1,0,0:0:0:0:
320,192,44060,1,0,0:0:0:0:
64,192,44060,1,0,0:0:0:0:
192,192,44196,1,0,0:0:0:0:
192,192,44333,1,0,0:0:0:0:
320,192,44605,1,0,0:0:0:0:
192,192,44605,1,0,0:0:0:0:
64,192,44605,128,0,45015:0:0:0:0:
448,192,44605,128,0,44878:0:0:0:0:
320,192,44878,128,0,45015:0:0:0:0:
64,192,45151,1,0,0:0:0:0:
192,192,45151,128,0,45560:0:0:0:0:
320,192,45151,128,0,45424:0:0:0:0:
448,192,45151,128,0,45287:0:0:0:0:
64,192,45424,1,0,0:0:0:0:
64,192,45696,1,0,0:0:0:0:
448,192,45696,128,0,46105:0:0:0:0:
320,192,45696,128,0,45969:0:0:0:0:
192,192,45696,128,0,45833:0:0:0:0:
192,192,45969,1,0,0:0:0:0:
192,192,46105,1,0,0:0:0:0:
192,192,46242,1,0,0:0:0:0:
448,192,46242,1,0,0:0:0:0:
64,192,46242,128,0,46515:0:0:0:0:
320,192,46242,128,0,46515:0:0:0:0:
448,192,46515,128,0,46651:0:0:0:0:
448,192,46787,1,0,0:0:0:0:
320,192,46787,1,0,0:0:0:0:
192,192,46787,128,0,47060:0:0:0:0:
64,192,46787,128,0,46924:0:0:0:0:
320,192,47060,128,0,47196:0:0:0:0:
64,192,47333,1,0,0:0:0:0:
192,192,47333,128,0,47469:0:0:0:0:
320,192,47333,128,0,47605:0:0:0:0:
448,192,47333,128,0,47742:0:0:0:0:
64,192,47605,1,0,0:0:0:0:
64,192,47742,1,0,0:0:0:0:
64,192,47878,1,0,0:0:0:0:
192,192,47878,128,0,48015:0:0:0:0:
320,192,47878,128,0,48287:0:0:0:0:
448,192,47878,128,0,48151:0:0:0:0:
64,192,48151,1,0,0:0:0:0:
64,192,48287,1,0,0:0:0:0:
320,192,48424,1,0,0:0:0:0:
64,192,48424,128,0,48833:0:0:0:0:
448,192,48424,1,0,0:0:0:0:
192,192,48424,128,0,48833:0:0:0:0:
320,192,48560,1,0,0:0:0:0:
320,192,48696,128,0,48833:0:0:0:0:
320,192,48969,1,0,0:0:0:0:
64,192,48969,128,0,49105:0:0:0:0:
192,192,48969,128,0,49105:0:0:0:0:
448,192,48969,128,0,49378:0:0:0:0:
192,192,49242,128,0,49378:0:0:0:0:
320,192,49515,1,0,0:0:0:0:
192,192,49515,1,0,0:0:0:0:
448,192,49515,128,0,49651:0:0:0:0:
64,192,49515,128,0,49924:0:0:0:0:
448,192,49787,128,0,49924:0:0:0:0:
320,192,50060,1,0,0:0:0:0:
64,192,50060,1,0,0:0:0:0:
448,192,50060,128,0,50196:0:0:0:0:
192,192,50060,128,0,50469:0:0:0:0:
448,192,50333,1,0,0:0:0:0:
448,192,50469,1,0,0:0:0:0:
192,192,50605,1,0,0:0:0:0:
448,192,50605,1,0,0:0:0:0:
64,192,50605,128,0,51015:0:0:0:0:
320,192,50605,128,0,50742:0:0:0:0:
320,192,50878,128,0,51015:0:0:0:0:
320,192,51151,1,0,0:0:0:0:
192,192,51151,1,0,0:0:0:0:
64,192,51151,1,0,0:0:0:0:
448,192,51151,128,0,51560:0:0:0:0:
192,192,51424,128,0,51560:0:0:0:0:
64,192,51696,1,0,0:0:0:0:
192,192,51696,1,0,0:0:0:0:
448,192,51969,1,0,0:0:0:0:
64,192,52242,1,0,0:0:0:0:
192,192,52242,1,0,0:0:0:0:
448,192,52515,1,0,0:0:0:0:
64,192,52787,1,0,0:0:0:0:
192,192,52787,1,0,0:0:0:0:
448,192,53060,1,0,0:0:0:0:
448,192,53196,1,0,0:0:0:0:
448,192,53333,1,0,0:0:0:0:
320,192,53333,1,0,0:0:0:0:
192,192,53333,1,0,0:0:0:0:
64,192,53333,1,0,0:0:0:0:
448,192,53605,1,0,0:0:0:0:
320,192,53605,1,0,0:0:0:0:
192,192,53878,1,0,0:0:0:0:
64,192,53878,1,0,0:0:0:0:
192,192,54696,1,0,0:0:0:0:
448,192,54969,128,0,55992:0:0:0:0:
320,192,55242,128,0,55992:0:0:0:0:
192,192,55515,128,0,55992:0:0:0:0:
64,192,55787,128,0,55992:0:0:0:0:
64,192,56060,1,0,0:0:0:0:
192,192,56060,1,0,0:0:0:0:
320,192,56060,1,0,0:0:0:0:
448,192,56060,1,0,0:0:0:0:
64,192,56333,1,0,0:0:0:0:
192,192,56469,1,0,0:0:0:0:
448,192,56605,1,0,0:0:0:0:
64,192,56605,1,0,0:0:0:0:
320,192,56605,128,0,56878:0:0:0:0:
192,192,56878,128,0,57151:0:0:0:0:
448,192,56878,1,0,0:0:0:0:
448,192,57015,1,0,0:0:0:0:
448,192,57151,128,0,57287:0:0:0:0:
64,192,57151,1,0,0:0:0:0:
320,192,57151,1,0,0:0:0:0:
192,192,57424,128,0,57560:0:0:0:0:
64,192,57424,128,0,57560:0:0:0:0:
64,192,57696,1,0,0:0:0:0:
320,192,57696,1,0,0:0:0:0:
448,192,57696,1,0,0:0:0:0:
192,192,57969,1,0,0:0:0:0:
320,192,58060,1,0,0:0:0:0:
448,192,58151,1,0,0:0:0:0:
64,192,58242,1,0,0:0:0:0:
192,192,58242,1,0,0:0:0:0:
320,192,58242,1,0,0:0:0:0:
64,192,58378,1,0,0:0:0:0:
448,192,58515,128,0,58651:0:0:0:0:
64,192,58651,1,0,0:0:0:0:
320,192,58787,1,0,0:0:0:0:
448,192,58787,1,0,0:0:0:0:
192,192,58787,1,0,0:0:0:0:
320,192,59060,128,0,59333:0:0:0:0:
192,192,59333,1,0,0:0:0:0:
448,192,59333,1,0,0:0:0:0:
64,192,59333,128,0,59742:0:0:0:0:
320,192,59469,1,0,0:0:0:0:
192,192,59605,128,0,59742:0:0:0:0:
64,192,59878,1,0,0:0:0:0:
192,192,59878,1,0,0:0:0:0:
448,192,59878,128,0,60287:0:0:0:0:
320,192,60151,128,0,60287:0:0:0:0:
192,192,60242,1,0,0:0:0:0:
64,192,60333,1,0,0:0:0:0:
192,192,60424,1,0,0:0:0:0:
320,192,60424,128,0,60560:0:0:0:0:
448,192,60424,128,0,60560:0:0:0:0:
64,192,60696,1,0,0:0:0:0:
64,192,60969,1,0,0:0:0:0:
192,192,60969,1,0,0:0:0:0:
448,192,60969,128,0,61242:0:0:0:0:
320,192,61242,128,0,61515:0:0:0:0:
64,192,61242,1,0,0:0:0:0:
64,192,61378,1,0,0:0:0:0:
192,192,61515,128,0,61787:0:0:0:0:
64,192,61515,1,0,0:0:0:0:
448,192,61515,1,0,0:0:0:0:
64,192,61787,128,0,62060:0:0:0:0:
320,192,62060,1,0,0:0:0:0:
448,192,62060,1,0,0:0:0:0:
192,192,62060,1,0,0:0:0:0:
192,192,62333,1,0,0:0:0:0:
448,192,62333,128,0,62605:0:0:0:0:
64,192,62605,1,0,0:0:0:0:
320,192,62605,1,0,0:0:0:0:
192,192,62605,1,0,0:0:0:0:
320,192,62878,1,0,0:0:0:0:
192,192,62969,1,0,0:0:0:0:
320,192,63060,1,0,0:0:0:0:
192,192,63151,1,0,0:0:0:0:
64,192,63151,1,0,0:0:0:0:
448,192,63151,1,0,0:0:0:0:
192,192,63424,1,0,0:0:0:0:
320,192,63515,1,0,0:0:0:0:
192,192,63605,1,0,0:0:0:0:
320,192,63696,1,0,0:0:0:0:
448,192,63696,1,0,0:0:0:0:
64,192,63696,1,0,0:0:0:0:
64,192,63969,1,0,0:0:0:0:
320,192,63969,1,0,0:0:0:0:
192,192,64242,1,0,0:0:0:0:
64,192,64242,1,0,0:0:0:0:
448,192,64242,1,0,0:0:0:0:
448,192,64515,128,0,64787:0:0:0:0:
320,192,64787,1,0,0:0:0:0:
64,192,64787,1,0,0:0:0:0:
192,192,64787,128,0,65333:0:0:0:0:
320,192,65060,1,0,0:0:0:0:
320,192,65196,1,0,0:0:0:0:
320,192,65333,1,0,0:0:0:0:
448,192,65333,1,0,0:0:0:0:
64,192,65333,1,0,0:0:0:0:
64,192,65605,128,0,66151:0:0:0:0:
192,192,65878,1,0,0:0:0:0:
320,192,65878,1,0,0:0:0:0:
448,192,65878,128,0,66151:0:0:0:0:
192,192,66015,1,0,0:0:0:0:
320,192,66151,128,0,66696:0:0:0:0:
64,192,66424,1,0,0:0:0:0:
448,192,66424,1,0,0:0:0:0:
192,192,66424,128,0,66696:0:0:0:0:
64,192,66696,1,0,0:0:0:0:
64,192,66969,1,0,0:0:0:0:
448,192,66969,1,0,0:0:0:0:
320,192,66969,128,0,67378:0:0:0:0:
64,192,67242,1,0,0:0:0:0:
448,192,67378,1,0,0:0:0:0:
320,192,67515,1,0,0:0:0:0:
64,192,67515,1,0,0:0:0:0:
192,192,67515,128,0,67924:0:0:0:0:
320,192,67787,1,0,0:0:0:0:
320,192,67924,1,0,0:0:0:0:
448,192,68060,1,0,0:0:0:0:
192,192,68060,1,0,0:0:0:0:
64,192,68060,1,0,0:0:0:0:
192,192,68196,128,0,68469:0:0:0:0:
320,192,68196,128,0,68469:0:0:0:0:
448,192,68333,128,0,68469:0:0:0:0:
64,192,68333,128,0,68469:0:0:0:0:
64,192,68605,1,0,0:0:0:0:
448,192,68605,1,0,0:0:0:0:
320,192,68605,1,0,0:0:0:0:
320,192,68878,128,0,69151:0:0:0:0:
448,192,69151,1,0,0:0:0:0:
64,192,69151,128,0,69424:0:0:0:0:
192,192,69151,128,0,69287:0:0:0:0:
448,192,69424,1,0,0:0:0:0:
64,192,69696,1,0,0:0:0:0:
192,192,69696,1,0,0:0:0:0:
320,192,69696,1,0,0:0:0:0:
448,192,69969,1,0,0:0:0:0:
320,192,70105,1,0,0:0:0:0:
192,192,70242,1,0,0:0:0:0:
320,192,70242,1,0,0:0:0:0:
448,192,70242,1,0,0:0:0:0:
64,192,70515,1,0,0:0:0:0:
192,192,70515,1,0,0:0:0:0:
320,192,70787,1,0,0:0:0:0:
448,192,70787,1,0,0:0:0:0:
64,192,70787,1,0,0:0:0:0:
448,192,71060,1,0,0:0:0:0:
192,192,71060,128,0,72151:0:0:0:0:
64,192,71333,1,0,0:0:0:0:
448,192,71333,1,0,0:0:0:0:
320,192,71333,1,0,0:0:0:0:
64,192,71605,1,0,0:0:0:0:
64,192,71878,1,0,0:0:0:0:
320,192,71878,1,0,0:0:0:0:
448,192,71878,1,0,0:0:0:0:
320,192,72151,1,0,0:0:0:0:
64,192,72424,128,0,73446:0:0:0:0:
192,192,72696,128,0,73446:0:0:0:0:
320,192,72969,128,0,73446:0:0:0:0:
448,192,73242,128,0,73446:0:0:0:0:
448,192,73515,1,0,0:0:0:0:
192,192,73515,1,0,0:0:0:0:
64,192,73515,128,0,73924:0:0:0:0:
320,192,73515,128,0,73787:0:0:0:0:
192,192,73787,128,0,73924:0:0:0:0:
448,192,73787,128,0,73924:0:0:0:0:
64,192,74060,1,0,0:0:0:0:
320,192,74060,1,0,0:0:0:0:
448,192,74060,128,0,74469:0:0:0:0:
64,192,74333,1,0,0:0:0:0:
192,192,74333,128,0,74469:0:0:0:0:
320,192,74469,128,0,74605:0:0:0:0:
192,192,74605,1,0,0:0:0:0:
448,192,74605,128,0,74742:0:0:0:0:
64,192,74605,128,0,75015:0:0:0:0:
192,192,74878,128,0,75015:0:0:0:0:
320,192,74878,128,0,75015:0:0:0:0:
448,192,75151,1,0,0:0:0:0:
320,192,75151,1,0,0:0:0:0:
64,192,75151,128,0,75560:0:0:0:0:
320,192,75424,128,0,75560:0:0:0:0:
448,192,75424,128,0,75560:0:0:0:0:
64,192,75696,1,0,0:0:0:0:
448,192,75696,1,0,0:0:0:0:
192,192,75696,128,0,76105:0:0:0:0:
64,192,75969,1,0,0:0:0:0:
448,192,75969,128,0,76105:0:0:0:0:
320,192,76105,128,0,76242:0:0:0:0:
64,192,76242,1,0,0:0:0:0:
192,192,76242,1,0,0:0:0:0:
448,192,76242,128,0,76651:0:0:0:0:
320,192,76515,1,0,0:0:0:0:
192,192,76515,128,0,76787:0:0:0:0:
320,192,76787,1,0,0:0:0:0:
448,192,76787,1,0,0:0:0:0:
64,192,76787,128,0,77060:0:0:0:0:
192,192,76924,128,0,77196:0:0:0:0:
448,192,77060,1,0,0:0:0:0:
320,192,77060,128,0,77333:0:0:0:0:
448,192,77333,1,0,0:0:0:0:
192,192,77333,1,0,0:0:0:0:
64,192,77333,1,0,0:0:0:0:
64,192,77605,128,0,77742:0:0:0:0:
192,192,77605,128,0,77742:0:0:0:0:
320,192,77878,1,0,0:0:0:0:
448,192,77878,1,0,0:0:0:0:
64,192,77878,128,0,78287:0:0:0:0:
448,192,78151,1,0,0:0:0:0:
320,192,78151,128,0,78287:0:0:0:0:
192,192,78287,128,0,78424:0:0:0:0:
320,192,78424,1,0,0:0:0:0:
64,192,78424,128,0,78560:0:0:0:0:
448,192,78424,128,0,78560:0:0:0:0:
448,192,78696,128,0,78833:0:0:0:0:
64,192,78696,128,0,78833:0:0:0:0:
320,192,78833,128,0,78969:0:0:0:0:
448,192,78969,1,0,0:0:0:0:
64,192,78969,128,0,79378:0:0:0:0:
192,192,78969,1,0,0:0:0:0:
192,192,79242,128,0,79651:0:0:0:0:
320,192,79242,1,0,0:0:0:0:
64,192,79515,1,0,0:0:0:0:
320,192,79515,128,0,79924:0:0:0:0:
448,192,79515,1,0,0:0:0:0:
64,192,79787,128,0,80196:0:0:0:0:
192,192,79787,1,0,0:0:0:0:
192,192,80060,1,0,0:0:0:0:
448,192,80060,1,0,0:0:0:0:
320,192,80060,128,0,80469:0:0:0:0:
64,192,80333,128,0,80469:0:0:0:0:
448,192,80333,128,0,80469:0:0:0:0:
192,192,80469,128,0,80605:0:0:0:0:
448,192,80605,128,0,80742:0:0:0:0:
320,192,80605,128,0,80742:0:0:0:0:
64,192,80605,128,0,81015:0:0:0:0:
320,192,80878,128,0,81015:0:0:0:0:
192,192,81015,128,0,81151:0:0:0:0:
320,192,81151,1,0,0:0:0:0:
64,192,81151,128,0,81287:0:0:0:0:
448,192,81151,128,0,81560:0:0:0:0:
320,192,81424,128,0,81560:0:0:0:0:
192,192,81560,128,0,81696:0:0:0:0:
320,192,81696,1,0,0:0:0:0:
64,192,81696,128,0,81833:0:0:0:0:
448,192,81696,128,0,82105:0:0:0:0:
64,192,81969,128,0,82105:0:0:0:0:
320,192,81969,1,0,0:0:0:0:
192,192,82242,128,0,82924:0:0:0:0:
64,192,82242,128,0,82651:0:0:0:0:
448,192,82242,128,0,82651:0:0:0:0:
320,192,82515,1,0,0:0:0:0:
64,192,82787,1,0,0:0:0:0:
448,192,82787,128,0,83196:0:0:0:0:
320,192,82787,128,0,83196:0:0:0:0:
192,192,83060,1,0,0:0:0:0:
64,192,83060,128,0,83469:0:0:0:0:
448,192,83333,1,0,0:0:0:0:
192,192,83333,128,0,83742:0:0:0:0:
320,192,83333,128,0,84015:0:0:0:0:
64,192,83605,1,0,0:0:0:0:
192,192,83878,128,0,84560:0:0:0:0:
448,192,83878,128,0,84287:0:0:0:0:
64,192,83878,128,0,84287:0:0:0:0:
320,192,84151,1,0,0:0:0:0:
64,192,84424,1,0,0:0:0:0:
320,192,84424,128,0,84833:0:0:0:0:
448,192,84424,1,0,0:0:0:0:
64,192,84696,128,0,85242:0:0:0:0:
192,192,84696,1,0,0:0:0:0:
448,192,84833,1,0,0:0:0:0:
448,192,84969,1,0,0:0:0:0:
320,192,84969,1,0,0:0:0:0:
192,192,84969,128,0,85378:0:0:0:0:
448,192,85242,1,0,0:0:0:0:
320,192,85242,128,0,85515:0:0:0:0:
64,192,85378,1,0,0:0:0:0:
192,192,85515,1,0,0:0:0:0:
64,192,85515,128,0,85924:0:0:0:0:
448,192,85515,128,0,85924:0:0:0:0:
320,192,85651,1,0,0:0:0:0:
320,192,85787,1,0,0:0:0:0:
192,192,85787,128,0,86196:0:0:0:0:
448,192,86060,1,0,0:0:0:0:
64,192,86060,128,0,86469:0:0:0:0:
320,192,86060,128,0,86469:0:0:0:0:
192,192,86333,1,0,0:0:0:0:
448,192,86333,1,0,0:0:0:0:
448,192,86605,1,0,0:0:0:0:
320,192,86605,1,0,0:0:0:0:
64,192,86878,1,0,0:0:0:0:
448,192,87151,1,0,0:0:0:0:
320,192,87151,1,0,0:0:0:0:
64,192,87424,1,0,0:0:0:0:
448,192,87696,1,0,0:0:0:0:
320,192,87696,1,0,0:0:0:0:
64,192,87969,1,0,0:0:0:0:
64,192,88105,1,0,0:0:0:0:
64,192,88242,1,0,0:0:0:0:
192,192,88242,1,0,0:0:0:0:
320,192,88242,1,0,0:0:0:0:
448,192,88242,1,0,0:0:0:0:
64,192,88515,1,0,0:0:0:0:
192,192,88515,1,0,0:0:0:0:
320,192,88787,128,0,89469:0:0:0:0:
448,192,88787,128,0,89196:0:0:0:0:
64,192,89060,128,0,89742:0:0:0:0:
192,192,89333,128,0,89742:0:0:0:0:
448,192,89333,128,0,89605:0:0:0:0:
320,192,89605,128,0,90560:0:0:0:0:
448,192,89742,128,0,89878:0:0:0:0:
192,192,89878,128,0,90287:0:0:0:0:
64,192,89878,128,0,90287:0:0:0:0:
448,192,90015,128,0,90151:0:0:0:0:
448,192,90287,128,0,90833:0:0:0:0:
64,192,90424,128,0,91105:0:0:0:0:
192,192,90424,128,0,90833:0:0:0:0:
320,192,90696,128,0,91378:0:0:0:0:
192,192,90969,128,0,91242:0:0:0:0:
448,192,90969,128,0,91378:0:0:0:0:
64,192,91242,128,0,91651:0:0:0:0:
192,192,91378,128,0,91787:0:0:0:0:
320,192,91515,128,0,91924:0:0:0:0:
448,192,91515,128,0,91924:0:0:0:0:
64,192,91787,128,0,92060:0:0:0:0:
192,192,91924,128,0,92196:0:0:0:0:
320,192,92060,128,0,93287:0:0:0:0:
448,192,92060,128,0,92742:0:0:0:0:
64,192,92196,128,0,92469:0:0:0:0:
192,192,92333,128,0,92469:0:0:0:0:
64,192,92605,128,0,93015:0:0:0:0:
192,192,92605,128,0,93560:0:0:0:0:
448,192,92878,128,0,93015:0:0:0:0:
64,192,93151,128,0,93560:0:0:0:0:
448,192,93151,128,0,93424:0:0:0:0:
320,192,93424,128,0,93833:0:0:0:0:
448,192,93560,128,0,93969:0:0:0:0:
64,192,93696,128,0,94105:0:0:0:0:
192,192,93696,128,0,94105:0:0:0:0:
320,192,93969,128,0,94242:0:0:0:0:
448,192,94105,128,0,94378:0:0:0:0:
64,192,94242,128,0,94924:0:0:0:0:
192,192,94242,128,0,94651:0:0:0:0:
320,192,94378,128,0,94651:0:0:0:0:
448,192,94515,128,0,95196:0:0:0:0:
320,192,94787,128,0,95196:0:0:0:0:
192,192,94787,128,0,95469:0:0:0:0:
64,192,95060,128,0,95742:0:0:0:0:
320,192,95333,128,0,95742:0:0:0:0:
448,192,95333,128,0,95605:0:0:0:0:
192,192,95605,128,0,96015:0:0:0:0:
448,192,95742,128,0,96287:0:0:0:0:
320,192,95878,128,0,96424:0:0:0:0:
64,192,95878,128,0,96287:0:0:0:0:
192,192,96151,128,0,96560:0:0:0:0:
64,192,96424,128,0,96833:0:0:0:0:
448,192,96424,128,0,96696:0:0:0:0:
320,192,96560,128,0,97105:0:0:0:0:
192,192,96696,128,0,96833:0:0:0:0:
448,192,96833,128,0,97378:0:0:0:0:
192,192,96969,128,0,97787:0:0:0:0:
64,192,96969,128,0,97651:0:0:0:0:
320,192,97242,128,0,97378:0:0:0:0:
320,192,97515,128,0,97924:0:0:0:0:
448,192,97515,128,0,97924:0:0:0:0:
64,192,97787,128,0,98469:0:0:0:0:
192,192,97924,128,0,98196:0:0:0:0:
320,192,98060,128,0,98333:0:0:0:0:
448,192,98060,128,0,98469:0:0:0:0:
192,192,98333,128,0,99015:0:0:0:0:
320,192,98469,128,0,98742:0:0:0:0:
64,192,98605,128,0,99015:0:0:0:0:
448,192,98605,128,0,99287:0:0:0:0:
320,192,98878,128,0,99833:0:0:0:0:
192,192,99151,128,0,99560:0:0:0:0:
64,192,99151,128,0,99560:0:0:0:0:
448,192,99424,128,0,100105:0:0:0:0:
192,192,99696,128,0,100105:0:0:0:0:
64,192,99696,128,0,99969:0:0:0:0:
320,192,99969,128,0,100378:0:0:0:0:
64,192,100105,128,0,100651:0:0:0:0:
448,192,100242,128,0,100787:0:0:0:0:
192,192,100242,128,0,100515:0:0:0:0:
320,192,100515,128,0,100651:0:0:0:0:
192,192,100651,128,0,100924:0:0:0:0:
64,192,100787,128,0,101469:0:0:0:0:
320,192,100787,128,0,101196:0:0:0:0:
448,192,100924,128,0,101196:0:0:0:0:
192,192,101060,128,0,101742:0:0:0:0:
320,192,101333,128,0,101742:0:0:0:0:
448,192,101333,128,0,101742:0:0:0:0:
64,192,101605,128,0,101742:0:0:0:0:
64,192,101878,1,0,0:0:0:0:
192,192,101878,1,0,0:0:0:0:
448,192,102151,1,0,0:0:0:0:
64,192,102424,1,0,0:0:0:0:
192,192,102424,1,0,0:0:0:0:
448,192,102696,1,0,0:0:0:0:
64,192,102969,1,0,0:0:0:0:
192,192,102969,1,0,0:0:0:0:
448,192,103242,1,0,0:0:0:0:
448,192,103378,1,0,0:0:0:0:
448,192,103515,1,0,0:0:0:0:
320,192,103515,1,0,0:0:0:0:
192,192,103515,1,0,0:0:0:0:
64,192,103515,1,0,0:0:0:0:
448,192,103787,1,0,0:0:0:0:
320,192,103787,1,0,0:0:0:0:
192,192,104060,128,0,106242:0:0:0:0:
64,192,104060,128,0,107333:0:0:0:0:
