osu file format v14

[General]
AudioFilename: audio.mp3
AudioLeadIn: 0
PreviewTime: 129527
Countdown: 1
SampleSet: Normal
StackLeniency: 0.7
Mode: 1
LetterboxInBreaks: 0
WidescreenStoryboard: 0

[Editor]
DistanceSpacing: 2
BeatDivisor: 4
GridSize: 32
TimelineZoom: 1.6

[Metadata]
Title:Shiny Jacksons
TitleUnicode:Shiny Jacksons
Artist:Yuru Camp x The Jackson 5
ArtistUnicode:Yuru Camp x The Jackson 5
Creator:[Distant]
Version:Oni
Source:Triple-Q
Tags:Triple Q Yuru Camp Jackson 5 Five
BeatmapID:1860397
BeatmapSetID:889980

[Difficulty]
HPDrainRate:5
CircleSize:2
OverallDifficulty:5
ApproachRate:8
SliderMultiplier:1.6
SliderTickRate:1

[Events]
//Background and Video events
0,0,"Cute.png",0,0
//Break Periods
//Storyboard Layer 0 (Background)
//Storyboard Layer 1 (Fail)
//Storyboard Layer 2 (Pass)
//Storyboard Layer 3 (Foreground)
//Storyboard Sound Samples

[TimingPoints]
282,545.340540540542,4,1,0,50,1,0
44454,-100,4,1,0,40,0,0
59587,-100,4,1,0,50,0,1
77175,-100,4,1,0,50,0,0
129527,-100,4,1,0,50,0,1
146978,-100,4,1,0,50,0,0
175336,-100,4,1,0,50,0,1
188424,-100,4,1,0,50,0,0
208056,-100,4,1,0,50,0,1
225507,-100,4,1,0,50,0,0

[HitObjects]
256,192,691,5,8,0:0:0:0:
256,192,1100,1,0,0:0:0:0:
256,192,1372,1,8,0:0:0:0:
256,192,2327,1,8,0:0:0:0:
256,192,2599,1,8,0:0:0:0:
256,192,2736,1,0,0:0:0:0:
256,192,2872,1,8,0:0:0:0:
256,192,3281,1,8,0:0:0:0:
256,192,3554,1,0,0:0:0:0:
256,192,4235,1,8,0:0:0:0:
256,192,4508,1,8,0:0:0:0:
256,192,4781,1,8,0:0:0:0:
256,192,4917,1,0,0:0:0:0:
256,192,5053,1,0,0:0:0:0:
256,192,5462,1,8,0:0:0:0:
256,192,5735,1,0,0:0:0:0:
256,192,6144,1,8,0:0:0:0:
256,192,6553,1,8,0:0:0:0:
256,192,6826,1,0,0:0:0:0:
256,192,7235,1,8,0:0:0:0:
256,192,7644,1,8,0:0:0:0:
256,192,7916,1,0,0:0:0:0:
256,192,8189,1,8,0:0:0:0:
90,329,8325,1,0,0:0:0:0:
256,192,8462,1,8,0:0:0:0:
256,192,8598,1,0,0:0:0:0:
256,192,8871,1,8,0:0:0:0:
256,192,9143,1,0,0:0:0:0:
256,192,9552,1,0,0:0:0:0:
256,192,9825,1,8,0:0:0:0:
256,192,9961,1,8,0:0:0:0:
256,192,10098,1,0,0:0:0:0:
256,192,10234,1,0,0:0:0:0:
256,192,10370,1,8,0:0:0:0:
256,192,10507,1,8,0:0:0:0:
256,192,10779,1,8,0:0:0:0:
256,192,10916,1,0,0:0:0:0:
256,192,11188,1,8,0:0:0:0:
256,192,11461,1,8,0:0:0:0:
256,192,11734,1,0,0:0:0:0:
256,192,12006,1,0,0:0:0:0:
256,192,12143,1,8,0:0:0:0:
256,192,12278,1,8,0:0:0:0:
256,192,12415,1,0,0:0:0:0:
256,192,12552,1,8,0:0:0:0:
256,192,12687,1,8,0:0:0:0:
256,192,12961,1,8,0:0:0:0:
256,192,13097,1,0,0:0:0:0:
256,192,13370,1,0,0:0:0:0:
256,192,13506,1,8,0:0:0:0:
256,192,13642,1,0,0:0:0:0:
256,192,13915,1,8,0:0:0:0:
256,192,14188,1,8,0:0:0:0:
256,192,14324,1,8,0:0:0:0:
256,192,14461,1,0,0:0:0:0:
256,192,14597,1,8,0:0:0:0:
256,192,14733,1,0,0:0:0:0:
256,192,14870,1,8,0:0:0:0:
256,192,15142,1,0,0:0:0:0:
256,192,15278,1,8,0:0:0:0:
256,192,15551,1,8,0:0:0:0:
256,192,15824,1,0,0:0:0:0:
256,192,16096,1,0,0:0:0:0:
256,192,16369,1,8,0:0:0:0:
256,192,16505,1,8,0:0:0:0:
256,192,16642,1,0,0:0:0:0:
256,192,16778,1,8,0:0:0:0:
256,192,16914,1,8,0:0:0:0:
256,192,17051,1,0,0:0:0:0:
256,192,17323,5,0,0:0:0:0:
256,192,17460,1,8,0:0:0:0:
256,192,17732,1,8,0:0:0:0:
256,192,17869,1,0,0:0:0:0:
256,192,18005,1,0,0:0:0:0:
256,192,18141,1,0,0:0:0:0:
256,192,18278,1,8,0:0:0:0:
256,192,18550,1,0,0:0:0:0:
256,192,18687,1,0,0:0:0:0:
256,192,18823,1,8,0:0:0:0:
256,192,18959,1,8,0:0:0:0:
256,192,19232,1,8,0:0:0:0:
256,192,19505,1,8,0:0:0:0:
256,192,19641,1,0,0:0:0:0:
256,192,19914,1,0,0:0:0:0:
256,192,20186,1,8,0:0:0:0:
256,192,20459,1,0,0:0:0:0:
256,192,20732,1,8,0:0:0:0:
256,192,20868,1,0,0:0:0:0:
256,192,21004,1,8,0:0:0:0:
256,192,21141,1,8,0:0:0:0:
256,192,21413,1,8,0:0:0:0:
256,192,21686,1,8,0:0:0:0:
256,192,21823,1,0,0:0:0:0:
256,192,22095,1,8,0:0:0:0:
256,192,22231,5,0,0:0:0:0:
256,192,22368,1,0,0:0:0:0:
256,192,22640,1,8,0:0:0:0:
256,192,22913,1,0,0:0:0:0:
256,192,23049,1,0,0:0:0:0:
256,192,23186,1,8,0:0:0:0:
256,192,23322,1,8,0:0:0:0:
256,192,23595,1,0,0:0:0:0:
256,192,23867,1,8,0:0:0:0:
256,192,24004,1,0,0:0:0:0:
256,192,24276,1,8,0:0:0:0:
256,192,24549,1,8,0:0:0:0:
256,192,24822,1,0,0:0:0:0:
256,192,25231,1,0,0:0:0:0:
256,192,25367,1,8,0:0:0:0:
256,192,25504,1,8,0:0:0:0:
256,192,25776,1,8,0:0:0:0:
256,192,26049,1,8,0:0:0:0:
256,192,26185,1,0,0:0:0:0:
256,192,26458,1,0,0:0:0:0:
256,192,26731,1,8,0:0:0:0:
256,192,26867,1,0,0:0:0:0:
256,192,27003,1,8,0:0:0:0:
256,192,27276,1,8,0:0:0:0:
256,192,27549,1,0,0:0:0:0:
256,192,27821,1,8,0:0:0:0:
256,192,27958,1,0,0:0:0:0:
256,192,28094,1,0,0:0:0:0:
256,192,28503,1,8,0:0:0:0:
256,192,28912,1,0,0:0:0:0:
256,192,29048,1,0,0:0:0:0:
256,192,29185,1,8,0:0:0:0:
256,192,29321,1,8,0:0:0:0:
256,192,29457,1,8,0:0:0:0:
256,192,29594,1,0,0:0:0:0:
256,192,29730,1,8,0:0:0:0:
256,192,30003,1,8,0:0:0:0:
256,192,30139,1,0,0:0:0:0:
256,192,30275,1,8,0:0:0:0:
256,192,30480,1,8,0:0:0:0:
256,192,30684,1,8,0:0:0:0:
256,192,30957,1,8,0:0:0:0:
256,192,31230,1,0,0:0:0:0:
256,192,31366,1,8,0:0:0:0:
256,192,31639,1,0,0:0:0:0:
256,192,31775,1,8,0:0:0:0:
256,192,31911,1,8,0:0:0:0:
256,192,32184,1,8,0:0:0:0:
256,192,32320,1,0,0:0:0:0:
256,192,32593,1,8,0:0:0:0:
256,192,32866,1,0,0:0:0:0:
256,192,33002,1,8,0:0:0:0:
256,192,33138,1,8,0:0:0:0:
256,192,33275,1,0,0:0:0:0:
256,192,33547,1,8,0:0:0:0:
256,192,33684,1,8,0:0:0:0:
256,192,33956,1,0,0:0:0:0:
256,192,34229,1,8,0:0:0:0:
256,192,34502,1,0,0:0:0:0:
256,192,34774,1,8,0:0:0:0:
256,192,34911,1,0,0:0:0:0:
256,192,35047,1,8,0:0:0:0:
256,192,35183,1,0,0:0:0:0:
256,192,35320,1,8,0:0:0:0:
256,192,35456,1,0,0:0:0:0:
256,192,35592,1,8,0:0:0:0:
256,192,36001,1,0,0:0:0:0:
256,192,36138,1,8,0:0:0:0:
256,192,36274,1,8,0:0:0:0:
256,192,36547,1,0,0:0:0:0:
256,192,36683,1,8,0:0:0:0:
256,192,37092,1,0,0:0:0:0:
256,192,37365,1,8,0:0:0:0:
256,192,37637,1,0,0:0:0:0:
256,192,37774,1,8,0:0:0:0:
256,192,38046,1,8,0:0:0:0:
256,192,38183,1,8,0:0:0:0:
256,192,38319,1,0,0:0:0:0:
256,192,38455,1,8,0:0:0:0:
256,192,38728,1,8,0:0:0:0:
256,192,38864,1,0,0:0:0:0:
256,192,39001,1,8,0:0:0:0:
256,192,39137,1,8,0:0:0:0:
256,192,39273,1,0,0:0:0:0:
256,192,39546,1,8,0:0:0:0:
256,192,39819,1,0,0:0:0:0:
256,192,39955,1,8,0:0:0:0:
256,192,40228,1,0,0:0:0:0:
256,192,40364,1,8,0:0:0:0:
256,192,40637,1,4,0:0:0:0:
256,192,41046,1,8,0:0:0:0:
256,192,41318,1,0,0:0:0:0:
256,192,41455,1,8,0:0:0:0:
256,192,41727,1,0,0:0:0:0:
256,192,42000,1,0,0:0:0:0:
256,192,42136,1,8,0:0:0:0:
256,192,42409,1,8,0:0:0:0:
256,192,42545,1,0,0:0:0:0:
256,192,42682,1,0,0:0:0:0:
256,192,42818,1,8,0:0:0:0:
256,192,43091,1,8,0:0:0:0:
256,192,43227,1,0,0:0:0:0:
256,192,43500,1,0,0:0:0:0:
256,192,43636,1,8,0:0:0:0:
256,192,43772,1,8,0:0:0:0:
256,192,44181,1,0,0:0:0:0:
256,192,44318,1,0,0:0:0:0:
256,192,44454,1,8,0:0:0:0:
256,192,44727,1,8,0:0:0:0:
256,192,44999,1,8,0:0:0:0:
256,192,45408,1,0,0:0:0:0:
256,192,45681,1,0,0:0:0:0:
256,192,45954,1,8,0:0:0:0:
256,192,46226,1,8,0:0:0:0:
256,192,46635,1,8,0:0:0:0:
256,192,46908,1,0,0:0:0:0:
256,192,47181,1,8,0:0:0:0:
256,192,47590,1,0,0:0:0:0:
256,192,47862,1,0,0:0:0:0:
256,192,48135,1,8,0:0:0:0:
256,192,48408,1,8,0:0:0:0:
256,192,48817,1,8,0:0:0:0:
256,192,49089,1,8,0:0:0:0:
256,192,49362,1,0,0:0:0:0:
256,192,49771,1,8,0:0:0:0:
256,192,50044,1,0,0:0:0:0:
256,192,50316,1,8,0:0:0:0:
256,192,50998,1,8,0:0:0:0:
256,192,51271,1,8,0:0:0:0:
256,192,51544,1,0,0:0:0:0:
256,192,51816,1,0,0:0:0:0:
256,192,51953,1,8,0:0:0:0:
256,192,52362,1,8,0:0:0:0:
256,192,52634,1,12,0:0:0:0:
256,192,52907,1,12,0:0:0:0:
256,192,53180,1,4,0:0:0:0:
256,192,53452,1,12,0:0:0:0:
256,192,53725,1,12,0:0:0:0:
256,192,53998,1,4,0:0:0:0:
256,192,54270,1,12,0:0:0:0:
256,192,54543,1,4,0:0:0:0:
256,192,54816,1,12,0:0:0:0:
256,192,55088,1,12,0:0:0:0:
256,192,55634,1,8,0:0:0:0:
256,192,55770,1,8,0:0:0:0:
256,192,55906,1,0,0:0:0:0:
256,192,56179,1,8,0:0:0:0:
256,192,56315,1,8,0:0:0:0:
256,192,56452,1,0,0:0:0:0:
256,192,56724,1,8,0:0:0:0:
256,192,56861,1,8,0:0:0:0:
256,192,56997,1,0,0:0:0:0:
256,192,57270,1,0,0:0:0:0:
256,192,57406,1,8,0:0:0:0:
256,192,57542,1,8,0:0:0:0:
256,192,57815,1,8,0:0:0:0:
256,192,57951,1,0,0:0:0:0:
256,192,58088,1,8,0:0:0:0:
256,192,58360,1,8,0:0:0:0:
256,192,58497,1,8,0:0:0:0:
256,192,58633,1,8,0:0:0:0:
256,192,59178,1,0,0:0:0:0:
256,192,59587,1,0,0:0:0:0:
256,192,59996,1,0,0:0:0:0:
256,192,60269,1,0,0:0:0:0:
256,192,60542,1,0,0:0:0:0:
256,192,60678,1,0,0:0:0:0:
256,192,60814,1,0,0:0:0:0:
256,192,61223,1,0,0:0:0:0:
256,192,61496,1,0,0:0:0:0:
256,192,61632,1,0,0:0:0:0:
256,192,61769,1,0,0:0:0:0:
256,192,62178,1,0,0:0:0:0:
256,192,62450,1,0,0:0:0:0:
256,192,62723,1,0,0:0:0:0:
256,192,62859,1,0,0:0:0:0:
256,192,62996,1,0,0:0:0:0:
256,192,63132,1,0,0:0:0:0:
256,192,63405,1,0,0:0:0:0:
256,192,63677,1,0,0:0:0:0:
256,192,63814,1,0,0:0:0:0:
256,192,63950,1,0,0:0:0:0:
256,192,64086,1,0,0:0:0:0:
256,192,64359,1,0,0:0:0:0:
256,192,64632,1,0,0:0:0:0:
256,192,65041,1,0,0:0:0:0:
256,192,65177,1,0,0:0:0:0:
256,192,65450,1,0,0:0:0:0:
256,192,65722,1,0,0:0:0:0:
256,192,66131,1,0,0:0:0:0:
256,192,66268,1,0,0:0:0:0:
256,192,66540,1,0,0:0:0:0:
256,192,66813,1,0,0:0:0:0:
256,192,67086,1,0,0:0:0:0:
256,192,67222,1,0,0:0:0:0:
256,192,67358,1,0,0:0:0:0:
256,192,67495,1,0,0:0:0:0:
256,192,67767,1,0,0:0:0:0:
256,192,68108,1,0,0:0:0:0:
256,192,68449,1,0,0:0:0:0:
256,192,68722,1,0,0:0:0:0:
256,192,68994,1,0,0:0:0:0:
256,192,69267,1,0,0:0:0:0:
256,192,69403,1,0,0:0:0:0:
256,192,69540,1,0,0:0:0:0:
256,192,69949,1,0,0:0:0:0:
256,192,70221,1,0,0:0:0:0:
256,192,70358,1,0,0:0:0:0:
256,192,70494,1,0,0:0:0:0:
256,192,70630,1,0,0:0:0:0:
256,192,70903,1,0,0:0:0:0:
256,192,71176,1,0,0:0:0:0:
256,192,71448,1,0,0:0:0:0:
256,192,71585,1,0,0:0:0:0:
256,192,71721,1,0,0:0:0:0:
256,192,71857,1,0,0:0:0:0:
256,192,72130,1,0,0:0:0:0:
256,192,72403,1,0,0:0:0:0:
256,192,72539,1,0,0:0:0:0:
256,192,72675,1,0,0:0:0:0:
256,192,72812,1,0,0:0:0:0:
256,192,73084,1,0,0:0:0:0:
256,192,73357,1,0,0:0:0:0:
256,192,73766,1,0,0:0:0:0:
256,192,73902,1,0,0:0:0:0:
256,192,74175,1,0,0:0:0:0:
256,192,74448,1,0,0:0:0:0:
256,192,74857,1,0,0:0:0:0:
256,192,74993,1,0,0:0:0:0:
256,192,75266,1,0,0:0:0:0:
256,192,75538,1,0,0:0:0:0:
256,192,75811,1,0,0:0:0:0:
256,192,75948,1,0,0:0:0:0:
256,192,76084,1,0,0:0:0:0:
256,192,76220,1,0,0:0:0:0:
256,192,76493,1,0,0:0:0:0:
256,192,76766,1,0,0:0:0:0:
256,192,76902,1,0,0:0:0:0:
256,192,77175,1,0,0:0:0:0:
256,192,77447,1,0,0:0:0:0:
256,192,77720,1,0,0:0:0:0:
256,192,77993,1,0,0:0:0:0:
256,192,78129,1,0,0:0:0:0:
256,192,78265,1,0,0:0:0:0:
256,192,78402,1,0,0:0:0:0:
256,192,78674,6,0,L|320:192,5,40
96,224,79356,1,0,0:0:0:0:
256,192,79629,1,0,0:0:0:0:
256,192,79901,1,0,0:0:0:0:
256,192,80174,1,0,0:0:0:0:
256,192,80447,1,0,0:0:0:0:
256,192,80583,1,0,0:0:0:0:
256,192,80856,1,0,0:0:0:0:
256,192,80992,1,0,0:0:0:0:
256,192,81265,1,0,0:0:0:0:
256,192,81537,1,0,0:0:0:0:
256,192,81810,1,0,0:0:0:0:
256,192,82083,1,0,0:0:0:0:
256,192,82355,1,0,0:0:0:0:
256,192,82628,1,0,0:0:0:0:
256,192,82764,1,0,0:0:0:0:
256,192,82901,1,0,0:0:0:0:
256,192,83037,1,0,0:0:0:0:
256,192,83173,1,0,0:0:0:0:
256,192,83446,1,0,0:0:0:0:
256,192,83719,1,0,0:0:0:0:
256,192,83991,1,0,0:0:0:0:
256,192,84264,1,0,0:0:0:0:
256,192,84537,1,0,0:0:0:0:
256,192,84809,1,0,0:0:0:0:
256,192,85082,1,0,0:0:0:0:
256,192,85355,1,0,0:0:0:0:
256,192,85627,1,0,0:0:0:0:
256,192,85764,12,0,86991,0:0:0:0:
256,192,87263,5,0,0:0:0:0:
256,192,87400,1,0,0:0:0:0:
256,192,87536,1,0,0:0:0:0:
256,192,87672,1,0,0:0:0:0:
256,192,87809,1,0,0:0:0:0:
256,192,88081,1,0,0:0:0:0:
256,192,88354,1,0,0:0:0:0:
256,192,88490,1,0,0:0:0:0:
256,192,88627,1,0,0:0:0:0:
256,192,88763,1,0,0:0:0:0:
256,192,88899,1,0,0:0:0:0:
256,192,89036,1,0,0:0:0:0:
256,192,89445,1,0,0:0:0:0:
256,192,89717,1,0,0:0:0:0:
256,192,89854,1,0,0:0:0:0:
256,192,89990,1,0,0:0:0:0:
256,192,90263,1,0,0:0:0:0:
256,192,90535,1,0,0:0:0:0:
256,192,90672,1,0,0:0:0:0:
256,192,90808,1,0,0:0:0:0:
256,192,90944,1,0,0:0:0:0:
256,192,91081,1,0,0:0:0:0:
256,192,91217,1,0,0:0:0:0:
256,192,91626,1,0,0:0:0:0:
256,192,91899,1,0,0:0:0:0:
256,192,92035,1,0,0:0:0:0:
256,192,92171,1,0,0:0:0:0:
256,192,92444,1,0,0:0:0:0:
256,192,92717,1,0,0:0:0:0:
256,192,92853,1,0,0:0:0:0:
256,192,92989,1,0,0:0:0:0:
256,192,93126,1,0,0:0:0:0:
256,192,93262,1,0,0:0:0:0:
256,192,93398,1,0,0:0:0:0:
256,192,93807,1,0,0:0:0:0:
256,192,94080,1,0,0:0:0:0:
256,192,94216,1,0,0:0:0:0:
256,192,94353,1,0,0:0:0:0:
256,192,94625,1,0,0:0:0:0:
256,192,94898,1,0,0:0:0:0:
256,192,95034,1,0,0:0:0:0:
256,192,95171,1,0,0:0:0:0:
256,192,95307,1,0,0:0:0:0:
256,192,95443,1,0,0:0:0:0:
256,192,95716,1,0,0:0:0:0:
256,192,95852,1,0,0:0:0:0:
256,192,95989,1,0,0:0:0:0:
256,192,96261,1,0,0:0:0:0:
256,192,96534,1,0,0:0:0:0:
256,192,96807,1,0,0:0:0:0:
256,192,96943,1,0,0:0:0:0:
256,192,97216,1,0,0:0:0:0:
256,192,97352,1,0,0:0:0:0:
256,192,97488,1,0,0:0:0:0:
256,192,97625,1,0,0:0:0:0:
256,192,97761,1,0,0:0:0:0:
256,192,97897,1,0,0:0:0:0:
256,192,98034,1,0,0:0:0:0:
256,192,98306,1,0,0:0:0:0:
256,192,98443,1,0,0:0:0:0:
256,192,98715,1,0,0:0:0:0:
256,192,98852,1,0,0:0:0:0:
256,192,98988,1,0,0:0:0:0:
256,192,99124,1,0,0:0:0:0:
256,192,99261,1,0,0:0:0:0:
256,192,99533,1,0,0:0:0:0:
256,192,99670,1,0,0:0:0:0:
256,192,99942,1,0,0:0:0:0:
256,192,100079,1,0,0:0:0:0:
256,192,100351,1,0,0:0:0:0:
256,192,100488,1,0,0:0:0:0:
256,192,100897,1,0,0:0:0:0:
256,192,101170,1,0,0:0:0:0:
256,192,101306,1,0,0:0:0:0:
256,192,101579,1,0,0:0:0:0:
256,192,101851,1,0,0:0:0:0:
256,192,102124,1,0,0:0:0:0:
256,192,102397,1,0,0:0:0:0:
256,192,102533,1,0,0:0:0:0:
256,192,102669,1,0,0:0:0:0:
256,192,102942,1,0,0:0:0:0:
256,192,103078,1,0,0:0:0:0:
256,192,103351,1,0,0:0:0:0:
256,192,103624,1,0,0:0:0:0:
256,192,103896,1,0,0:0:0:0:
256,192,104169,1,0,0:0:0:0:
256,192,104305,1,0,0:0:0:0:
256,192,104442,1,0,0:0:0:0:
256,192,104578,1,0,0:0:0:0:
256,192,104714,1,0,0:0:0:0:
256,192,104851,1,0,0:0:0:0:
256,192,104987,1,0,0:0:0:0:
256,192,105260,1,0,0:0:0:0:
256,192,105532,1,0,0:0:0:0:
256,192,105805,5,0,0:0:0:0:
256,192,106078,1,0,0:0:0:0:
256,192,106350,1,0,0:0:0:0:
256,192,106487,1,0,0:0:0:0:
256,192,106623,1,0,0:0:0:0:
256,192,106759,1,0,0:0:0:0:
256,192,107032,1,0,0:0:0:0:
256,192,107168,1,0,0:0:0:0:
256,192,107441,1,0,0:0:0:0:
256,192,107714,1,0,0:0:0:0:
256,192,107986,1,0,0:0:0:0:
256,192,108259,1,0,0:0:0:0:
256,192,108395,1,0,0:0:0:0:
256,192,108668,1,0,0:0:0:0:
256,192,108804,1,0,0:0:0:0:
256,192,109213,1,0,0:0:0:0:
256,192,109350,1,0,0:0:0:0:
256,192,109622,1,0,0:0:0:0:
256,192,109759,1,0,0:0:0:0:
256,192,109895,1,0,0:0:0:0:
256,192,110168,1,0,0:0:0:0:
256,192,110440,1,0,0:0:0:0:
256,192,110713,1,0,0:0:0:0:
256,192,110849,1,0,0:0:0:0:
256,192,110986,1,0,0:0:0:0:
256,192,111190,1,0,0:0:0:0:
256,192,111395,1,0,0:0:0:0:
256,192,111531,1,0,0:0:0:0:
256,192,111940,1,0,0:0:0:0:
256,192,112076,1,0,0:0:0:0:
256,192,112349,1,0,0:0:0:0:
256,192,112622,1,0,0:0:0:0:
256,192,112758,1,0,0:0:0:0:
256,192,113031,1,0,0:0:0:0:
256,192,113167,1,0,0:0:0:0:
256,192,113440,1,0,0:0:0:0:
256,192,113576,1,0,0:0:0:0:
256,192,113712,1,0,0:0:0:0:
256,192,113985,1,0,0:0:0:0:
256,192,114258,1,0,0:0:0:0:
256,192,114530,1,0,0:0:0:0:
256,192,114803,1,0,0:0:0:0:
256,192,115076,1,0,0:0:0:0:
256,192,115348,1,0,0:0:0:0:
256,192,115485,1,0,0:0:0:0:
256,192,115621,1,0,0:0:0:0:
256,192,115757,1,0,0:0:0:0:
256,192,115894,1,0,0:0:0:0:
256,192,116166,1,0,0:0:0:0:
256,192,116439,1,0,0:0:0:0:
256,192,116984,1,0,0:0:0:0:
256,192,117257,1,0,0:0:0:0:
256,192,117393,1,0,0:0:0:0:
256,192,117666,1,0,0:0:0:0:
256,192,117802,1,0,0:0:0:0:
256,192,117939,1,0,0:0:0:0:
256,192,118075,1,0,0:0:0:0:
256,192,118348,1,0,0:0:0:0:
256,192,118620,1,0,0:0:0:0:
256,192,118893,1,0,0:0:0:0:
256,192,119166,1,0,0:0:0:0:
256,192,119438,1,0,0:0:0:0:
256,192,119711,1,0,0:0:0:0:
256,192,120120,1,0,0:0:0:0:
256,192,120529,1,0,0:0:0:0:
256,192,120802,1,0,0:0:0:0:
256,192,121074,1,0,0:0:0:0:
256,192,121211,1,0,0:0:0:0:
256,192,121347,1,0,0:0:0:0:
256,192,121620,1,0,0:0:0:0:
256,192,121892,1,0,0:0:0:0:
256,192,122029,1,0,0:0:0:0:
256,192,122165,1,0,0:0:0:0:
256,192,122438,1,0,0:0:0:0:
256,192,122710,1,0,0:0:0:0:
256,192,122983,1,0,0:0:0:0:
256,192,123256,1,0,0:0:0:0:
256,192,123528,1,0,0:0:0:0:
256,192,123801,1,0,0:0:0:0:
256,192,124074,1,0,0:0:0:0:
256,192,124346,1,0,0:0:0:0:
256,192,124619,1,0,0:0:0:0:
256,192,124892,1,0,0:0:0:0:
256,192,125437,1,0,0:0:0:0:
256,192,125573,1,0,0:0:0:0:
256,192,125710,1,0,0:0:0:0:
256,192,125982,1,0,0:0:0:0:
256,192,126119,1,0,0:0:0:0:
256,192,126255,1,0,0:0:0:0:
256,192,126528,1,0,0:0:0:0:
256,192,126664,1,0,0:0:0:0:
256,192,126801,1,0,0:0:0:0:
256,192,127073,1,0,0:0:0:0:
256,192,127210,1,0,0:0:0:0:
256,192,127346,1,0,0:0:0:0:
256,192,127619,1,0,0:0:0:0:
256,192,127755,1,0,0:0:0:0:
256,192,127891,1,0,0:0:0:0:
256,192,128164,1,0,0:0:0:0:
256,192,128300,1,0,0:0:0:0:
256,192,128437,1,0,0:0:0:0:
256,192,128709,1,0,0:0:0:0:
256,192,128982,1,0,0:0:0:0:
256,192,129118,1,0,0:0:0:0:
256,192,129255,1,0,0:0:0:0:
256,192,129527,1,0,0:0:0:0:
256,192,130073,1,0,0:0:0:0:
256,192,130209,1,0,0:0:0:0:
256,192,130482,1,0,0:0:0:0:
256,192,130754,1,0,0:0:0:0:
256,192,130891,1,0,0:0:0:0:
256,192,131027,1,0,0:0:0:0:
256,192,131368,1,0,0:0:0:0:
256,192,131709,1,0,0:0:0:0:
256,192,132254,1,0,0:0:0:0:
256,192,132527,1,0,0:0:0:0:
256,192,132663,1,0,0:0:0:0:
256,192,132799,1,0,0:0:0:0:
256,192,132936,1,0,0:0:0:0:
256,192,133072,1,0,0:0:0:0:
256,192,133208,1,0,0:0:0:0:
256,192,133345,1,0,0:0:0:0:
256,192,133617,1,0,0:0:0:0:
256,192,133890,1,0,0:0:0:0:
256,192,134026,1,0,0:0:0:0:
256,192,134163,1,0,0:0:0:0:
256,192,134435,1,0,0:0:0:0:
256,192,134572,1,0,0:0:0:0:
256,192,134708,1,0,0:0:0:0:
256,192,134981,1,0,0:0:0:0:
256,192,135117,1,0,0:0:0:0:
256,192,135253,1,0,0:0:0:0:
256,192,135526,1,0,0:0:0:0:
256,192,136071,2,0,L|352:192,2,80
256,192,137026,1,0,0:0:0:0:
256,192,137162,1,0,0:0:0:0:
256,192,137298,1,0,0:0:0:0:
256,192,137435,1,0,0:0:0:0:
256,192,137707,1,0,0:0:0:0:
256,192,137980,1,0,0:0:0:0:
256,192,138253,1,0,0:0:0:0:
256,192,138798,1,0,0:0:0:0:
256,192,139071,1,0,0:0:0:0:
256,192,139207,1,0,0:0:0:0:
256,192,139480,1,0,0:0:0:0:
256,192,139752,1,0,0:0:0:0:
256,192,140298,1,0,0:0:0:0:
256,192,140434,1,0,0:0:0:0:
256,192,140707,1,0,0:0:0:0:
256,192,140843,1,0,0:0:0:0:
256,192,140979,1,0,0:0:0:0:
256,192,141388,1,0,0:0:0:0:
256,192,141525,1,0,0:0:0:0:
256,192,141661,1,0,0:0:0:0:
256,192,141797,1,0,0:0:0:0:
256,192,142070,1,0,0:0:0:0:
256,192,142343,1,0,0:0:0:0:
256,192,142615,1,0,0:0:0:0:
256,192,143161,1,0,0:0:0:0:
256,192,143706,1,0,0:0:0:0:
256,192,144251,1,0,0:0:0:0:
256,192,144797,1,0,0:0:0:0:
256,192,145342,1,0,0:0:0:0:
256,192,145478,1,0,0:0:0:0:
256,192,145751,1,0,0:0:0:0:
256,192,146024,1,0,0:0:0:0:
256,192,146160,1,0,0:0:0:0:
256,192,146296,1,0,0:0:0:0:
256,192,146433,1,0,0:0:0:0:
256,192,146978,1,0,0:0:0:0:
256,192,147251,1,0,0:0:0:0:
256,192,147523,1,0,0:0:0:0:
256,192,147796,1,0,0:0:0:0:
256,192,148069,1,0,0:0:0:0:
256,192,148205,1,0,0:0:0:0:
256,192,148341,1,0,0:0:0:0:
256,192,148478,1,0,0:0:0:0:
256,192,149159,1,0,0:0:0:0:
256,192,149432,1,0,0:0:0:0:
256,192,149705,1,0,0:0:0:0:
256,192,149977,1,0,0:0:0:0:
256,192,150250,1,0,0:0:0:0:
256,192,150386,1,0,0:0:0:0:
256,192,150659,1,0,0:0:0:0:
256,192,150795,1,0,0:0:0:0:
256,192,151068,1,0,0:0:0:0:
256,192,151341,1,0,0:0:0:0:
256,192,151614,1,0,0:0:0:0:
256,192,151886,1,0,0:0:0:0:
256,192,152159,1,0,0:0:0:0:
256,192,152432,1,0,0:0:0:0:
256,192,152568,1,0,0:0:0:0:
256,192,152841,1,0,0:0:0:0:
256,192,152977,1,0,0:0:0:0:
256,192,153250,1,0,0:0:0:0:
256,192,153522,1,0,0:0:0:0:
256,192,153795,1,0,0:0:0:0:
256,192,154068,1,0,0:0:0:0:
256,192,154340,1,0,0:0:0:0:
256,192,154613,1,0,0:0:0:0:
256,192,154886,1,0,0:0:0:0:
256,192,155158,1,0,0:0:0:0:
256,192,155295,1,0,0:0:0:0:
256,192,155567,1,0,0:0:0:0:
256,192,155704,12,0,157612,0:0:0:0:
256,192,157885,5,0,0:0:0:0:
256,192,158021,5,0,0:0:0:0:
256,192,158158,5,0,0:0:0:0:
256,192,158430,1,0,0:0:0:0:
256,192,158703,1,0,0:0:0:0:
256,192,158976,1,0,0:0:0:0:
256,192,159385,1,0,0:0:0:0:
256,192,159794,1,0,0:0:0:0:
256,192,159930,1,0,0:0:0:0:
256,192,160066,1,0,0:0:0:0:
256,192,160339,1,0,0:0:0:0:
256,192,160612,1,0,0:0:0:0:
256,192,160884,1,0,0:0:0:0:
256,192,161157,1,0,0:0:0:0:
256,192,161566,1,0,0:0:0:0:
256,192,161702,1,0,0:0:0:0:
256,192,161839,1,0,0:0:0:0:
256,192,161975,1,0,0:0:0:0:
256,192,162111,1,0,0:0:0:0:
256,192,162248,1,0,0:0:0:0:
256,192,162520,1,0,0:0:0:0:
256,192,162793,1,0,0:0:0:0:
256,192,163066,1,0,0:0:0:0:
256,192,163338,1,0,0:0:0:0:
256,192,163747,1,0,0:0:0:0:
256,192,164156,1,0,0:0:0:0:
256,192,164293,1,0,0:0:0:0:
256,192,164429,1,0,0:0:0:0:
256,192,164974,1,0,0:0:0:0:
256,192,165383,1,0,0:0:0:0:
256,192,165520,1,0,0:0:0:0:
256,192,165792,1,0,0:0:0:0:
256,192,165929,1,0,0:0:0:0:
256,192,166065,1,0,0:0:0:0:
256,192,166201,1,0,0:0:0:0:
256,192,166338,1,0,0:0:0:0:
256,192,166610,1,0,0:0:0:0:
256,192,166883,1,0,0:0:0:0:
256,192,167019,1,0,0:0:0:0:
256,192,167428,1,0,0:0:0:0:
256,192,167701,1,0,0:0:0:0:
256,192,168110,1,0,0:0:0:0:
256,192,168519,1,0,0:0:0:0:
256,192,168792,1,0,0:0:0:0:
256,192,169064,1,0,0:0:0:0:
256,192,169610,1,0,0:0:0:0:
256,192,169882,1,0,0:0:0:0:
256,192,170155,1,0,0:0:0:0:
256,192,170428,1,0,0:0:0:0:
256,192,170564,1,0,0:0:0:0:
256,192,170700,1,0,0:0:0:0:
256,192,170837,1,0,0:0:0:0:
256,192,170973,1,0,0:0:0:0:
256,192,171246,1,0,0:0:0:0:
256,192,171382,1,0,0:0:0:0:
256,192,171518,1,0,0:0:0:0:
256,192,171791,1,0,0:0:0:0:
256,192,172064,1,0,0:0:0:0:
256,192,172336,1,0,0:0:0:0:
256,192,172473,1,0,0:0:0:0:
256,192,172882,1,0,0:0:0:0:
256,192,173427,1,0,0:0:0:0:
256,192,173836,1,0,0:0:0:0:
256,192,173972,1,0,0:0:0:0:
256,192,174245,1,0,0:0:0:0:
256,192,174790,1,0,0:0:0:0:
256,192,175336,1,0,0:0:0:0:
256,192,175472,1,0,0:0:0:0:
256,192,175881,1,0,0:0:0:0:
256,192,176018,1,0,0:0:0:0:
256,192,176426,1,0,0:0:0:0:
256,192,176563,1,0,0:0:0:0:
256,192,176699,1,0,0:0:0:0:
256,192,176836,1,0,0:0:0:0:
256,192,176972,1,0,0:0:0:0:
256,192,177517,1,0,0:0:0:0:
256,192,177654,1,0,0:0:0:0:
256,192,177790,1,0,0:0:0:0:
256,192,178063,1,0,0:0:0:0:
256,192,178199,1,0,0:0:0:0:
256,192,178335,1,0,0:0:0:0:
256,192,178608,1,0,0:0:0:0:
256,192,178744,1,0,0:0:0:0:
256,192,178881,1,0,0:0:0:0:
256,192,179017,1,0,0:0:0:0:
256,192,179153,1,0,0:0:0:0:
256,192,179699,1,0,0:0:0:0:
256,192,179835,1,0,0:0:0:0:
256,192,179971,1,0,0:0:0:0:
256,192,180244,1,0,0:0:0:0:
256,192,180380,1,0,0:0:0:0:
256,192,180517,1,0,0:0:0:0:
256,192,180789,1,0,0:0:0:0:
256,192,180926,1,0,0:0:0:0:
256,192,181062,1,0,0:0:0:0:
256,192,181198,1,0,0:0:0:0:
256,192,181335,1,0,0:0:0:0:
256,192,181880,1,0,0:0:0:0:
256,192,182016,1,0,0:0:0:0:
256,192,182153,1,0,0:0:0:0:
256,192,182425,1,0,0:0:0:0:
256,192,182562,1,0,0:0:0:0:
256,192,182698,1,0,0:0:0:0:
256,192,182971,1,0,0:0:0:0:
256,192,183107,1,0,0:0:0:0:
256,192,183243,1,0,0:0:0:0:
256,192,183380,1,0,0:0:0:0:
256,192,183516,1,0,0:0:0:0:
256,192,184061,1,0,0:0:0:0:
256,192,184198,1,0,0:0:0:0:
256,192,184334,1,0,0:0:0:0:
256,192,184607,1,0,0:0:0:0:
256,192,184743,1,0,0:0:0:0:
256,192,184879,1,0,0:0:0:0:
256,192,185152,1,0,0:0:0:0:
256,192,185288,1,0,0:0:0:0:
256,192,185425,1,0,0:0:0:0:
256,192,185561,1,0,0:0:0:0:
256,192,185697,1,0,0:0:0:0:
256,192,185970,1,0,0:0:0:0:
256,192,186243,1,0,0:0:0:0:
256,192,186379,1,0,0:0:0:0:
256,192,186515,1,0,0:0:0:0:
256,192,186788,1,0,0:0:0:0:
256,192,187061,1,0,0:0:0:0:
256,192,187333,12,0,188424,0:0:0:0:
256,192,188697,5,0,0:0:0:0:
256,192,188833,1,0,0:0:0:0:
256,192,188969,1,0,0:0:0:0:
256,192,189242,1,0,0:0:0:0:
256,192,189515,1,0,0:0:0:0:
256,192,189651,1,0,0:0:0:0:
256,192,189787,1,0,0:0:0:0:
256,192,189924,1,0,0:0:0:0:
256,192,190060,1,0,0:0:0:0:
256,192,190333,1,0,0:0:0:0:
256,192,190605,1,0,0:0:0:0:
256,192,190878,1,0,0:0:0:0:
256,192,191151,1,0,0:0:0:0:
256,192,191423,1,0,0:0:0:0:
256,192,191560,1,0,0:0:0:0:
256,192,191969,1,0,0:0:0:0:
256,192,192241,1,0,0:0:0:0:
256,192,192514,1,0,0:0:0:0:
256,192,192787,1,0,0:0:0:0:
256,192,193059,1,0,0:0:0:0:
256,192,193332,1,0,0:0:0:0:
256,192,193877,1,0,0:0:0:0:
256,192,194423,1,0,0:0:0:0:
256,192,194695,1,0,0:0:0:0:
256,192,194832,1,0,0:0:0:0:
256,192,194968,1,0,0:0:0:0:
256,192,195241,1,0,0:0:0:0:
256,192,195377,1,0,0:0:0:0:
256,192,195513,1,0,0:0:0:0:
256,192,195786,1,0,0:0:0:0:
256,192,195922,1,0,0:0:0:0:
256,192,196331,1,0,0:0:0:0:
256,192,196604,1,0,0:0:0:0:
256,192,196877,1,0,0:0:0:0:
256,192,197149,1,0,0:0:0:0:
256,192,197422,1,0,0:0:0:0:
256,192,197558,1,0,0:0:0:0:
256,192,197695,1,0,0:0:0:0:
256,192,197967,1,0,0:0:0:0:
256,192,198240,1,0,0:0:0:0:
256,192,198649,1,0,0:0:0:0:
256,192,199058,1,0,0:0:0:0:
256,192,199331,1,0,0:0:0:0:
256,192,199603,1,0,0:0:0:0:
256,192,199740,1,0,0:0:0:0:
256,192,200012,1,0,0:0:0:0:
256,192,200421,1,0,0:0:0:0:
256,192,200694,1,0,0:0:0:0:
256,192,200830,1,0,0:0:0:0:
256,192,200967,1,0,0:0:0:0:
256,192,201103,1,0,0:0:0:0:
256,192,201239,1,0,0:0:0:0:
256,192,201512,1,0,0:0:0:0:
256,192,202058,1,0,0:0:0:0:
256,192,202603,1,0,0:0:0:0:
256,192,202739,1,0,0:0:0:0:
256,192,202876,1,0,0:0:0:0:
256,192,203148,1,0,0:0:0:0:
256,192,203421,5,0,0:0:0:0:
256,192,203694,1,0,0:0:0:0:
256,192,203966,1,0,0:0:0:0:
256,192,204239,1,0,0:0:0:0:
256,192,204512,1,0,0:0:0:0:
256,192,204784,1,0,0:0:0:0:
256,192,205057,1,0,0:0:0:0:
256,192,205330,1,0,0:0:0:0:
256,192,205602,1,0,0:0:0:0:
256,192,205875,1,0,0:0:0:0:
256,192,206148,1,0,0:0:0:0:
256,192,206557,1,0,0:0:0:0:
256,192,206693,1,0,0:0:0:0:
256,192,206966,1,0,0:0:0:0:
256,192,207102,1,0,0:0:0:0:
256,192,207375,1,0,0:0:0:0:
256,192,207647,1,0,0:0:0:0:
256,192,207784,1,0,0:0:0:0:
256,192,208056,1,0,0:0:0:0:
256,192,208329,1,0,0:0:0:0:
256,192,208465,1,0,0:0:0:0:
256,192,208602,1,0,0:0:0:0:
256,192,209011,1,0,0:0:0:0:
256,192,209147,1,0,0:0:0:0:
256,192,209420,1,0,0:0:0:0:
256,192,209692,1,0,0:0:0:0:
256,192,209829,1,0,0:0:0:0:
256,192,209965,1,0,0:0:0:0:
256,192,210101,1,0,0:0:0:0:
256,192,210238,1,0,0:0:0:0:
256,192,210510,1,0,0:0:0:0:
256,192,210783,1,0,0:0:0:0:
256,192,211192,5,0,0:0:0:0:
256,192,211601,1,0,0:0:0:0:
256,192,211874,1,0,0:0:0:0:
256,192,212146,1,0,0:0:0:0:
256,192,212283,1,0,0:0:0:0:
256,192,212419,1,0,0:0:0:0:
256,192,212692,1,0,0:0:0:0:
256,192,212964,1,0,0:0:0:0:
256,192,213237,1,0,0:0:0:0:
256,192,213510,1,0,0:0:0:0:
256,192,213782,1,0,0:0:0:0:
256,192,213919,1,0,0:0:0:0:
256,192,214328,1,0,0:0:0:0:
256,192,214600,1,0,0:0:0:0:
256,192,215146,1,0,0:0:0:0:
256,192,215555,1,0,0:0:0:0:
