osu file format v14

[General]
AudioFilename: audio.mp3
AudioLeadIn: 0
PreviewTime: 52107
Countdown: 0
SampleSet: Soft
StackLeniency: 0.6
Mode: 0
LetterboxInBreaks: 0
WidescreenStoryboard: 1
EpilepsyWarning: 1

[Editor]
Bookmarks: 8727,141207
DistanceSpacing: 1.1
BeatDivisor: 4
GridSize: 32
TimelineZoom: 2.799999

[Metadata]
Title:humanly
TitleUnicode:人間らしい
Artist:YurryCanon feat. GUMI
ArtistUnicode:ユリイ・カノン feat. GUMI
Creator:Petal
Version:milr_'s Insane
Source:
Tags:japanese pop jpop j-pop rock j-rock jrock vocaloid ボカロ ningenrashii original Yurry Canon full len garden fast satellite milr_ firika matha
BeatmapID:3907940
BeatmapSetID:1886627

[Difficulty]
HPDrainRate:4.5
CircleSize:3.8
OverallDifficulty:7.5
ApproachRate:9
SliderMultiplier:1.5
SliderTickRate:1

[Events]
//Background and Video events
0,0,"bg.jpg",0,0
Video,0,"video.mp4"
//Break Periods
2,76127,83007
2,118367,125247
//Storyboard Layer 0 (Background)
//Storyboard Layer 1 (Fail)
//Storyboard Layer 2 (Pass)
//Storyboard Layer 3 (Foreground)
//Storyboard Layer 4 (Overlay)
//Storyboard Sound Samples

[TimingPoints]
1047,240,4,2,2,60,1,0
1166,-100,4,2,1,60,0,0
1287,-100,4,2,2,60,0,0
1646,-100,4,2,1,60,0,0
1766,-100,4,2,2,60,0,0
3086,-100,4,2,1,60,0,0
3207,-100,4,2,2,60,0,0
3566,-100,4,2,1,60,0,0
3686,-100,4,2,2,60,0,0
4647,-100,4,2,3,60,0,0
4887,-100,4,2,2,60,0,0
5006,-100,4,2,1,60,0,0
5127,-100,4,2,2,60,0,0
5486,-100,4,2,1,60,0,0
5606,-100,4,2,2,60,0,0
6926,-100,4,2,1,60,0,0
7047,-100,4,2,2,50,0,0
7287,-100,4,2,2,60,0,0
7406,-100,4,2,1,60,0,0
7526,-100,4,2,2,60,0,0
8487,-100,4,2,3,60,0,0
8727,-100,4,2,2,70,0,0
12507,-100,4,2,2,5,0,0
12567,-100,4,2,4,70,0,0
15447,-100,4,2,2,70,0,0
16347,-100,4,2,2,5,0,0
16407,-100,4,2,2,70,0,0
20187,-100,4,2,2,5,0,0
20247,-100,4,2,4,70,0,0
23127,-100,4,2,2,70,0,0
24027,-100,4,2,2,5,0,0
24086,-100,4,2,3,50,0,0
26007,-111.111111111111,4,2,2,50,0,0
29847,-111.111111111111,4,2,4,50,0,0
32727,-111.111111111111,4,2,4,60,0,0
33687,-111.111111111111,4,2,3,45,0,0
37047,-111.111111111111,4,2,2,50,0,0
37527,-111.111111111111,4,2,4,50,0,0
45207,-111.111111111111,4,2,2,60,0,0
49047,-111.111111111111,4,2,4,60,0,0
50967,-111.111111111111,4,2,2,60,0,0
51147,-111.111111111111,4,2,2,5,0,0
51207,-111.111111111111,4,2,2,60,0,0
51387,-111.111111111111,4,2,2,5,0,0
51447,-111.111111111111,4,2,2,60,0,0
51627,-111.111111111111,4,2,2,5,0,0
51687,-111.111111111111,4,2,2,60,0,0
51867,-111.111111111111,4,2,2,5,0,0
51927,-111.111111111111,4,2,2,60,0,0
52887,-100,4,2,2,75,0,1
54327,-100,4,2,4,75,0,1
54747,-100,4,2,4,5,0,1
54807,-100,4,2,4,75,0,1
60567,-100,4,2,2,75,0,1
61767,-100,4,2,4,75,0,1
62427,-100,4,2,4,5,0,1
62487,-100,4,2,4,75,0,1
64347,-100,4,2,4,5,0,1
64407,-100,4,2,4,75,0,1
68247,-100,4,2,2,75,0,1
74847,-100,4,2,4,75,0,0
75927,-111.111111111111,4,2,2,60,0,0
83607,-111.111111111111,4,2,2,50,0,0
91287,-111.111111111111,4,2,4,50,0,0
92427,-111.111111111111,4,2,4,5,0,0
92487,-111.111111111111,4,2,4,50,0,0
92667,-111.111111111111,4,2,4,5,0,0
92727,-111.111111111111,4,2,4,50,0,0
92907,-111.111111111111,4,2,4,5,0,0
92967,-111.111111111111,4,2,4,50,0,0
93207,-133.333333333333,4,2,4,50,0,0
94167,-111.111111111111,4,2,4,50,0,0
95127,-111.111111111111,4,2,2,60,0,0
98967,-111.111111111111,4,2,4,60,0,0
100887,-111.111111111111,4,2,2,60,0,0
101067,-111.111111111111,4,2,2,5,0,0
101127,-111.111111111111,4,2,2,60,0,0
101307,-111.111111111111,4,2,2,5,0,0
101367,-111.111111111111,4,2,2,60,0,0
101547,-111.111111111111,4,2,2,5,0,0
101607,-111.111111111111,4,2,2,60,0,0
101787,-111.111111111111,4,2,2,5,0,0
101847,-111.111111111111,4,2,2,60,0,0
102807,-100,4,2,2,80,0,1
104667,-100,4,2,2,5,0,1
104727,-100,4,2,2,80,0,1
106347,-100,4,2,2,5,0,1
106407,-100,4,2,2,80,0,1
106587,-100,4,2,2,5,0,1
106647,-100,4,2,4,80,0,1
110487,-100,4,2,2,80,0,1
111927,-100,4,2,4,80,0,1
112347,-100,4,2,4,5,0,1
112407,-100,4,2,4,80,0,1
117087,-100,4,2,4,80,0,0
118167,-100,4,2,4,60,0,0
125847,-100,4,2,4,65,0,0
126447,-100,4,2,1,65,0,0
126807,-100,4,2,2,65,0,0
127167,-100,4,2,1,65,0,0
127767,-100,4,2,4,65,0,0
128367,-100,4,2,1,65,0,0
128727,-100,4,2,4,65,0,0
130287,-100,4,2,1,65,0,0
130647,-100,4,2,2,65,0,0
131007,-100,4,2,1,65,0,0
131607,-100,4,2,4,65,0,0
132207,-100,4,2,1,65,0,0
132567,-100,4,2,4,65,0,0
133467,-100,4,2,4,5,0,0
133527,-100,4,2,4,65,0,0
134127,-100,4,2,1,65,0,0
134487,-100,4,2,2,65,0,0
134847,-100,4,2,1,65,0,0
135447,-100,4,2,4,65,0,0
136047,-100,4,2,1,65,0,0
136407,-100,4,2,4,65,0,0
137967,-100,4,2,1,65,0,0
138327,-100,4,2,2,65,0,0
139287,-100,4,2,2,80,0,0
140247,-111.111111111111,4,2,2,80,0,0
141207,-100,4,2,2,70,0,0
144987,-100,4,2,2,5,0,0
145047,-100,4,2,4,70,0,0
147927,-100,4,2,2,70,0,0
148827,-100,4,2,2,5,0,0
148887,-100,4,2,2,70,0,0
152667,-100,4,2,2,5,0,0
152727,-100,4,2,4,70,0,0
156567,-100,4,2,2,70,0,0
158367,-100,4,2,2,5,0,0
158487,-100,4,2,2,60,0,0
160287,-100,4,2,2,5,0,0
160407,-100,4,2,2,70,0,0
162087,-100,4,2,2,40,0,0
162327,-100,4,2,2,70,0,1
164247,-100,4,2,2,80,0,1
165687,-100,4,2,4,80,0,1
166107,-100,4,2,4,5,0,1
166167,-100,4,2,4,80,0,1
170847,-100,4,2,4,80,0,0
171927,-90.9090909090909,4,2,2,90,0,1
173787,-90.9090909090909,4,2,2,5,0,1
173847,-90.9090909090909,4,2,2,90,0,1
175047,-90.9090909090909,4,2,4,90,0,1
175707,-90.9090909090909,4,2,4,5,0,1
175767,-90.9090909090909,4,2,2,90,0,1
179127,-90.9090909090909,4,2,4,90,0,1
179607,-90.9090909090909,4,2,2,90,0,1
180807,-90.9090909090909,4,2,4,90,0,1
181467,-90.9090909090909,4,2,4,5,0,1
181527,-90.9090909090909,4,2,4,90,0,1
181767,-90.9090909090909,4,2,2,90,0,1
183387,-90.9090909090909,4,2,2,5,0,1
183447,-90.9090909090909,4,2,2,90,0,1
201567,-90.9090909090909,4,2,2,90,0,0
201807,-90.9090909090909,4,2,4,90,0,0

[Colours]
Combo1 : 128,128,128
Combo2 : 192,192,192

[HitObjects]
80,234,1047,6,0,P|46:222|1:210,2,75,2|2|10,3:2|3:2|1:2,0:0:0:0:
182,150,1527,2,0,P|256:129|340:110,1,150,10|10,1:2|1:2,0:0:0:0:
389,176,1887,6,0,B|430:257|318:236|359:317,1,150,2|10,3:2|1:2,0:0:0:0:
364,312,2247,2,0,B|328:242|440:263|399:182,1,150,2|10,3:2|1:2,0:0:0:0:
475,139,2607,2,0,P|485:83|496:50,1,75,2|2,3:2|1:2,0:0:0:0:
424,12,2847,1,10,1:2:0:0:
424,12,2967,6,0,P|376:26|333:35,2,75,2|2|10,3:2|3:2|1:2,0:0:0:0:
294,187,3447,2,0,P|231:169|129:143,1,150,10|10,1:2|1:2,0:0:0:0:
86,83,3807,6,0,P|70:55|157:29,1,150,2|10,3:2|1:2,0:0:0:0:
183,101,4167,2,0,P|182:136|139:143,1,75,2|2,3:2|3:2,0:0:0:0:
1,110,4407,1,10,1:2:0:0:
88,282,4647,1,2,2:0:0:0:
88,282,4887,6,0,P|71:333|65:368,2,75,2|2|10,3:2|3:2|1:2,0:0:0:0:
241,191,5367,2,0,P|219:113|206:44,1,150,10|10,1:2|1:2,0:0:0:0:
122,13,5727,6,0,B|36:3|73:86|-17:64,1,150,2|10,3:2|1:2,0:0:0:0:
0,74,6087,2,0,B|80:94|43:11|129:21,1,150,2|10,3:2|1:2,0:0:0:0:
180,94,6447,2,0,P|238:108|284:122,1,75,2|2,3:2|1:2,0:0:0:0:
323,65,6687,1,10,1:2:0:0:
323,65,6807,6,0,P|331:27|346:-12,2,75,2|2|10,3:2|3:2|1:2,0:0:0:0:
165,181,7287,2,0,P|184:248|203:340,1,150,10|10,1:2|1:2,0:0:0:0:
280,367,7647,6,0,P|344:371|367:285,1,150,2|10,3:2|1:2,0:0:0:0:
332,229,8007,1,10,1:2:0:0:
332,229,8127,1,10,1:2:0:0:
254,269,8247,1,10,1:2:0:0:
487,341,8487,1,2,1:2:0:0:
487,341,8727,6,0,P|498:271|521:175,1,150,6|10,3:2|1:2,0:0:0:0:
458,67,9087,2,0,P|392:76|399:173,1,150,2|2,3:2|1:2,0:0:0:0:
453,258,9447,5,10,1:2:0:0:
453,258,9567,1,2,1:2:0:0:
453,258,9687,2,0,P|391:237|295:214,2,150,2|10|2,3:2|1:2|3:2,0:0:0:0:
339,374,10287,1,0,3:0:0:0:
265,326,10407,2,0,P|228:300|250:254,1,75,10|2,1:2|0:0,0:0:0:0:
300,224,10647,6,0,P|369:214|375:145,1,150,2|10,3:2|1:2,0:0:0:0:
189,145,11007,2,0,P|206:81|227:-9,1,150,2|2,1:2|3:2,0:0:0:0:
297,111,11367,5,10,1:2:0:0:
297,111,11487,1,2,1:2:0:0:
297,111,11607,1,2,3:2:0:0:
96,22,11847,1,10,1:2:0:0:
2,273,12087,1,2,3:2:0:0:
217,214,12327,2,0,P|249:239|230:315,1,112.5,10|0,1:2|0:0,0:0:0:0:
217,333,12567,6,0,P|156:317|118:390,1,150,6|10,3:2|1:2,0:0:0:0:
8,286,12927,2,0,P|26:215|49:116,1,150,2|2,3:2|3:2,0:0:0:0:
137,21,13287,5,10,1:2:0:0:
137,21,13407,1,2,1:2:0:0:
137,21,13527,2,0,P|187:49|150:148,2,150,2|10|2,3:2|1:2|3:2,0:0:0:0:
25,111,14127,1,0,0:0:0:0:
63,191,14247,2,0,P|118:208|153:218,1,75,10|0,1:2|0:0,0:0:0:0:
178,132,14487,6,0,P|264:111|345:93,1,150,2|10,3:2|1:2,0:0:0:0:
294,228,14847,2,0,P|315:271|406:265,1,150,2|2,3:2|3:2,0:0:0:0:
493,226,15207,5,10,1:2:0:0:
493,226,15327,1,2,1:2:0:0:
493,226,15447,2,0,P|477:165|468:125,1,75,10|0,1:0|3:0,0:0:0:0:
411,54,15687,2,0,P|396:113|386:151,1,75,10|0,1:0|3:0,0:0:0:0:
302,218,15927,6,0,P|282:249|228:234,1,75,10|0,1:0|3:0,0:0:0:0:
192,180,16167,2,0,P|208:146|290:141,1,112.5,10|0,1:0|0:0,0:0:0:0:
286,125,16407,6,0,P|187:109|113:89,1,150,6|10,3:2|1:2,0:0:0:0:
292,15,16767,2,0,P|362:1|403:62,1,150,2|2,3:2|3:2,0:0:0:0:
492,161,17127,5,10,1:2:0:0:
492,161,17247,1,2,1:2:0:0:
492,161,17367,2,0,P|417:175|331:194,2,150,2|10|2,3:2|1:2|3:2,0:0:0:0:
421,292,17967,1,0,3:0:0:0:
501,324,18087,2,0,P|504:366|460:384,1,75,10|2,1:2|0:0,0:0:0:0:
403,340,18327,6,0,P|351:321|347:236,1,150,2|10,3:2|1:2,0:0:0:0:
447,176,18687,2,0,P|431:110|412:26,1,150,2|2,3:2|3:2,0:0:0:0:
334,7,19047,5,10,1:2:0:0:
334,7,19167,1,2,1:2:0:0:
334,7,19287,1,2,3:2:0:0:
512,84,19527,1,10,1:2:0:0:
451,258,19767,1,2,3:2:0:0:
252,194,20007,2,0,P|207:175|217:112,1,112.5,10|0,1:2|0:0,0:0:0:0:
230,90,20247,6,0,P|307:70|377:52,1,150,6|10,3:2|1:2,0:0:0:0:
497,7,20607,2,0,P|517:77|437:106,1,150,2|2,3:2|3:2,0:0:0:0:
369,190,20967,5,10,1:2:0:0:
369,190,21087,1,2,1:2:0:0:
369,190,21207,2,0,P|352:116|331:40,2,150,2|10|2,3:2|1:2|3:2,0:0:0:0:
479,277,21807,1,0,3:0:0:0:
439,357,21927,2,0,P|395:352|385:308,1,75,10|2,1:2|0:0,0:0:0:0:
401,240,22167,6,0,P|462:248|502:162,1,150,2|10,3:2|1:2,0:0:0:0:
415,91,22527,2,0,P|352:75|257:49,1,150,2|2,3:2|3:2,0:0:0:0:
201,126,22887,5,10,1:2:0:0:
201,126,23007,1,2,1:2:0:0:
201,126,23127,2,0,P|193:169|227:193,1,75,10|0,1:0|3:0,0:0:0:0:
321,228,23367,2,0,P|324:181|301:163,1,75,10|0,1:0|3:0,0:0:0:0:
230,295,23607,2,0,P|184:285|155:276,1,75,10|0,1:0|3:0,0:0:0:0:
253,376,23847,2,0,P|299:366|369:351,1,112.5,10|0,1:0|0:0,0:0:0:0:
371,343,24087,1,2,2:0:0:0:
455,371,26007,6,0,P|504:341|475:252,1,134.999995880127,2|0,3:2|2:0,0:0:0:0:
427,231,26367,1,10,1:2:0:0:
427,231,26487,2,0,P|366:216|375:136,1,134.999995880127,2|10,3:2|1:2,0:0:0:0:
408,84,26847,1,2,1:2:0:0:
486,120,26967,6,0,P|477:162|465:210,1,67.4999979400635,2|2,3:2|2:0,0:0:0:0:
408,84,27207,2,0,P|399:42|387:-6,1,67.4999979400635,2|10,1:2|1:2,0:0:0:0:
477,0,27447,1,2,3:2:0:0:
283,110,27687,5,10,1:2:0:0:
283,110,27807,1,0,1:0:0:0:
283,110,27927,2,0,P|207:89|135:73,1,134.999995880127,2|0,3:2|2:0,0:0:0:0:
86,134,28287,1,10,1:2:0:0:
86,134,28407,2,0,P|80:175|111:193,1,67.4999979400635,2|2,3:2|2:0,0:0:0:0:
169,252,28647,2,0,P|186:194|201:162,1,67.4999979400635,10|2,1:2|0:2,0:0:0:0:
47,291,28887,6,0,P|58:335|67:377,1,67.4999979400635,2|2,3:2|2:0,0:0:0:0:
180,257,29127,2,0,P|197:199|212:167,1,67.4999979400635,2|10,1:2|1:2,0:0:0:0:
141,332,29367,1,2,3:2:0:0:
213,376,29487,1,10,1:2:0:0:
265,306,29607,2,0,P|305:313|344:322,1,67.4999979400635,10|10,1:2|1:2,0:0:0:0:
331,318,29847,6,0,P|385:274|359:212,1,134.999995880127,6|0,3:2|2:0,0:0:0:0:
297,176,30207,1,10,1:2:0:0:
297,176,30327,2,0,P|282:110|274:89,1,67.4999979400635,2|0,3:2|0:0,0:0:0:0:
389,52,30567,2,0,P|380:84|374:118,1,67.4999979400635,10|2,1:2|1:2,0:0:0:0:
261,17,30807,5,2,3:2:0:0:
261,17,30927,1,2,1:2:0:0:
261,17,31047,2,0,P|213:28|169:35,1,67.4999979400635,2|10,1:2|0:2,0:0:0:0:
327,74,31287,2,0,P|382:63|413:54,1,67.4999979400635,2|0,3:2|0:0,0:0:0:0:
461,6,31527,2,0,P|502:13|497:54,1,67.4999979400635,10|0,1:2|2:0,0:0:0:0:
399,70,31767,6,0,P|384:141|369:221,1,134.999995880127,2|0,3:2|2:0,0:0:0:0:
441,267,32127,1,10,1:2:0:0:
441,267,32247,2,0,P|470:299|443:331,1,67.4999979400635,2|0,3:2|2:0,0:0:0:0:
401,381,32487,2,0,P|380:366|385:321,1,67.4999979400635,10|2,1:2|2:0,0:0:0:0:
242,217,32727,5,10,1:2:0:0:
286,293,32847,1,2,3:2:0:0:
359,244,32967,2,0,P|344:186|336:151,1,67.4999979400635,10|2,1:2|3:2,0:0:0:0:
273,128,33207,2,0,P|283:87|289:54,3,67.4999979400635,10|8|10|8,1:2|1:2|3:2|1:2,0:0:0:0:
362,20,33687,5,2,3:2:0:0:
507,134,33927,1,2,2:0:0:0:
507,134,34047,1,2,3:2:0:0:
406,281,34287,1,2,2:0:0:0:
231,251,34527,6,0,P|240:302|257:402,2,134.999995880127,2|2|2,3:2|2:0|3:2,0:0:0:0:
296,190,35127,1,2,3:2:0:0:
147,100,35367,1,2,1:2:0:0:
0,6,35607,5,2,3:2:0:0:
87,159,35847,1,2,2:0:0:0:
87,159,35967,1,0,3:2:0:0:
245,80,36207,1,2,2:0:0:0:
402,3,36447,6,0,P|460:28|460:104,2,134.999995880127,2|2|2,3:2|2:0|3:2,0:0:0:0:
340,66,37047,1,8,1:2:0:0:
340,66,37167,1,8,1:2:0:0:
383,138,37287,2,0,P|399:188|407:221,1,67.4999979400635,8|8,1:2|1:2,0:0:0:0:
485,229,37527,6,0,P|460:284|436:370,1,134.999995880127,6|0,3:2|2:0,0:0:0:0:
357,377,37887,1,10,1:2:0:0:
357,377,38007,2,0,P|301:369|283:296,1,134.999995880127,2|10,3:2|1:2,0:0:0:0:
329,227,38367,1,2,1:2:0:0:
253,187,38487,6,0,P|238:137|223:99,1,67.4999979400635,2|2,3:2|2:0,0:0:0:0:
326,19,38727,2,0,P|312:63|303:103,1,67.4999979400635,2|10,1:2|1:2,0:0:0:0:
184,49,38967,1,2,3:2:0:0:
380,154,39207,5,10,1:2:0:0:
380,154,39327,1,0,1:0:0:0:
380,154,39447,2,0,P|441:140|487:206,1,134.999995880127,2|0,3:2|2:0,0:0:0:0:
455,268,39807,1,10,1:2:0:0:
455,268,39927,2,0,P|467:303|396:356,1,134.999995880127,2|10,3:2|1:2,0:0:0:0:
337,304,40287,1,2,1:2:0:0:
285,377,40407,6,0,P|239:362|204:354,1,67.4999979400635,2|2,3:2|2:0,0:0:0:0:
122,265,40647,2,0,P|168:250|203:242,1,67.4999979400635,2|10,1:2|1:2,0:0:0:0:
136,384,40887,1,2,3:2:0:0:
68,330,41007,1,0,3:0:0:0:
116,258,41127,2,0,P|163:246|198:238,1,67.4999979400635,10|10,1:2|1:2,0:0:0:0:
181,241,41367,6,0,P|224:210|205:128,1,134.999995880127,6|0,3:2|2:0,0:0:0:0:
156,77,41727,1,10,1:2:0:0:
156,77,41847,2,0,P|89:63|58:56,2,67.4999979400635,2|0|10,3:2|0:0|1:2,0:0:0:0:
213,11,42207,1,2,1:2:0:0:
287,57,42327,6,0,P|297:95|343:92,1,67.4999979400635,2|2,3:2|2:0,0:0:0:0:
394,54,42567,2,0,P|393:23|356:10,1,67.4999979400635,2|10,1:2|1:2,0:0:0:0:
415,164,42807,1,2,3:2:0:0:
415,164,43047,5,10,1:2:0:0:
484,124,43167,1,2,1:2:0:0:
450,202,43287,2,0,P|382:186|296:168,1,134.999995880127,2|0,3:2|2:0,0:0:0:0:
254,231,43647,1,10,1:2:0:0:
254,231,43767,2,0,P|235:292|294:344,1,134.999995880127,2|10,3:2|1:2,0:0:0:0:
359,378,44127,1,2,1:2:0:0:
428,325,44247,6,0,P|434:287|443:253,1,67.4999979400635,10|0,1:2|3:0,0:0:0:0:
364,200,44487,2,0,P|358:238|349:272,1,67.4999979400635,10|0,1:2|3:0,0:0:0:0:
438,151,44727,1,10,1:2:0:0:
512,106,44847,1,8,1:2:0:0:
465,32,44967,1,8,1:2:0:0:
391,77,45087,1,8,1:2:0:0:
391,77,45207,6,0,P|340:60|248:33,1,134.999995880127,6|10,3:2|1:2,0:0:0:0:
228,150,45567,2,0,P|200:121|207:86,2,67.4999979400635,10|0|2,1:2|3:0|2:0,0:0:0:0:
311,187,45927,2,0,P|296:242|291:275,1,67.4999979400635,10|2,1:2|2:0,0:0:0:0:
230,309,46167,5,2,3:2:0:0:
73,236,46407,1,10,1:2:0:0:
73,236,46527,1,0,1:0:0:0:
73,236,46647,2,0,P|58:289|48:326,1,67.4999979400635,2|0,3:2|3:0,0:0:0:0:
5,181,46887,1,10,1:2:0:0:
56,112,47007,1,0,3:0:0:0:
131,149,47127,6,0,P|154:179|194:162,3,67.4999979400635,2|2|10|10,3:2|1:2|1:2|1:2,0:0:0:0:
270,107,47607,2,0,P|261:59|254:25,3,67.4999979400635,2|2|10|2,3:2|1:2|1:2|1:2,0:0:0:0:
177,6,48087,6,0,P|166:52|157:82,1,67.4999979400635,2|0,3:2|2:0,0:0:0:0:
89,124,48327,2,0,P|104:100|154:108,1,67.4999979400635,10|0,1:2|2:0,0:0:0:0:
191,169,48567,1,10,1:2:0:0:
245,237,48687,1,0,1:0:0:0:
175,289,48807,2,0,P|138:279|106:271,1,67.4999979400635,8|8,1:2|1:2,0:0:0:0:
63,205,49047,6,0,P|11:224|4:301,1,134.999995880127,6|10,3:2|1:2,0:0:0:0:
50,376,49407,1,10,1:2:0:0:
50,376,49527,2,0,P|95:368|130:360,1,67.4999979400635,2|2,3:2|2:0,0:0:0:0:
175,289,49767,2,0,P|138:279|106:271,1,67.4999979400635,10|2,1:2|2:0,0:0:0:0:
217,374,50007,5,2,3:2:0:0:
319,226,50247,1,10,1:2:0:0:
319,226,50367,1,10,1:2:0:0:
241,168,50487,2,0,P|255:109|263:78,1,67.4999979400635,2|0,3:2|3:0,0:0:0:0:
336,60,50727,1,10,1:2:0:0:
261,3,50847,1,2,3:2:0:0:
336,60,50967,6,0,P|387:70|442:84,1,101.249996910095,10|0,1:0|0:0,0:0:0:0:
477,70,51207,2,0,P|467:121|453:176,1,101.249996910095,10|0,1:0|0:0,0:0:0:0:
467,211,51447,2,0,P|416:201|361:187,1,101.249996910095,10|0,1:0|0:0,0:0:0:0:
326,201,51687,2,0,P|336:150|350:95,1,101.249996910095,10|0,1:0|0:0,0:0:0:0:
336,60,51927,1,10,1:0:0:0:
58,15,52887,6,0,P|7:40|20:132,1,150,6|10,3:2|1:2,0:0:0:0:
86,183,53247,1,0,1:0:0:0:
86,183,53367,2,0,P|131:171|180:156,1,75,2|2,3:2|0:2,0:0:0:0:
213,45,53607,1,8,1:2:0:0:
290,92,53727,6,0,P|224:81|140:64,1,150,2|2,3:2|3:2,0:0:0:0:
274,198,54087,2,0,P|231:220|196:240,1,75,10|2,1:2|2:0,0:0:0:0:
352,285,54327,1,6,3:2:0:0:
316,364,54447,1,2,1:2:0:0:
352,285,54567,2,0,P|394:275|435:347,1,112.5,14|0,1:2|0:0,0:0:0:0:
468,355,54807,6,0,P|486:274|510:195,1,150,6|10,3:2|1:2,0:0:0:0:
365,138,55167,1,0,1:0:0:0:
416,42,55287,2,0,P|489:44|505:125,1,150,2|10,3:2|1:2,0:0:0:0:
353,241,55647,6,0,P|425:218|497:197,1,150,2|2,3:2|3:2,0:0:0:0:
291,181,56007,2,0,P|274:150|239:152,1,75,10|2,1:2|2:0,0:0:0:0:
194,307,56247,5,2,3:2:0:0:
194,307,56367,1,0,1:0:0:0:
259,368,56487,2,0,P|304:343|288:294,1,112.5,10|0,1:2|0:0,0:0:0:0:
259,259,56727,6,0,P|209:274|176:283,1,75,6|2,3:2|2:0,0:0:0:0:
110,372,56967,2,0,P|93:308|84:277,1,75,10|2,1:2|2:0,0:0:0:0:
3,221,57207,2,0,P|67:204|98:195,1,75,2|2,3:2|2:0,0:0:0:0:
159,118,57447,1,10,1:2:0:0:
159,118,57567,6,0,P|174:169|203:271,1,150,2|2,3:2|3:2,0:0:0:0:
252,364,57927,2,0,P|280:336|262:288,1,75,10|2,1:2|1:2,0:0:0:0:
223,237,58167,5,2,3:2:0:0:
272,170,58287,1,2,1:2:0:0:
341,216,58407,2,0,P|395:227|431:233,1,75,10|0,1:2|2:0,0:0:0:0:
483,339,58647,6,0,P|494:284|504:245,1,75,10|2,1:2|1:2,0:0:0:0:
405,165,58887,2,0,P|399:206|446:218,1,75,10|2,1:2|3:2,0:0:0:0:
470,117,59127,5,10,1:2:0:0:
512,15,59247,1,2,3:2:0:0:
406,71,59367,1,10,1:2:0:0:
406,71,59487,6,0,P|315:45|235:25,1,150,2|0,3:2|3:0,0:0:0:0:
208,91,59847,2,0,P|206:137|239:156,1,75,10|0,1:2|2:0,0:0:0:0:
320,216,60087,2,0,P|334:157|346:124,1,75,2|0,3:2|3:0,0:0:0:0:
170,299,60327,1,8,1:2:0:0:
170,299,60447,1,0,1:0:0:0:
170,299,60567,6,0,P|152:341|54:335,1,150,6|10,3:2|1:2,0:0:0:0:
1,278,60927,1,0,1:0:0:0:
1,278,61047,2,0,P|14:228|26:187,1,75,2|2,3:2|0:2,0:0:0:0:
140,139,61287,1,10,1:2:0:0:
107,221,61407,6,0,P|93:161|73:67,1,150,2|2,3:2|3:2,0:0:0:0:
217,266,61767,2,0,P|236:220|250:186,1,75,14|0,1:2|2:0,0:0:0:0:
286,359,62007,1,6,3:2:0:0:
371,329,62127,1,0,1:0:0:0:
286,359,62247,2,0,P|270:308|197:313,1,112.5,14|0,1:2|0:0,0:0:0:0:
188,334,62487,6,0,P|125:350|24:379,1,150,6|10,3:2|1:2,0:0:0:0:
0,204,62847,1,0,1:0:0:0:
108,265,62967,2,0,P|151:249|149:154,1,150,2|10,3:2|1:2,0:0:0:0:
163,21,63327,6,0,P|94:31|81:101,1,150,2|2,3:2|3:2,0:0:0:0:
247,124,63687,2,0,P|205:129|187:98,1,75,10|2,1:2|2:0,0:0:0:0:
311,46,63927,1,2,3:2:0:0:
311,46,64047,1,0,1:0:0:0:
383,0,64167,2,0,P|439:18|497:33,1,112.5,10|0,1:2|0:0,0:0:0:0:
499,77,64407,6,0,P|484:126|473:169,1,75,6|2,3:2|2:0,0:0:0:0:
512,251,64647,2,0,P|452:230|422:221,1,75,10|2,1:2|2:0,0:0:0:0:
339,273,64887,2,0,P|354:224|365:181,1,75,2|2,3:2|2:0,0:0:0:0:
326,99,65127,1,10,1:2:0:0:
326,99,65247,6,0,P|386:120|476:146,1,150,2|2,3:2|3:2,0:0:0:0:
512,258,65607,2,0,P|487:295|443:282,1,75,10|2,1:2|0:2,0:0:0:0:
383,248,65847,5,2,3:2:0:0:
336,323,65967,1,2,1:2:0:0:
264,275,66087,2,0,P|280:207|289:181,1,75,10|0,1:2|2:0,0:0:0:0:
360,118,66327,6,0,P|346:63|338:30,1,75,10|2,1:2|3:2,0:0:0:0:
218,21,66567,2,0,P|243:72|274:68,1,75,10|2,1:2|3:2,0:0:0:0:
333,34,66807,5,10,1:2:0:0:
454,0,66927,1,2,3:2:0:0:
386,102,67047,1,10,1:2:0:0:
386,102,67167,6,0,P|373:157|344:276,1,150,2|0,3:2|3:0,0:0:0:0:
426,283,67527,2,0,P|457:308|440:358,1,75,8|0,1:2|3:0,0:0:0:0:
381,384,67767,1,8,1:2:0:0:
381,384,67827,1,0,1:0:0:0:
381,384,67887,1,0,1:0:0:0:
304,325,68007,2,0,P|245:339|207:348,1,75,10|10,1:2|1:2,0:0:0:0:
342,251,68247,6,0,P|400:265|436:273,1,75,14|0,1:2|3:0,0:0:0:0:
512,284,68487,2,0,P|516:247|491:221,1,75,10|0,1:2|3:0,0:0:0:0:
431,154,68727,5,10,1:2:0:0:
393,72,68847,1,0,3:0:0:0:
474,35,68967,1,10,1:2:0:0:
421,140,69087,6,0,P|341:112|243:87,1,150,2|2,3:2|3:2,0:0:0:0:
218,161,69447,1,10,1:2:0:0:
258,241,69567,1,2,3:2:0:0:
338,201,69687,6,0,P|367:238|346:278,1,75,10|0,1:2|3:0,0:0:0:0:
253,325,69927,2,0,P|263:273|272:233,1,75,8|2,1:2|3:2,0:0:0:0:
390,366,70167,6,0,P|320:384|301:391,1,75,10|0,1:2|3:0,0:0:0:0:
440,298,70407,2,0,P|501:315|543:325,1,75,10|0,1:2|3:0,0:0:0:0:
494,226,70647,5,10,1:2:0:0:
410,258,70767,1,0,3:0:0:0:
374,176,70887,1,10,1:2:0:0:
465,108,71007,6,0,P|469:38|380:4,1,150,2|2,3:2|3:2,0:0:0:0:
332,50,71367,2,0,P|346:105|354:142,1,75,10|2,1:2|3:2,0:0:0:0:
429,185,71607,6,0,P|415:236|406:276,1,75,10|0,1:2|3:0,0:0:0:0:
342,317,71847,1,10,1:2:0:0:
267,269,71967,1,2,3:2:0:0:
237,368,72087,6,0,P|201:354|213:306,1,75,14|2,1:2|3:2,0:0:0:0:
294,209,72327,2,0,P|280:265|269:307,1,75,10|0,1:2|3:0,0:0:0:0:
220,160,72567,5,10,1:2:0:0:
171,235,72687,1,0,3:0:0:0:
90,196,72807,1,10,1:2:0:0:
36,289,72927,6,0,P|15:207|-2:135,1,150,2|2,3:2|3:2,0:0:0:0:
150,123,73287,2,0,P|100:112|60:103,1,75,10|2,1:2|3:2,0:0:0:0:
37,0,73527,5,10,1:2:0:0:
117,40,73647,1,0,3:0:0:0:
67,114,73767,2,0,P|50:178|42:208,1,75,10|0,1:2|3:0,0:0:0:0:
7,305,74007,6,0,P|50:298|56:263,1,75,10|0,1:2|3:0,0:0:0:0:
134,212,74247,2,0,P|90:198|41:184,1,75,10|0,1:2|3:0,0:0:0:0:
165,294,74487,5,10,1:2:0:0:
247,256,74607,1,2,3:2:0:0:
286,343,74727,1,10,1:2:0:0:
286,343,74847,5,14,1:2:0:0:
383,188,75087,1,10,1:2:0:0:
227,108,75327,1,10,1:2:0:0:
227,108,75447,2,0,P|206:61|281:3,2,150,10|0|6,1:2|3:0|3:2,0:0:0:0:
320,167,83607,5,6,1:0:0:0:
219,29,83847,1,2,1:0:0:0:
219,29,83967,1,2,3:1:0:0:
62,108,84207,1,2,1:0:0:0:
47,269,84447,6,0,P|112:254|186:236,2,134.999995880127,2|2|2,3:1|1:0|3:1,0:0:0:0:
0,195,85047,1,2,1:0:0:0:
155,113,85287,1,2,3:1:0:0:
261,255,85527,5,2,3:1:0:0:
127,368,85767,1,2,1:0:0:0:
127,368,85887,1,2,3:1:0:0:
83,198,86127,1,2,1:0:0:0:
39,26,86367,6,0,P|-1:52|8:138,2,134.999995880127,2|2|2,3:1|1:0|3:1,0:0:0:0:
107,91,86967,1,10,1:0:0:0:
107,91,87087,1,10,1:0:0:0:
183,56,87207,2,0,P|225:46|272:35,1,67.4999979400635,10|10,1:0|1:0,0:0:0:0:
306,104,87447,6,0,P|373:115|459:129,1,134.999995880127,2|0,3:2|2:0,0:0:0:0:
512,75,87807,1,10,1:2:0:0:
512,75,87927,2,0,P|521:40|488:20,1,67.4999979400635,2|2,3:2|0:0,0:0:0:0:
427,72,88167,2,0,P|418:107|451:127,1,67.4999979400635,10|2,1:2|0:2,0:0:0:0:
512,200,88407,6,0,P|498:247|488:291,1,67.4999979400635,2|2,3:2|2:0,0:0:0:0:
512,351,88647,1,2,1:2:0:0:
431,384,88767,1,10,1:2:0:0:
393,305,88887,1,2,3:2:0:0:
224,358,89127,5,10,1:2:0:0:
224,358,89247,1,0,1:0:0:0:
224,358,89367,2,0,P|205:288|185:205,1,134.999995880127,2|0,3:2|2:0,0:0:0:0:
263,179,89727,1,10,1:2:0:0:
263,179,89847,2,0,P|294:165|296:127,1,67.4999979400635,2|2,3:2|2:0,0:0:0:0:
239,72,90087,2,0,P|206:79|167:88,1,67.4999979400635,10|2,1:2|0:2,0:0:0:0:
71,125,90327,5,2,3:2:0:0:
3,70,90447,1,2,2:0:0:0:
58,1,90567,2,0,P|105:10|140:16,1,67.4999979400635,2|10,1:2|1:2,0:0:0:0:
173,86,90807,6,0,P|176:130|151:151,1,67.4999979400635,2|0,3:2|3:0,0:0:0:0:
78,176,91047,1,10,1:2:0:0:
113,256,91167,1,10,1:2:0:0:
30,287,91287,5,6,1:2:0:0:
30,287,92247,6,0,P|85:298|104:355,1,101.249996910095,6|0,3:2|0:0,0:0:0:0:
134,369,92487,2,0,P|144:303|164:242,1,101.249996910095,6|0,3:2|0:0,0:0:0:0:
194,252,92727,2,0,P|144:218|152:163,1,101.249996910095,6|0,3:2|0:0,0:0:0:0:
111,169,92967,5,10,1:2:0:0:
111,169,93087,1,0,1:0:0:0:
111,169,93207,2,0,L|43:189,1,56.2500021457673,2|0,3:2|3:0,0:0:0:0:
1,121,93447,2,0,P|12:90|22:58,1,56.2500021457673,0|10,3:0|1:2,0:0:0:0:
103,75,93687,5,2,3:2:0:0:
142,1,93807,1,2,3:2:0:0:
223,27,93927,2,0,P|229:59|237:94,1,56.2500021457673,10|2,1:2|3:2,0:0:0:0:
162,169,94167,6,0,P|130:195|155:237,1,67.4999979400635,10|0,1:2|3:0,0:0:0:0:
221,286,94407,2,0,P|233:240|241:195,1,67.4999979400635,10|0,1:2|3:0,0:0:0:0:
128,348,94647,1,10,1:2:0:0:
209,384,94767,1,8,1:2:0:0:
266,316,94887,1,8,1:2:0:0:
349,358,95007,1,8,1:2:0:0:
349,358,95127,6,0,P|406:316|370:244,1,134.999995880127,6|10,3:2|1:2,0:0:0:0:
348,185,95487,1,0,1:0:0:0:
271,228,95607,2,0,P|252:156|226:83,1,134.999995880127,2|10,3:2|1:2,0:0:0:0:
314,12,95967,1,2,1:2:0:0:
314,12,96087,6,0,P|369:24|406:30,1,67.4999979400635,2|2,3:2|2:0,0:0:0:0:
438,99,96327,1,10,1:2:0:0:
438,99,96447,1,0,1:0:0:0:
359,138,96567,2,0,P|334:168|358:212,1,67.4999979400635,2|0,3:2|3:0,0:0:0:0:
422,225,96807,1,8,1:2:0:0:
506,251,96927,1,0,3:0:0:0:
475,334,97047,6,0,P|425:343|387:352,3,67.4999979400635,2|2|10|10,3:2|2:0|1:2|1:2,0:0:0:0:
278,270,97527,2,0,P|330:259|363:253,3,67.4999979400635,2|2|10|2,3:2|2:0|1:2|2:0,0:0:0:0:
231,344,98007,6,0,P|184:332|86:307,1,134.999995880127,2|10,3:2|1:2,0:0:0:0:
22,352,98367,1,2,1:2:0:0:
25,264,98487,2,0,P|20:244|12:217,2,33.7499989700318,10|0|0,1:2|0:0|1:0,0:0:0:0:
106,226,98727,1,8,1:2:0:0:
153,152,98847,1,8,1:2:0:0:
71,119,98967,6,0,P|16:102|29:19,1,134.999995880127,6|10,3:2|1:2,0:0:0:0:
96,0,99327,1,10,1:2:0:0:
96,0,99447,2,0,P|128:19|124:63,1,67.4999979400635,2|0,3:2|0:0,0:0:0:0:
102,147,99687,2,0,P|159:130|195:118,1,67.4999979400635,10|2,1:2|1:2,0:0:0:0:
244,85,99927,5,2,3:2:0:0:
181,253,100167,1,10,1:2:0:0:
181,253,100287,1,2,1:2:0:0:
255,208,100407,2,0,P|300:220|344:232,1,67.4999979400635,2|0,3:2|3:0,0:0:0:0:
395,282,100647,1,2,1:2:0:0:
338,349,100767,1,0,1:0:0:0:
395,282,100887,6,0,P|441:254|431:207,1,101.249996910095,10|0,1:0|0:0,0:0:0:0:
472,187,101127,2,0,P|444:141|397:151,1,101.249996910095,10|0,1:0|0:0,0:0:0:0:
377,110,101367,2,0,P|331:138|341:185,1,101.249996910095,10|0,1:0|0:0,0:0:0:0:
300,205,101607,2,0,P|328:251|375:241,1,101.249996910095,10|0,1:0|0:0,0:0:0:0:
395,282,101847,1,10,1:0:0:0:
80,364,102807,6,0,P|18:337|29:256,1,150,6|10,3:2|1:2,0:0:0:0:
85,199,103167,1,0,1:0:0:0:
85,199,103287,2,0,P|137:212|176:222,1,75,2|2,3:2|0:2,0:0:0:0:
230,322,103527,1,10,1:2:0:0:
164,384,103647,6,0,P|191:299|215:223,1,150,2|2,3:2|3:2,0:0:0:0:
332,271,104007,2,0,P|320:217|312:179,1,75,10|2,1:2|2:0,0:0:0:0:
465,182,104247,1,2,3:2:0:0:
390,130,104367,1,2,1:2:0:0:
465,182,104487,2,0,P|418:183|424:248,1,112.5,10|0,1:2|0:0,0:0:0:0:
446,269,104727,6,0,P|494:266|490:358,1,150,2|10,3:2|1:2,0:0:0:0:
385,384,105087,1,0,1:0:0:0:
318,288,105207,2,0,P|303:219|283:124,1,150,2|10,3:2|1:2,0:0:0:0:
297,3,105567,6,0,P|364:17|356:85,1,150,2|2,3:2|3:2,0:0:0:0:
182,29,105927,2,0,P|197:63|235:54,1,75,10|2,1:2|2:0,0:0:0:0:
281,154,106167,6,0,P|221:172|152:196,1,112.5,2|0,3:2|0:0,0:0:0:0:
140,159,106407,2,0,P|127:109|54:125,1,112.5,10|0,1:2|0:0,0:0:0:0:
35,129,106647,6,0,P|50:179|63:226,1,75,6|2,3:2|2:0,0:0:0:0:
33,296,106887,2,0,P|83:281|130:268,1,75,10|2,1:2|1:2,0:0:0:0:
199,300,107127,2,0,P|184:250|171:203,1,75,2|0,3:2|2:0,0:0:0:0:
201,133,107367,1,10,1:2:0:0:
201,133,107487,6,0,P|151:148|49:176,1,150,2|2,3:2|3:2,0:0:0:0:
0,55,107847,2,0,P|41:58|55:102,1,75,10|2,1:2|1:2,0:0:0:0:
17,168,108087,6,0,P|6:216|-5:261,1,75,2|0,3:2|0:0,0:0:0:0:
108,324,108327,2,0,P|90:256|80:220,1,75,10|0,1:2|2:0,0:0:0:0:
0,384,108567,6,0,P|54:370|101:358,1,75,10|2,1:2|3:2,0:0:0:0:
186,306,108807,2,0,P|137:294|96:283,1,75,10|2,1:2|3:2,0:0:0:0:
295,384,109047,5,10,1:2:0:0:
354,273,109167,1,2,3:2:0:0:
232,333,109287,1,10,1:2:0:0:
232,333,109407,6,0,P|211:241|196:175,1,150,2|0,3:2|3:0,0:0:0:0:
276,140,109767,2,0,P|288:90|296:52,1,75,8|0,1:2|2:0,0:0:0:0:
174,40,110007,2,0,P|195:8|239:15,1,75,2|0,3:2|3:0,0:0:0:0:
409,26,110247,1,8,1:2:0:0:
409,26,110367,1,8,1:2:0:0:
409,26,110487,6,0,P|418:62|428:109,1,75,6|2,3:2|2:0,0:0:0:0:
334,200,110727,2,0,P|330:161|384:155,1,75,10|2,1:2|2:0,0:0:0:0:
474,284,110967,2,0,P|492:204|507:137,1,150,2|10,3:2|1:2,0:0:0:0:
505,368,111327,6,0,P|459:307|384:319,1,150,2|2,3:2|3:2,0:0:0:0:
346,177,111687,2,0,P|299:197|309:235,1,75,10|2,1:2|2:0,0:0:0:0:
183,220,111927,1,6,3:2:0:0:
154,306,112047,1,0,1:0:0:0:
183,220,112167,2,0,P|196:283|211:346,1,112.5,14|0,1:2|0:0,0:0:0:0:
177,365,112407,6,0,P|127:380|76:292,1,150,2|10,3:2|1:2,0:0:0:0:
0,222,112767,1,2,1:2:0:0:
106,181,112887,2,0,P|118:121|134:31,1,150,2|10,3:2|1:2,0:0:0:0:
47,2,113247,6,0,P|-5:13|3:94,1,150,2|2,3:2|3:2,0:0:0:0:
133,142,113607,2,0,P|73:157|34:166,1,75,10|0,1:2|2:0,0:0:0:0:
183,42,113847,5,2,3:2:0:0:
183,42,113967,1,0,1:0:0:0:
243,109,114087,2,0,P|292:102|307:168,1,112.5,10|0,1:2|0:0,0:0:0:0:
283,185,114327,6,0,P|271:243|262:285,1,75,6|2,3:2|2:0,0:0:0:0:
188,202,114567,2,0,P|130:190|88:181,1,75,10|2,1:2|2:0,0:0:0:0:
170,108,114807,2,0,P|182:50|191:8,1,75,2|2,3:2|2:0,0:0:0:0:
265,91,115047,1,10,1:2:0:0:
265,91,115167,6,0,P|323:103|421:123,1,150,2|2,3:2|3:2,0:0:0:0:
477,12,115527,2,0,P|434:10|417:54,1,75,10|2,1:2|1:2,0:0:0:0:
464,110,115767,6,0,P|449:172|441:205,1,75,2|2,3:2|0:2,0:0:0:0:
384,269,116007,2,0,P|370:221|358:183,1,75,10|2,1:2|2:0,0:0:0:0:
512,322,116247,6,0,P|524:351|477:376,1,75,10|2,1:2|3:2,0:0:0:0:
379,282,116487,2,0,P|423:269|464:257,1,75,10|2,1:2|3:2,0:0:0:0:
308,336,116727,5,10,1:2:0:0:
216,238,116847,1,2,3:2:0:0:
344,199,116967,1,10,1:2:0:0:
344,199,117087,5,10,1:2:0:0:
232,4,118167,1,6,3:2:0:0:
392,43,125847,6,0,P|311:25|227:9,1,150,6|0,3:2|1:0,0:0:0:0:
196,119,126207,2,0,P|267:123|307:64,1,150,0|0,1:0|3:0,0:0:0:0:
164,42,126567,2,0,P|104:28|65:17,1,75,2|0,1:2|2:0,0:0:0:0:
22,74,126807,6,0,P|36:121|46:165,1,75,2|0,3:2|0:0,0:0:0:0:
116,204,127047,2,0,P|131:149|144:106,1,75,2|0,1:2|3:0,0:0:0:0:
0,225,127287,1,2,1:2:0:0:
105,373,127527,5,2,1:2:0:0:
105,373,127647,1,0,1:0:0:0:
105,373,127767,2,0,P|177:354|261:335,1,150,6|0,3:2|1:0,0:0:0:0:
393,364,128127,2,0,P|390:306|289:292,1,150,0|0,1:0|3:0,0:0:0:0:
217,248,128487,2,0,P|231:301|244:345,1,75,2|0,1:2|2:0,0:0:0:0:
289,193,128727,6,0,P|325:173|291:129,1,75,2|0,3:2|2:0,0:0:0:0:
255,85,128967,1,2,1:2:0:0:
305,10,129087,1,0,2:0:0:0:
384,54,129207,1,2,1:2:0:0:
179,0,129447,5,2,1:2:0:0:
179,0,129567,1,2,1:2:0:0:
179,0,129687,2,0,P|163:81|143:171,1,150,6|0,3:2|1:0,0:0:0:0:
243,200,130047,2,0,P|258:127|186:106,1,150,0|0,1:0|3:0,0:0:0:0:
158,235,130407,2,0,P|148:277|139:318,1,75,2|0,1:2|2:0,0:0:0:0:
214,363,130647,6,0,P|257:364|265:316,1,75,2|0,3:2|0:0,0:0:0:0:
377,278,130887,2,0,P|313:263|282:255,1,75,2|0,1:2|3:0,0:0:0:0:
412,358,131127,1,2,1:2:0:0:
504,188,131367,5,2,1:2:0:0:
504,188,131487,1,0,1:0:0:0:
504,188,131607,2,0,P|421:201|355:214,1,150,6|0,3:2|1:0,0:0:0:0:
216,90,131967,2,0,P|285:76|309:155,1,150,0|0,1:0|3:0,0:0:0:0:
355,244,132327,2,0,P|294:226|253:216,1,75,2|2,1:2|1:2,0:0:0:0:
137,196,132567,6,0,P|189:183|235:169,1,75,2|0,3:2|0:0,0:0:0:0:
242,261,132807,1,2,1:2:0:0:
297,332,132927,1,2,3:2:0:0:
217,375,133047,6,0,P|202:307|193:271,1,75,10|0,1:2|1:0,0:0:0:0:
281,248,133287,2,0,P|289:200|309:120,1,112.5,2|0,1:2|0:0,0:0:0:0:
264,117,133527,6,0,P|256:47|163:33,1,150,6|0,3:2|1:0,0:0:0:0:
73,167,133887,2,0,P|128:181|160:97,1,150,0|0,1:0|3:0,0:0:0:0:
82,68,134247,2,0,P|32:81|0:90,1,75,2|0,1:2|2:0,0:0:0:0:
59,164,134487,6,0,P|71:207|79:251,1,75,2|0,3:2|0:0,0:0:0:0:
142,332,134727,2,0,P|153:296|165:261,1,75,2|0,1:2|3:0,0:0:0:0:
33,313,134967,1,2,1:2:0:0:
248,370,135207,5,2,1:2:0:0:
248,370,135327,1,0,1:0:0:0:
248,370,135447,2,0,P|314:356|314:283,1,150,6|0,3:2|1:0,0:0:0:0:
190,178,135807,2,0,P|164:228|235:279,1,150,0|0,1:0|3:0,0:0:0:0:
276,202,136167,2,0,P|288:152|297:117,1,75,2|0,1:2|2:0,0:0:0:0:
196,28,136407,6,0,P|252:44|286:54,1,75,2|0,3:2|1:0,0:0:0:0:
340,104,136647,1,2,1:2:0:0:
382,25,136767,1,0,3:0:0:0:
462,67,136887,1,2,1:2:0:0:
372,249,137127,5,2,1:2:0:0:
372,249,137247,1,2,1:2:0:0:
372,249,137367,2,0,P|297:263|209:285,1,150,6|0,3:2|1:0,0:0:0:0:
150,158,137727,2,0,P|219:153|244:219,1,150,0|0,1:0|3:0,0:0:0:0:
152,338,138087,2,0,P|146:301|135:265,1,75,2|0,1:2|2:0,0:0:0:0:
257,310,138327,6,0,P|244:357|234:399,1,75,2|0,3:2|0:0,0:0:0:0:
342,283,138567,2,0,P|344:236|309:219,1,75,2|0,1:2|2:0,0:0:0:0:
221,161,138807,2,0,P|278:145|323:133,1,75,2|0,1:2|0:0,0:0:0:0:
441,155,139047,1,2,1:2:0:0:
360,194,139167,1,2,1:2:0:0:
312,122,139287,5,10,1:2:0:0:
312,122,139407,1,8,1:2:0:0:
376,60,139527,2,0,P|377:15|330:7,1,75,8|8,1:2|1:2,0:0:0:0:
273,37,139767,6,0,P|218:21|181:9,1,75,8|8,1:2|1:2,0:0:0:0:
105,123,140007,2,0,P|162:105|199:94,1,75,8|8,1:2|1:2,0:0:0:0:
35,70,140247,5,8,1:2:0:0:
35,70,140367,1,8,1:2:0:0:
35,70,140487,2,0,P|28:33|67:22,1,67.4999979400635,8|8,1:2|1:2,0:0:0:0:
128,59,140727,6,0,P|109:110|97:146,1,67.4999979400635,8|8,1:2|1:2,0:0:0:0:
29,168,140967,2,0,P|46:218|55:257,1,67.4999979400635,8|8,1:2|1:2,0:0:0:0:
132,268,141207,6,0,P|208:269|235:329,1,150,6|10,3:2|1:2,0:0:0:0:
57,371,141567,2,0,P|74:302|99:211,1,150,2|2,3:2|3:2,0:0:0:0:
206,155,141927,5,10,1:2:0:0:
206,155,142047,1,2,1:2:0:0:
206,155,142167,2,0,P|192:99|168:10,2,150,2|10|2,3:2|1:2|3:2,0:0:0:0:
132,268,142767,1,0,1:0:0:0:
193,334,142887,2,0,P|201:366|259:353,1,75,10|0,1:2|0:0,0:0:0:0:
320,336,143127,6,0,P|337:289|261:237,1,150,2|10,3:2|1:2,0:0:0:0:
186,325,143487,2,0,P|119:308|35:285,1,150,2|2,3:2|3:2,0:0:0:0:
0,208,143847,5,10,1:2:0:0:
0,208,143967,1,2,1:2:0:0:
0,208,144087,1,2,3:2:0:0:
178,93,144327,1,10,1:2:0:0:
291,284,144567,1,2,3:2:0:0:
495,215,144807,2,0,P|509:176|457:133,1,112.5,10|0,1:2|0:0,0:0:0:0:
428,150,145047,6,0,P|448:75|466:0,1,150,6|10,3:2|1:2,0:0:0:0:
322,95,145407,2,0,P|281:83|223:176,1,150,2|2,3:2|3:2,0:0:0:0:
318,261,145767,5,10,1:2:0:0:
318,261,145887,1,2,1:2:0:0:
318,261,146007,2,0,P|386:244|473:226,2,150,2|10|2,3:2|1:2|3:2,0:0:0:0:
263,376,146607,1,0,1:0:0:0:
177,354,146727,2,0,P|145:328|157:291,1,75,10|0,1:2|0:0,0:0:0:0:
224,248,146967,6,0,P|274:248|289:336,1,150,2|10,3:2|1:2,0:0:0:0:
117,202,147327,2,0,P|134:138|157:47,1,150,2|2,3:2|3:2,0:0:0:0:
235,9,147687,5,10,1:2:0:0:
235,9,147807,1,2,1:2:0:0:
235,9,147927,2,0,P|248:64|258:101,1,75,10|0,1:0|3:0,0:0:0:0:
178,144,148167,2,0,P|168:107|160:71,1,75,10|0,1:0|3:0,0:0:0:0:
282,172,148407,6,0,P|250:200|261:246,1,75,10|0,1:0|3:0,0:0:0:0:
316,291,148647,2,0,P|358:271|348:195,1,112.5,10|0,1:0|0:0,0:0:0:0:
366,199,148887,6,0,P|460:221|528:237,1,150,6|10,3:2|1:2,0:0:0:0:
412,348,149247,2,0,P|341:361|314:276,1,150,2|2,3:2|3:2,0:0:0:0:
203,228,149607,5,10,1:2:0:0:
203,228,149727,1,2,1:2:0:0:
203,228,149847,2,0,P|219:158|242:72,2,150,2|10|2,3:2|1:2|3:2,0:0:0:0:
88,281,150447,1,0,1:0:0:0:
137,356,150567,2,0,P|185:354|186:319,1,75,10|0,1:2|0:0,0:0:0:0:
267,287,150807,6,0,P|289:237|201:205,1,150,2|10,3:2|1:2,0:0:0:0:
75,147,151167,2,0,P|90:88|112:-12,1,150,2|2,3:2|3:2,0:0:0:0:
184,116,151527,5,10,1:2:0:0:
184,116,151647,1,2,1:2:0:0:
184,116,151767,1,2,3:2:0:0:
0,23,152007,1,10,1:2:0:0:
46,257,152247,1,2,3:2:0:0:
230,350,152487,2,0,P|247:265|263:218,1,112.5,10|0,1:2|0:0,0:0:0:0:
229,213,152727,6,0,P|229:162|321:143,1,150,6|10,3:2|1:2,0:0:0:0:
450,271,153087,2,0,P|392:285|349:214,1,150,2|2,3:2|3:2,0:0:0:0:
512,202,153447,5,10,1:2:0:0:
512,202,153567,1,2,1:2:0:0:
512,202,153687,2,0,P|493:123|480:41,2,150,2|10|2,3:2|1:2|3:2,0:0:0:0:
395,145,154287,1,0,1:0:0:0:
348,217,154407,2,0,P|316:245|338:293,1,75,10|0,1:2|0:0,0:0:0:0:
360,354,154647,6,0,P|413:358|435:274,1,150,2|10,3:2|1:2,0:0:0:0:
339,210,155007,2,0,P|273:229|167:253,1,150,2|2,3:2|3:2,0:0:0:0:
143,325,155367,5,10,1:2:0:0:
143,325,155487,1,2,1:2:0:0:
143,325,155607,2,0,P|120:358|75:353,1,75,10|10,1:2|1:2,0:0:0:0:
23,304,155847,1,10,1:2:0:0:
60,222,155967,1,10,1:2:0:0:
145,242,156087,5,10,1:2:0:0:
168,234,156207,1,10,1:2:0:0:
192,227,156327,1,10,1:2:0:0:
216,221,156447,1,10,1:2:0:0:
240,214,156567,1,6,3:2:0:0:
256,192,156687,12,0,158367,2:0:0:0:
256,192,158487,5,6,3:2:0:0:
256,192,158607,12,0,160287,2:0:0:0:
256,192,160407,5,6,3:2:0:0:
256,192,160527,12,0,162087,2:0:0:0:
344,117,162327,6,0,P|292:104|266:98,1,75,10|2,1:2|3:2,0:0:0:0:
148,176,162567,2,0,P|197:176|205:144,1,75,10|2,1:2|3:2,0:0:0:0:
150,93,162807,5,10,1:2:0:0:
90,6,162927,1,2,3:2:0:0:
214,43,163047,1,10,1:2:0:0:
214,43,163167,6,0,P|187:159|172:220,1,150,2|0,3:2|3:0,0:0:0:0:
77,236,163527,2,0,P|92:283|101:328,1,75,8|0,1:2|1:0,0:0:0:0:
162,371,163767,2,0,P|194:348|178:304,1,75,2|0,3:2|3:0,0:0:0:0:
238,240,164007,1,8,1:2:0:0:
316,284,164127,1,8,1:2:0:0:
396,325,164247,6,0,P|444:300|435:209,1,150,6|10,3:2|1:2,0:0:0:0:
376,159,164607,1,0,1:0:0:0:
376,159,164727,2,0,P|327:171|286:182,1,75,2|0,3:2|0:0,0:0:0:0:
253,292,164967,1,10,1:2:0:0:
217,374,165087,6,0,P|202:317|177:222,1,150,2|2,3:2|3:2,0:0:0:0:
294,170,165447,2,0,P|255:144|210:109,1,75,10|2,1:2|2:0,0:0:0:0:
354,6,165687,1,6,3:2:0:0:
263,26,165807,1,0,1:0:0:0:
354,6,165927,2,0,P|290:31|227:51,1,112.5,14|0,1:2|0:0,0:0:0:0:
229,86,166167,6,0,P|204:32|106:46,1,150,2|10,3:2|1:2,0:0:0:0:
19,105,166527,1,0,1:2:0:0:
75,203,166647,2,0,P|142:223|220:250,1,150,2|10,3:2|1:2,0:0:0:0:
278,316,167007,6,0,P|332:291|318:196,1,150,2|2,3:2|3:2,0:0:0:0:
234,99,167367,2,0,P|248:146|258:193,1,75,10|2,1:2|1:2,0:0:0:0:
365,102,167607,5,2,3:2:0:0:
365,102,167727,1,0,1:0:0:0:
372,12,167847,2,0,P|403:-2|440:55,1,112.5,10|0,1:2|0:0,0:0:0:0:
478,79,168087,6,0,P|467:126|460:172,1,75,6|2,3:2|1:2,0:0:0:0:
482,247,168327,2,0,P|445:240|408:231,1,75,10|2,1:2|1:2,0:0:0:0:
314,253,168567,2,0,P|325:206|332:160,1,75,2|2,3:2|1:2,0:0:0:0:
310,85,168807,1,10,1:2:0:0:
310,85,168927,6,0,P|346:91|465:115,1,150,2|2,3:2|3:2,0:0:0:0:
507,233,169287,2,0,P|488:283|445:272,1,75,10|2,1:2|1:2,0:0:0:0:
408,231,169527,1,2,3:2:0:0:
378,147,169647,1,0,1:0:0:0:
295,180,169767,2,0,P|309:234|320:277,1,75,10|0,1:2|2:0,0:0:0:0:
391,299,170007,6,0,P|376:350|366:397,1,75,10|0,1:2|3:0,0:0:0:0:
241,376,170247,2,0,P|254:340|304:353,1,75,10|0,1:2|3:0,0:0:0:0:
313,252,170487,5,10,1:2:0:0:
389,133,170607,1,0,3:0:0:0:
266,190,170727,1,10,1:2:0:0:
266,190,170847,1,10,1:2:0:0:
176,35,171927,6,0,P|118:16|49:115,1,165.000005035401,6|10,3:2|1:2,0:0:0:0:
94,165,172287,1,0,1:0:0:0:
94,165,172407,2,0,P|155:183|192:196,1,82.5000025177003,2|2,3:2|1:2,0:0:0:0:
315,140,172647,1,8,1:2:0:0:
230,109,172767,6,0,P|315:88|404:68,1,165.000005035401,2|2,3:2|3:2,0:0:0:0:
264,225,173127,2,0,P|289:253|327:296,1,82.5000025177003,10|2,1:2|2:0,0:0:0:0:
172,300,173367,1,2,3:2:0:0:
139,384,173487,1,2,1:2:0:0:
172,300,173607,2,0,P|153:248|83:246,1,123.75000377655,10|0,1:2|0:0,0:0:0:0:
56,268,173847,6,0,P|-10:248|24:162,1,165.000005035401,4|14,3:1|1:2,0:0:0:0:
63,55,174207,1,0,2:0:0:0:
168,126,174327,2,0,P|230:143|341:172,1,165.000005035401,2|10,3:2|1:2,0:0:0:0:
489,25,174687,6,0,P|411:22|380:94,1,165.000005035401,2|2,3:2|3:2,0:0:0:0:
497,191,175047,2,0,P|477:140|461:91,1,82.5000025177003,14|0,1:2|2:0,0:0:0:0:
355,219,175287,5,6,3:2:0:0:
355,219,175407,1,0,1:0:0:0:
437,258,175527,2,0,P|423:314|407:382,1,123.75000377655,14|0,1:2|0:0,0:0:0:0:
363,372,175767,6,0,P|321:358|282:346,1,82.5000025177003,6|2,3:2|1:2,0:0:0:0:
151,384,176007,2,0,P|169:323|179:279,1,82.5000025177003,10|2,1:2|1:2,0:0:0:0:
143,160,176247,2,0,P|185:174|224:186,1,82.5000025177003,2|2,3:2|1:2,0:0:0:0:
361,151,176487,1,10,1:2:0:0:
361,151,176607,6,0,P|343:212|319:322,1,165.000005035401,2|2,3:2|3:2,0:0:0:0:
189,313,176967,2,0,P|209:273|258:301,1,82.5000025177003,10|2,1:2|2:0,0:0:0:0:
124,376,177207,5,2,3:2:0:0:
84,295,177327,1,2,1:2:0:0:
0,327,177447,2,0,P|14:271|24:225,1,82.5000025177003,10|0,1:2|2:0,0:0:0:0:
144,165,177687,6,0,P|131:210|89:201,1,82.5000025177003,14|2,1:2|3:2,0:0:0:0:
34,136,177927,2,0,P|-7:110|12:74,1,82.5000025177003,10|2,1:2|3:2,0:0:0:0:
64,39,178167,5,10,1:2:0:0:
214,0,178287,1,2,3:2:0:0:
133,100,178407,1,10,1:2:0:0:
133,100,178527,6,0,P|117:168|97:280,1,165.000005035401,2|0,3:2|3:0,0:0:0:0:
6,314,178887,2,0,P|2:346|56:376,1,82.5000025177003,8|0,1:2|2:0,0:0:0:0:
178,324,179127,2,0,P|128:317|124:366,1,82.5000025177003,6|0,3:2|3:0,0:0:0:0:
242,384,179367,1,12,1:2:0:0:
322,342,179487,1,12,1:2:0:0:
277,262,179607,6,0,P|190:283|98:303,1,165.000005035401,6|10,3:2|1:2,0:0:0:0:
51,240,179967,1,0,1:0:0:0:
51,240,180087,2,0,P|64:196|76:159,1,82.5000025177003,2|2,3:2|1:2,0:0:0:0:
206,71,180327,1,10,1:2:0:0:
137,12,180447,6,0,P|160:83|196:194,1,165.000005035401,2|2,3:2|3:2,0:0:0:0:
322,150,180807,2,0,P|309:203|299:245,1,82.5000025177003,14|0,1:2|1:0,0:0:0:0:
431,280,181047,1,6,3:2:0:0:
370,347,181167,1,0,1:0:0:0:
431,280,181287,2,0,P|487:281|500:208,1,123.75000377655,14|0,1:2|0:0,0:0:0:0:
477,191,181527,6,0,B|403:209|292:238,1,165.000005035401,4|14,3:1|1:2,0:0:0:0:
254,358,181887,1,0,1:0:0:0:
139,306,182007,2,0,P|115:255|202:195,1,165.000005035401,2|10,3:2|1:2,0:0:0:0:
194,11,182367,6,0,P|262:50|253:128,1,165.000005035401,2|2,3:2|3:2,0:0:0:0:
58,59,182727,2,0,P|112:74|162:87,1,82.5000025177003,10|2,1:2|2:0,0:0:0:0:
185,191,182967,1,2,3:2:0:0:
185,191,183087,1,0,1:0:0:0:
96,169,183207,2,0,P|67:212|135:240,1,123.75000377655,10|0,1:2|0:0,0:0:0:0:
146,288,183447,6,0,P|160:232|169:202,1,82.5000025177003,6|2,3:2|1:2,0:0:0:0:
145,88,183687,2,0,P|201:102|231:111,1,82.5000025177003,10|2,1:2|1:2,0:0:0:0:
345,90,183927,2,0,P|331:146|322:176,1,82.5000025177003,2|2,3:2|1:2,0:0:0:0:
338,295,184167,1,10,1:2:0:0:
338,295,184287,6,0,P|282:281|165:253,1,165.000005035401,2|2,3:2|3:2,0:0:0:0:
67,375,184647,2,0,P|30:348|42:307,1,82.5000025177003,10|2,1:2|1:2,0:0:0:0:
76,234,184887,1,2,3:2:0:0:
151,287,185007,1,2,1:2:0:0:
224,341,185127,2,0,P|238:291|256:241,1,82.5000025177003,10|0,1:2|2:0,0:0:0:0:
175,150,185367,6,0,P|171:110|203:87,1,82.5000025177003,14|2,1:2|3:2,0:0:0:0:
343,94,185607,2,0,P|332:54|322:15,1,82.5000025177003,10|2,1:2|3:2,0:0:0:0:
213,71,185847,5,10,1:2:0:0:
80,0,185967,1,2,3:2:0:0:
140,114,186087,1,10,1:2:0:0:
140,114,186207,6,0,P|121:172|94:278,1,165.000005035401,2|0,3:2|3:0,0:0:0:0:
35,338,186567,2,0,P|-3:315|19:264,1,82.5000025177003,8|0,1:2|3:0,0:0:0:0:
122,384,186807,1,8,1:2:0:0:
122,384,186867,1,0,1:0:0:0:
122,384,186927,1,0,1:0:0:0:
184,322,187047,2,0,P|211:291|254:311,1,82.5000025177003,10|10,1:2|1:2,0:0:0:0:
320,353,187287,6,0,P|387:334|424:322,1,82.5000025177003,6|0,3:2|3:0,0:0:0:0:
498,371,187527,2,0,P|504:322|469:300,1,82.5000025177003,10|0,1:2|3:0,0:0:0:0:
431,228,187767,5,10,1:2:0:0:
386,149,187887,1,0,3:0:0:0:
469,111,188007,1,10,1:2:0:0:
442,220,188127,6,0,P|336:196|250:176,1,165.000005035401,2|2,3:2|3:2,0:0:0:0:
232,261,188487,1,10,1:2:0:0:
180,335,188607,1,2,3:2:0:0:
101,292,188727,6,0,P|66:278|75:220,1,82.5000025177003,10|0,1:2|3:0,0:0:0:0:
169,132,188967,2,0,P|155:181|142:230,1,82.5000025177003,10|2,1:2|3:2,0:0:0:0:
16,101,189207,6,0,P|67:89|102:80,1,82.5000025177003,10|0,1:2|3:0,0:0:0:0:
209,17,189447,2,0,P|160:7|108:-4,1,82.5000025177003,10|0,1:2|3:0,0:0:0:0:
220,108,189687,5,10,1:2:0:0:
300,63,189807,1,0,3:0:0:0:
339,145,189927,1,10,1:2:0:0:
249,223,190047,6,0,P|240:274|328:330,1,165.000005035401,2|2,3:2|3:2,0:0:0:0:
379,258,190407,2,0,P|418:270|458:280,1,82.5000025177003,10|2,1:2|3:2,0:0:0:0:
500,369,190647,6,0,P|516:301|525:273,1,82.5000025177003,10|0,1:2|3:0,0:0:0:0:
457,222,190887,1,10,1:2:0:0:
503,144,191007,1,2,3:2:0:0:
432,88,191127,6,0,P|419:45|407:2,1,82.5000025177003,14|0,1:2|3:0,0:0:0:0:
317,110,191367,2,0,P|341:152|386:146,1,82.5000025177003,10|0,1:2|3:0,0:0:0:0:
239,70,191607,5,10,1:2:0:0:
160,24,191727,1,0,3:0:0:0:
113,102,191847,1,10,1:2:0:0:
231,83,191967,6,0,P|214:142|192:257,1,165.000005035401,2|2,3:2|3:2,0:0:0:0:
278,368,192327,2,0,P|287:325|243:298,1,82.5000025177003,10|2,1:2|3:2,0:0:0:0:
164,327,192567,5,10,1:2:0:0:
80,295,192687,1,0,3:0:0:0:
45,378,192807,2,0,P|25:309|14:278,1,82.5000025177003,10|0,1:2|3:0,0:0:0:0:
126,196,193047,6,0,P|109:261|100:303,1,82.5000025177003,10|0,3:2|3:0,0:0:0:0:
33,203,193287,2,0,P|-5:174|13:130,1,82.5000025177003,10|0,1:2|3:0,0:0:0:0:
47,66,193527,5,10,1:2:0:0:
129,103,193647,1,2,3:2:0:0:
176,25,193767,1,10,1:2:0:0:
58,57,193887,6,0,P|154:83|220:98,1,165.000005035401,2|0,3:2|3:0,0:0:0:0:
355,24,194247,2,0,P|318:17|292:62,1,82.5000025177003,8|0,1:2|3:0,0:0:0:0:
251,133,194487,1,8,1:2:0:0:
251,133,194547,1,0,1:0:0:0:
251,133,194607,1,0,1:0:0:0:
334,170,194727,2,0,P|365:191|350:241,1,82.5000025177003,10|10,1:2|1:2,0:0:0:0:
275,261,194967,6,0,P|260:320|249:364,1,82.5000025177003,14|0,1:2|3:0,0:0:0:0:
340,375,195207,2,0,P|385:379|394:320,1,82.5000025177003,10|0,1:2|3:0,0:0:0:0:
464,283,195447,5,10,1:2:0:0:
512,206,195567,1,0,3:0:0:0:
431,166,195687,1,10,1:2:0:0:
453,273,195807,6,0,P|369:250|275:226,1,165.000005035401,2|2,3:2|3:2,0:0:0:0:
230,295,196167,1,10,1:2:0:0:
185,374,196287,1,2,3:2:0:0:
101,338,196407,6,0,P|67:307|99:266,1,82.5000025177003,10|0,1:2|3:0,0:0:0:0:
145,216,196647,2,0,P|179:247|147:288,1,82.5000025177003,8|2,1:2|3:2,0:0:0:0:
83,154,196887,6,0,P|40:167|-9:180,1,82.5000025177003,14|0,1:2|3:0,0:0:0:0:
99,67,197127,2,0,P|158:80|201:91,1,82.5000025177003,10|0,1:2|3:0,0:0:0:0:
237,157,197367,5,10,1:2:0:0:
317,199,197487,1,0,3:0:0:0:
270,277,197607,1,10,1:2:0:0:
165,231,197727,6,0,P|121:246|124:366,1,165.000005035401,2|2,3:2|3:2,0:0:0:0:
194,383,198087,2,0,P|250:366|283:358,1,82.5000025177003,10|0,1:2|3:2,0:0:0:0:
346,285,198327,2,0,P|291:272|235:259,1,82.5000025177003,10|0,1:2|3:0,0:0:0:0:
393,384,198567,5,10,1:2:0:0:
443,308,198687,1,2,3:2:0:0:
359,272,198807,2,0,P|348:244|386:203,1,82.5000025177003,14|0,1:2|3:0,0:0:0:0:
486,142,199047,2,0,P|466:209|457:243,1,82.5000025177003,10|0,1:2|3:0,0:0:0:0:
398,91,199287,5,10,1:2:0:0:
315,127,199407,1,0,3:0:0:0:
269,48,199527,1,10,1:2:0:0:
392,79,199647,6,0,P|401:37|516:39,1,165.000005035401,2|2,3:2|3:2,0:0:0:0:
467,129,200007,2,0,P|482:190|495:234,1,82.5000025177003,10|2,1:2|3:2,0:0:0:0:
427,277,200247,5,10,1:2:0:0:
348,233,200367,1,0,3:0:0:0:
304,308,200487,2,0,P|284:350|232:338,1,82.5000025177003,10|2,1:2|3:2,0:0:0:0:
154,230,200727,6,0,P|206:245|247:258,1,82.5000025177003,14|0,1:2|3:0,0:0:0:0:
159,323,200967,2,0,P|105:339|72:349,1,82.5000025177003,10|0,1:2|3:0,0:0:0:0:
41,265,201207,5,10,1:2:0:0:
0,184,201327,1,2,3:2:0:0:
81,141,201447,1,10,1:2:0:0:
81,141,201567,5,6,3:2:0:0:
253,266,201807,1,14,1:2:0:0:
364,83,202047,1,10,1:2:0:0:
364,83,202167,1,10,1:2:0:0:
