osu file format v14

[General]
AudioFilename: audio.mp3
AudioLeadIn: 0
PreviewTime: 52107
Countdown: 0
SampleSet: Soft
StackLeniency: 0.6
Mode: 0
LetterboxInBreaks: 0
EpilepsyWarning: 1
WidescreenStoryboard: 1

[Editor]
Bookmarks: 1047,24087,26007,33687,37047,75927,83607,202167
DistanceSpacing: 0.8
BeatDivisor: 4
GridSize: 32
TimelineZoom: 2.799999

[Metadata]
Title:humanly
TitleUnicode:人間らしい
Artist:YurryCanon feat. GUMI
ArtistUnicode:ユリイ・カノン feat. GUMI
Creator:Petal
Version:Satellite's Hard
Source:
Tags:japanese pop jpop j-pop rock j-rock jrock vocaloid ボカロ ningenrashii original Yurry Canon full len garden fast satellite milr_ firika matha
BeatmapID:3907941
BeatmapSetID:1886627

[Difficulty]
HPDrainRate:3.7
CircleSize:3.8
OverallDifficulty:6.2
ApproachRate:8
SliderMultiplier:1.3
SliderTickRate:1

[Events]
//Background and Video events
0,0,"bg.jpg",0,0
Video,0,"video.mp4"
//Break Periods
2,24287,25228
2,33887,36268
2,76127,82828
//Storyboard Layer 0 (Background)
//Storyboard Layer 1 (Fail)
//Storyboard Layer 2 (Pass)
//Storyboard Layer 3 (Foreground)
//Storyboard Layer 4 (Overlay)
//Storyboard Sound Samples

[TimingPoints]
1047,240,4,2,2,60,1,0
1167,-100,4,2,1,60,0,0
1287,-100,4,2,2,60,0,0
3087,-100,4,2,1,60,0,0
3207,-100,4,2,2,60,0,0
5007,-100,4,2,1,60,0,0
5127,-100,4,2,2,60,0,0
6207,-100,4,2,1,60,0,0
6327,-100,4,2,2,60,0,0
6927,-100,4,2,1,60,0,0
7047,-100,4,2,2,50,0,0
7287,-100,4,2,2,60,0,0
8487,-100,4,2,3,60,0,0
8547,-100,4,2,3,5,0,0
8727,-100,4,2,2,70,0,0
12567,-100,4,2,4,70,0,0
15447,-100,4,2,2,70,0,0
20247,-100,4,2,4,70,0,0
23127,-100,4,2,2,70,0,0
24087,-100,4,2,3,50,0,0
26007,-111.111111111111,4,2,2,50,0,0
29847,-111.111111111111,4,2,4,50,0,0
32727,-111.111111111111,4,2,4,60,0,0
33687,-111.111111111111,4,2,3,60,0,0
37047,-111.111111111111,4,2,2,50,0,0
37527,-111.111111111111,4,2,4,50,0,0
45207,-111.111111111111,4,2,2,60,0,0
49047,-111.111111111111,4,2,4,60,0,0
50967,-111.111111111111,4,2,2,60,0,0
52887,-100,4,2,2,75,0,0
54327,-100,4,2,4,75,0,0
60567,-100,4,2,2,75,0,0
61767,-100,4,2,4,75,0,0
68247,-100,4,2,2,75,0,0
74847,-100,4,2,4,75,0,0
75747,-100,4,2,4,5,0,0
75927,-100,4,2,2,60,0,0
85527,-100,4,2,2,50,0,0
86967,-111.111111111111,4,2,2,50,0,0
91287,-111.111111111111,4,2,4,50,0,0
91346,-111.111111111111,4,2,4,5,0,0
92247,-111.111111111111,4,2,4,50,0,0
95127,-111.111111111111,4,2,2,60,0,0
98967,-111.111111111111,4,2,4,60,0,0
100887,-111.111111111111,4,2,2,60,0,0
102807,-100,4,2,2,80,0,0
106647,-100,4,2,4,80,0,0
110487,-100,4,2,2,80,0,0
111927,-100,4,2,4,80,0,0
118167,-100,4,2,4,60,0,0
125847,-100,4,2,4,65,0,0
126207,-100,4,2,1,65,0,0
126807,-100,4,2,2,65,0,0
127167,-100,4,2,1,65,0,0
127767,-100,4,2,4,65,0,0
128127,-100,4,2,1,65,0,0
128727,-100,4,2,2,65,0,0
129687,-100,4,2,4,65,0,0
130047,-100,4,2,1,65,0,0
130647,-100,4,2,2,65,0,0
131007,-100,4,2,1,65,0,0
131607,-100,4,2,4,65,0,0
131967,-100,4,2,1,65,0,0
132567,-100,4,2,2,65,0,0
133527,-100,4,2,4,65,0,0
133887,-100,4,2,1,65,0,0
134487,-100,4,2,2,65,0,0
134847,-100,4,2,1,65,0,0
135447,-100,4,2,4,65,0,0
137727,-100,4,2,1,65,0,0
138327,-100,4,2,2,65,0,0
139287,-100,4,2,2,80,0,0
141207,-100,4,2,2,70,0,0
145047,-100,4,2,4,70,0,0
147927,-100,4,2,2,70,0,0
152727,-100,4,2,4,70,0,0
156567,-100,4,2,2,70,0,0
158487,-100,4,2,2,60,0,0
160407,-100,4,2,2,70,0,0
164247,-100,4,2,2,80,0,0
165687,-100,4,2,4,80,0,0
171927,-100,4,2,2,90,0,0
175047,-100,4,2,4,90,0,0
175767,-100,4,2,2,90,0,0
179127,-100,4,2,4,90,0,0
179607,-100,4,2,2,90,0,0
180807,-100,4,2,4,90,0,0
181767,-100,4,2,2,90,0,0
201807,-100,4,2,4,90,0,0

[Colours]
Combo1 : 128,128,128
Combo2 : 192,192,192

[HitObjects]
50,372,1047,6,0,L|39:287,2,65,2|2|10,3:2|3:2|1:2,2:0:0:0:
146,334,1527,2,0,B|197:322|197:322|220:339|220:339|282:346,1,130,10|10,1:2|1:2,2:0:0:0:
313,372,1887,6,0,P|351:322|338:261,1,130,2|10,3:2|1:2,2:0:0:0:
285,257,2247,2,0,P|247:207|260:146,1,130,2|10,3:2|1:2,2:0:0:0:
312,144,2607,5,2,3:2:0:0:
345,104,2727,2,0,P|352:57|335:38,1,65,2|10,1:2|1:2,0:0:0:0:
302,13,2967,6,0,L|238:19,2,65,2|2|10,3:2|3:2|1:2,2:0:0:0:
405,1,3447,2,0,B|436:13|436:13|460:43|458:88|435:109,1,130,10|10,1:2|1:2,2:0:0:0:
406,142,3807,6,0,P|331:137|258:132,1,130,2|10,3:2|1:2,2:0:0:0:
232,105,4167,2,0,P|200:128|197:164,2,65,2|2|10,3:2|3:2|1:2,0:0:0:0:
28,17,4887,6,0,L|36:81,2,65,2|2|10,3:2|3:2|1:2,2:0:0:0:
125,54,5367,2,0,B|138:85|138:85|122:142|122:142|88:156,1,130,10|10,1:2|1:2,2:0:0:0:
38,169,5727,6,0,B|103:207|58:230|117:267,1,130,2|10,3:2|1:2,2:0:0:0:
162,293,6087,2,0,P|160:324|138:348,2,65,2|0|10,3:2|3:0|1:2,2:0:0:0:
201,258,6447,5,2,3:2:0:0:
232,216,6567,2,0,P|257:237|292:243,1,65,2|10,1:2|1:2,0:0:0:0:
340,240,6807,6,0,L|407:246,2,65,2|2|10,3:2|3:2|1:2,2:0:0:0:
309,140,7287,2,0,B|358:127|358:127|388:138|388:138|440:130,1,130,10|10,1:2|1:2,2:0:0:0:
486,137,7647,6,0,P|531:84|490:27,1,130,2|10,3:2|1:2,2:0:0:0:
477,0,8007,1,10,1:2:0:0:
427,8,8127,2,0,P|398:27|392:63,1,65,10|10,1:2|1:2,0:0:0:0:
289,44,8487,6,0,L|280:9,1,32.5,2|0,1:2|2:0,2:0:0:0:
203,4,8727,6,0,L|189:160,1,130,6|10,3:2|1:2,2:0:0:0:
185,185,9087,1,2,3:2:0:0:
82,168,9327,1,2,1:2:0:0:
82,168,9447,2,0,L|88:240,1,65,10|2,1:2|2:0,2:0:0:0:
93,284,9687,6,0,L|248:268,1,130,2|10,3:2|1:2,2:0:0:0:
261,305,10047,1,0,1:0:0:0:
261,305,10167,2,0,L|390:318,1,130,2|10,3:2|1:2,2:0:0:0:
467,248,10647,6,0,P|500:194|480:125,1,130,2|10,3:2|1:2,2:0:0:0:
448,96,11007,1,2,1:2:0:0:
353,139,11247,1,2,3:2:0:0:
353,139,11367,2,0,P|303:133|260:129,1,65,10|2,1:2|2:0,2:0:0:0:
243,104,11607,6,0,L|235:258,2,130,2|10|2,3:2|1:2|3:2,2:0:0:0:
272,61,12207,1,0,1:0:0:0:
234,24,12327,1,10,1:2:0:0:
142,73,12567,6,0,L|272:61,1,130,6|10,3:2|1:2,2:0:0:0:
323,54,12927,1,2,3:2:0:0:
391,132,13167,1,2,3:2:0:0:
391,132,13287,2,0,L|474:141,1,65,10|2,1:2|2:0,2:0:0:0:
506,147,13527,6,0,P|527:193|503:273,1,130,2|10,3:2|1:2,2:0:0:0:
467,299,13887,1,0,1:0:0:0:
467,299,14007,2,0,P|421:320|341:296,1,130,2|10,3:2|1:2,2:0:0:0:
258,356,14487,6,0,L|249:218,1,130,2|10,3:2|1:2,2:0:0:0:
245,174,14847,1,2,3:2:0:0:
148,212,15087,1,2,3:2:0:0:
148,212,15207,2,0,L|155:133,1,65,10|2,1:2|2:0,2:0:0:0:
140,96,15447,6,0,L|297:85,2,130,10|10|10,1:0|1:0|1:0,2:0:0:0:
39,68,16167,2,0,L|33:132,1,65,10|0,1:0|2:0,2:0:0:0:
30,184,16407,6,0,L|187:173,1,130,6|10,3:2|1:2,2:0:0:0:
200,207,16767,1,2,3:2:0:0:
262,124,17007,1,2,3:2:0:0:
262,124,17127,2,0,L|358:119,1,65,10|2,1:2|2:0,2:0:0:0:
360,80,17367,6,0,P|422:85|451:140,1,130,2|10,3:2|1:2,2:0:0:0:
436,190,17727,1,0,1:0:0:0:
436,190,17847,2,0,P|387:229|328:211,1,130,2|10,3:2|1:2,2:0:0:0:
262,124,18327,6,0,L|252:258,1,130,2|10,3:2|1:2,2:0:0:0:
248,305,18687,1,2,3:2:0:0:
152,347,18927,1,2,3:2:0:0:
152,347,19047,2,0,L|144:273,1,65,10|2,1:2|2:0,2:0:0:0:
157,231,19287,6,0,L|18:217,1,130,2|10,3:2|1:2,2:0:0:0:
27,165,19647,1,0,1:0:0:0:
27,165,19767,2,0,L|156:151,1,130,2|10,3:2|1:2,2:0:0:0:
262,124,20247,6,0,L|272:258,1,130,6|10,3:2|1:2,2:0:0:0:
276,305,20607,1,2,3:2:0:0:
375,334,20847,1,2,3:2:0:0:
375,334,20967,2,0,L|383:260,1,65,10|2,1:2|2:0,2:0:0:0:
369,219,21207,6,0,L|508:205,1,130,2|10,3:2|1:2,2:0:0:0:
499,153,21567,1,0,1:0:0:0:
499,153,21687,2,0,L|369:139,1,130,2|10,3:2|1:2,2:0:0:0:
314,52,22167,6,0,P|266:60|242:136,1,130,2|10,3:2|1:2,2:0:0:0:
266,175,22527,1,2,3:2:0:0:
341,246,22767,1,2,3:2:0:0:
341,246,22887,2,0,P|334:289|308:312,1,65,10|2,1:2|1:2,2:0:0:0:
277,332,23127,6,0,L|208:323,1,65,10|0,1:0|3:0,2:0:0:0:
168,351,23367,2,0,L|99:342,1,65,10|0,1:0|3:0,2:0:0:0:
60,313,23607,1,10,1:0:0:0:
141,247,23847,2,0,B|124:176|167:209|145:107,1,130,10|2,1:0|2:0,2:0:0:0:
49,85,26007,6,0,P|90:124|147:119,1,116.999996429443,2|0,3:2|2:0,2:0:0:0:
186,83,26367,1,10,1:2:0:0:
186,83,26487,2,0,L|318:73,1,116.999996429443,2|10,3:2|1:2,2:0:0:0:
391,18,26967,6,0,L|396:83,1,58.4999982147217,2|2,3:2|2:0,2:0:0:0:
439,106,27207,2,0,L|434:171,1,58.4999982147217,2|10,1:2|1:2,2:0:0:0:
407,209,27447,1,2,3:2:0:0:
308,171,27687,1,10,1:2:0:0:
241,252,27927,6,0,L|120:245,1,116.999996429443,2|0,3:2|2:0,2:0:0:0:
74,228,28287,1,10,1:2:0:0:
74,228,28407,2,0,L|83:306,1,58.4999982147217,2|2,3:2|2:0,2:0:0:0:
87,338,28647,1,10,1:2:0:0:
189,361,28887,6,0,L|260:353,1,58.4999982147217,2|2,3:2|2:0,2:0:0:0:
294,377,29127,2,0,L|365:369,1,58.4999982147217,2|10,1:2|1:2,2:0:0:0:
391,334,29367,1,2,3:2:0:0:
295,289,29607,2,0,L|302:218,1,58.4999982147217,10|10,1:2|1:2,2:0:0:0:
345,203,29847,6,0,L|333:80,1,116.999996429443,6|0,3:2|2:0,2:0:0:0:
322,35,30207,1,10,1:2:0:0:
322,35,30327,2,0,L|247:28,1,58.4999982147217,2|0,3:2|2:0,2:0:0:0:
221,60,30567,2,0,L|146:53,1,58.4999982147217,10|2,1:2|2:0,2:0:0:0:
124,18,30807,6,0,P|80:45|81:116,1,116.999996429443,2|2,3:2|2:0,2:0:0:0:
117,137,31167,1,10,1:2:0:0:
117,137,31287,2,0,P|123:210|127:267,1,116.999996429443,2|10,3:2|1:2,2:0:0:0:
217,307,31767,6,0,P|221:248|226:190,1,116.999996429443,2|0,3:2|2:0,2:0:0:0:
253,144,32127,1,10,1:2:0:0:
253,144,32247,2,0,L|327:153,1,58.4999982147217,2|0,3:2|2:0,2:0:0:0:
347,189,32487,2,0,L|405:181,1,58.4999982147217,10|2,1:2|1:2,2:0:0:0:
443,146,32727,6,0,B|445:121|445:121|436:109|436:109|433:88,3,58.4999982147217,10|2|10|2,1:2|3:2|1:2|3:2,2:0:0:0:
452,41,33207,5,10,1:2:0:0:
346,33,33447,1,10,3:2:0:0:
241,24,33687,1,2,3:2:0:0:
69,238,37047,6,0,B|67:263|67:263|76:275|76:275|79:296,3,58.4999982147217,8|8|8|8,1:2|1:2|1:2|1:2,2:0:0:0:
89,345,37527,6,0,B|170:312|162:347|226:331,1,116.999996429443,6|0,3:2|2:0,2:0:0:0:
242,298,37887,1,10,1:2:0:0:
242,298,38007,2,0,P|293:306|321:310,1,58.4999982147217,2|0,3:2|2:0,2:0:0:0:
339,342,38247,2,0,P|390:334|418:330,1,58.4999982147217,10|2,1:2|2:0,2:0:0:0:
444,356,38487,6,0,P|476:298|448:245,1,116.999996429443,2|2,3:2|2:0,2:0:0:0:
425,213,38847,1,10,1:2:0:0:
373,224,38967,1,2,3:2:0:0:
282,170,39207,1,10,1:2:0:0:
196,231,39447,6,0,P|164:173|192:120,1,116.999996429443,2|0,3:2|2:0,2:0:0:0:
216,90,39807,1,10,1:2:0:0:
216,90,39927,2,0,P|259:87|294:83,1,58.4999982147217,2|0,3:2|2:0,2:0:0:0:
306,43,40167,2,0,P|335:45|364:47,1,58.4999982147217,10|2,1:2|2:0,2:0:0:0:
411,24,40407,6,0,L|417:91,1,58.4999982147217,2|2,3:2|2:0,2:0:0:0:
451,120,40647,2,0,L|445:187,1,58.4999982147217,2|10,1:2|1:2,2:0:0:0:
423,226,40887,1,2,3:2:0:0:
483,312,41127,1,10,1:2:0:0:
454,356,41247,1,10,1:2:0:0:
401,348,41367,6,0,B|332:326|346:367|265:348,1,116.999996429443,6|0,3:2|2:0,2:0:0:0:
241,323,41727,1,10,1:2:0:0:
241,323,41847,2,0,P|206:330|175:335,1,58.4999982147217,2|0,3:2|2:0,2:0:0:0:
136,358,42087,2,0,P|101:351|70:346,1,58.4999982147217,10|2,1:2|2:0,2:0:0:0:
30,369,42327,6,0,P|-2:311|26:258,1,116.999996429443,2|2,3:2|2:0,2:0:0:0:
49,226,42687,1,10,1:2:0:0:
101,237,42807,1,2,3:2:0:0:
195,189,43047,2,0,P|206:149|188:123,1,58.4999982147217,10|2,1:2|2:0,2:0:0:0:
164,95,43287,6,0,L|286:80,1,116.999996429443,2|0,3:2|2:0,2:0:0:0:
323,50,43647,1,10,1:2:0:0:
323,50,43767,2,0,L|384:60,1,58.4999982147217,2|0,3:2|2:0,2:0:0:0:
425,31,44007,2,0,L|434:102,1,58.4999982147217,10|2,1:2|1:2,2:0:0:0:
440,141,44247,6,0,B|415:139|415:139|403:148|403:148|382:151,3,58.4999982147217,10|0|10|0,1:2|3:0|1:2|3:0,2:0:0:0:
334,133,44727,6,0,L|327:204,1,58.4999982147217,10|8,1:2|1:2,2:0:0:0:
321,243,44967,1,8,1:2:0:0:
274,218,45087,1,8,1:2:0:0:
229,245,45207,6,0,L|217:119,1,116.999996429443,6|10,3:2|1:2,2:0:0:0:
234,78,45567,2,0,L|115:68,1,116.999996429443,10|2,1:2|2:0,2:0:0:0:
68,47,45927,2,0,L|59:125,1,58.4999982147217,10|2,1:2|2:0,2:0:0:0:
38,152,46167,5,2,3:2:0:0:
131,200,46407,2,0,L|123:279,1,58.4999982147217,10|0,1:2|1:0,2:0:0:0:
101,305,46647,1,2,3:2:0:0:
149,285,46767,1,0,1:0:0:0:
192,314,46887,2,0,L|268:307,1,58.4999982147217,10|0,1:2|3:0,2:0:0:0:
301,321,47127,6,0,B|299:296|299:296|308:284|308:284|311:263,3,58.4999982147217,2|2|10|10,3:2|1:2|1:2|1:2,2:0:0:0:
347,227,47607,2,0,B|349:202|349:202|340:190|340:190|337:169,3,58.4999982147217,2|2|10|2,3:2|1:2|1:2|1:2,2:0:0:0:
355,121,48087,5,2,3:2:0:0:
252,145,48327,1,10,1:2:0:0:
165,84,48567,2,0,P|167:47|185:37,1,58.4999982147217,10|0,1:2|1:0,2:0:0:0:
233,22,48807,1,8,1:2:0:0:
271,57,48927,1,8,1:2:0:0:
318,34,49047,6,0,L|445:26,1,116.999996429443,6|10,3:2|1:2,2:0:0:0:
480,53,49407,1,10,1:2:0:0:
480,53,49527,2,0,L|474:118,1,58.4999982147217,2|2,3:2|2:0,2:0:0:0:
439,150,49767,2,0,L|445:215,1,58.4999982147217,10|2,1:2|2:0,2:0:0:0:
468,255,50007,6,0,L|326:241,1,116.999996429443,2|10,3:2|1:2,2:0:0:0:
297,333,50487,2,0,L|155:347,1,116.999996429443,2|10,3:2|1:2,2:0:0:0:
130,328,50847,1,2,3:2:0:0:
85,355,50967,5,10,1:0:0:0:
38,263,51207,1,10,1:0:0:0:
111,189,51447,1,10,1:0:0:0:
204,236,51687,1,10,1:0:0:0:
188,339,51927,1,10,1:0:0:0:
84,32,52887,6,0,L|93:110,1,65,6|0,3:2|2:0,2:0:0:0:
139,116,53127,2,0,L|130:194,1,65,10|0,1:2|2:0,2:0:0:0:
89,210,53367,1,2,3:2:0:0:
89,210,53487,2,0,L|98:288,1,65,2|0,1:2|2:0,2:0:0:0:
80,324,53727,6,0,L|227:305,1,130,2|2,3:2|3:2,2:0:0:0:
244,346,54087,2,0,L|314:353,1,65,10|2,1:2|2:0,2:0:0:0:
357,371,54327,2,0,L|426:362,1,65,6|0,3:2|2:0,2:0:0:0:
454,322,54567,1,14,1:2:0:0:
373,256,54807,2,0,L|379:187,1,65,6|0,3:2|2:0,2:0:0:0:
382,139,55047,1,10,1:2:0:0:
473,88,55287,6,0,P|459:43|381:31,1,130,2|10,3:2|1:2,2:0:0:0:
345,63,55647,2,0,L|208:53,1,130,2|2,3:2|3:2,2:0:0:0:
174,85,56007,2,0,L|108:93,1,65,10|2,1:2|2:0,2:0:0:0:
63,69,56247,2,0,P|25:90|34:176,1,130,2|10,3:2|1:2,2:0:0:0:
112,227,56727,6,0,L|181:217,1,65,6|2,3:2|2:0,2:0:0:0:
215,252,56967,2,0,L|284:242,1,65,10|2,1:2|2:0,2:0:0:0:
312,202,57207,2,0,L|319:131,2,65,2|2|10,3:2|1:2|1:2,2:0:0:0:
353,233,57567,6,0,L|364:101,1,130,2|2,3:2|3:2,2:0:0:0:
393,60,57927,2,0,L|326:52,1,65,10|2,1:2|2:0,2:0:0:0:
287,19,58167,1,2,3:2:0:0:
238,38,58287,1,2,1:2:0:0:
232,89,58407,1,10,1:2:0:0:
130,67,58647,6,0,L|138:134,1,65,10|2,1:2|1:2,2:0:0:0:
181,159,58887,2,0,L|173:226,1,65,10|2,1:2|3:2,2:0:0:0:
143,266,59127,2,0,L|68:274,2,65,10|2|10,1:2|1:2|1:2,2:0:0:0:
166,312,59487,6,0,L|323:295,1,130,2|0,3:2|3:0,2:0:0:0:
337,267,59847,2,0,L|348:343,1,65,10|0,1:2|2:0,2:0:0:0:
353,382,60087,1,2,3:2:0:0:
453,355,60327,1,8,1:2:0:0:
489,318,60447,1,0,1:0:0:0:
461,273,60567,6,0,L|472:197,1,65,6|0,3:2|2:0,2:0:0:0:
508,172,60807,2,0,L|497:96,1,65,10|0,1:2|2:0,2:0:0:0:
459,73,61047,2,0,L|469:4,2,65,2|2|10,3:2|1:2|1:2,0:0:0:0:
413,97,61407,1,2,3:2:0:0:
331,31,61647,5,2,3:2:0:0:
331,31,61767,2,0,L|255:25,1,65,14|0,1:2|2:0,2:0:0:0:
226,60,62007,2,0,L|150:54,1,65,6|0,3:2|2:0,2:0:0:0:
108,53,62247,1,14,1:2:0:0:
115,156,62487,6,0,P|122:252|126:301,1,130,6|10,3:2|1:2,2:0:0:0:
129,337,62847,1,0,1:0:0:0:
129,337,62967,2,0,P|181:359|248:303,1,130,2|10,3:2|1:2,2:0:0:0:
250,272,63327,6,0,L|382:262,1,130,2|2,3:2|3:2,2:0:0:0:
429,277,63687,2,0,L|434:194,1,65,10|2,1:2|2:0,2:0:0:0:
468,174,63927,1,2,3:2:0:0:
448,125,64047,1,0,1:0:0:0:
396,128,64167,1,10,1:2:0:0:
309,69,64407,6,0,B|306:89|306:89|295:103|295:103|298:131,3,65,6|2|10|2,3:2|1:2|1:2|1:2,2:0:0:0:
330,171,64887,2,0,L|324:242,1,65,2|2,3:2|2:0,2:0:0:0:
319,287,65127,1,10,1:2:0:0:
319,287,65247,6,0,P|267:309|200:253,1,130,2|2,3:2|3:2,2:0:0:0:
189,225,65607,2,0,L|105:215,1,65,10|2,1:2|2:0,2:0:0:0:
73,205,65847,1,2,3:2:0:0:
49,158,65967,1,2,1:2:0:0:
84,119,66087,1,10,1:2:0:0:
169,59,66327,6,0,L|177:138,1,65,10|2,1:2|1:2,2:0:0:0:
223,143,66567,2,0,L|306:143,1,65,10|2,1:2|3:2,2:0:0:0:
336,123,66807,2,0,L|343:59,2,65,10|2|10,1:2|3:2|1:2,2:0:0:0:
334,175,67167,1,2,3:2:0:0:
255,243,67407,5,0,3:0:0:0:
255,243,67527,2,0,L|255:311,1,65,8|0,1:2|3:0,2:0:0:0:
255,359,67767,1,8,1:2:0:0:
164,308,68007,1,10,1:2:0:0:
112,302,68127,1,10,1:2:0:0:
88,348,68247,5,14,1:2:0:0:
61,247,68487,1,10,1:2:0:0:
133,172,68727,2,0,L|60:161,1,65,10|0,1:2|3:0,2:0:0:0:
18,148,68967,1,10,1:2:0:0:
18,148,69087,6,0,P|-8:99|39:37,1,130,2|2,3:2|3:2,2:0:0:0:
75,18,69447,1,10,1:2:0:0:
124,34,69567,1,2,3:2:0:0:
119,86,69687,1,10,1:2:0:0:
216,123,69927,1,8,1:2:0:0:
261,97,70047,1,2,3:2:0:0:
253,45,70167,6,0,L|395:33,1,130,10|10,1:2|1:2,2:0:0:0:
480,69,70647,2,0,P|512:117|487:182,1,130,10|10,1:2|1:2,2:0:0:0:
445,208,71007,6,0,L|303:196,1,130,2|2,3:2|3:2,2:0:0:0:
279,159,71367,1,10,1:2:0:0:
228,170,71487,1,2,3:2:0:0:
220,221,71607,1,10,1:2:0:0:
155,302,71847,1,10,1:2:0:0:
163,353,71967,1,2,3:2:0:0:
116,375,72087,6,0,P|48:353|46:278,1,130,14|10,1:2|1:2,2:0:0:0:
100,220,72567,2,0,L|89:74,1,130,10|10,1:2|1:2,2:0:0:0:
58,48,72927,6,0,P|93:5|168:31,1,130,2|2,3:2|3:2,2:0:0:0:
194,57,73287,2,0,L|281:63,1,65,10|2,1:2|3:2,2:0:0:0:
303,34,73527,1,10,1:2:0:0:
280,135,73767,2,0,L|367:129,1,65,10|0,1:2|3:0,2:0:0:0:
383,95,74007,6,0,P|436:116|441:200,1,130,10|10,1:2|1:2,2:0:0:0:
406,277,74487,1,10,1:2:0:0:
354,269,74607,1,2,3:2:0:0:
302,262,74727,1,10,1:2:0:0:
266,300,74847,5,14,1:2:0:0:
217,208,75087,1,10,1:2:0:0:
120,246,75327,1,10,1:2:0:0:
120,246,75447,1,10,1:2:0:0:
40,178,75687,2,0,L|45:142,1,32.5,0|0,3:0|2:0,2:0:0:0:
57,68,75927,5,6,3:2:0:0:
256,192,83607,12,2,85527,3:1:0:0:
69,146,86967,6,0,B|67:121|67:121|76:109|76:109|79:88,3,58.4999982147217,10|10|10|10,1:0|1:0|1:0|1:0,2:0:0:0:
59,41,87447,6,0,P|110:22|164:66,1,116.999996429443,2|0,3:2|2:0,2:0:0:0:
182,101,87807,1,10,1:2:0:0:
182,101,87927,2,0,L|249:93,1,58.4999982147217,2|2,3:2|2:0,2:0:0:0:
291,82,88167,1,10,1:2:0:0:
382,30,88407,6,0,L|387:103,1,58.4999982147217,2|2,3:2|2:0,2:0:0:0:
429,117,88647,2,0,L|424:190,1,58.4999982147217,2|10,1:2|1:2,2:0:0:0:
419,227,88887,1,2,3:2:0:0:
335,163,89127,1,10,1:2:0:0:
238,204,89367,6,0,L|248:342,1,116.999996429443,2|0,3:2|2:0,2:0:0:0:
286,354,89727,1,10,1:2:0:0:
286,354,89847,2,0,L|362:339,1,58.4999982147217,2|2,3:2|2:0,2:0:0:0:
395,332,90087,2,0,L|398:273,1,58.4999982147217,10|2,1:2|2:0,2:0:0:0:
419,227,90327,5,2,3:2:0:0:
335,163,90567,1,2,1:2:0:0:
238,204,90807,1,2,3:2:0:0:
155,138,91047,1,10,1:2:0:0:
107,160,91167,1,10,1:2:0:0:
67,125,91287,6,0,L|64:95,1,29.2499991073609,6|0,1:2|2:0,2:0:0:0:
454,36,92247,5,6,3:2:0:0:
350,54,92487,1,6,3:2:0:0:
246,72,92727,1,6,3:2:0:0:
144,43,92967,6,0,L|139:10,2,29.2499991073609,10|8|8,1:2|1:2|1:2,2:0:0:0:
60,6,93207,6,0,L|51:138,1,116.999996429443,2|0,3:2|3:0,2:0:0:0:
14,159,93567,1,10,1:2:0:0:
14,159,93687,2,0,L|22:226,1,58.4999982147217,2|2,3:2|2:0,2:0:0:0:
11,268,93927,2,0,L|77:275,1,58.4999982147217,10|2,1:2|2:0,2:0:0:0:
101,316,94167,5,10,1:2:0:0:
205,298,94407,1,10,1:2:0:0:
309,280,94647,2,0,P|343:292|359:315,1,58.4999982147217,10|8,1:2|1:2,2:0:0:0:
371,359,94887,1,8,1:2:0:0:
414,329,95007,1,8,1:2:0:0:
463,346,95127,6,0,P|496:294|468:222,1,116.999996429443,6|10,3:2|1:2,2:0:0:0:
436,222,95487,1,0,1:0:0:0:
436,222,95607,2,0,P|403:174|413:118,1,116.999996429443,2|10,3:2|1:2,2:0:0:0:
478,35,96087,6,0,L|408:28,1,58.4999982147217,2|0,3:2|2:0,2:0:0:0:
368,16,96327,1,10,1:2:0:0:
327,49,96447,1,0,1:0:0:0:
277,29,96567,2,0,L|269:96,1,58.4999982147217,2|0,3:2|3:0,2:0:0:0:
234,125,96807,2,0,L|242:192,1,58.4999982147217,8|0,1:2|3:0,2:0:0:0:
270,226,97047,6,0,B|245:224|245:224|233:233|233:233|212:236,3,58.4999982147217,2|2|10|10,3:2|1:2|1:2|1:2,2:0:0:0:
176,272,97527,2,0,B|151:274|151:274|139:265|139:265|118:262,3,58.4999982147217,2|2|10|2,3:2|1:2|1:2|1:2,2:0:0:0:
75,289,98007,5,2,3:2:0:0:
56,185,98247,1,10,1:2:0:0:
39,80,98487,2,0,P|61:54|90:57,1,58.4999982147217,10|0,1:2|1:0,2:0:0:0:
135,63,98727,1,8,1:2:0:0:
164,106,98847,1,8,1:2:0:0:
213,88,98967,6,0,P|284:72|348:64,1,116.999996429443,6|10,3:2|1:2,2:0:0:0:
377,85,99327,1,10,1:2:0:0:
377,85,99447,2,0,P|383:130|388:163,1,58.4999982147217,2|0,3:2|2:0,2:0:0:0:
429,172,99687,2,0,P|423:217|418:250,1,58.4999982147217,10|0,1:2|2:0,2:0:0:0:
410,281,99927,5,2,3:2:0:0:
318,229,100167,1,10,1:2:0:0:
311,281,100287,1,2,1:2:0:0:
304,333,100407,1,2,3:2:0:0:
217,272,100647,2,0,P|211:317|206:350,1,58.4999982147217,2|0,1:2|1:0,2:0:0:0:
201,382,100887,5,10,1:0:0:0:
97,363,101127,1,10,1:0:0:0:
129,262,101367,1,10,1:0:0:0:
25,243,101607,1,10,1:0:0:0:
57,142,101847,1,10,1:0:0:0:
428,32,102807,6,0,L|419:110,1,65,6|0,3:2|2:0,2:0:0:0:
373,116,103047,2,0,L|382:194,1,65,10|0,1:2|2:0,2:0:0:0:
423,210,103287,1,2,3:2:0:0:
423,210,103407,2,0,L|414:288,1,65,2|10,1:2|1:2,2:0:0:0:
432,324,103647,6,0,L|285:305,1,130,2|2,3:2|3:2,2:0:0:0:
250,301,104007,1,10,1:2:0:0:
185,382,104247,2,0,L|109:373,1,65,2|2,3:2|2:0,2:0:0:0:
85,336,104487,2,0,L|93:271,1,65,10|2,1:2|2:0,2:0:0:0:
50,246,104727,6,0,P|23:210|64:137,1,130,2|10,3:2|1:2,2:0:0:0:
105,155,105087,1,0,1:0:0:0:
105,155,105207,2,0,P|168:167|233:176,1,130,2|10,3:2|1:2,2:0:0:0:
274,144,105567,6,0,P|301:108|260:35,1,130,2|2,3:2|3:2,2:0:0:0:
216,32,105927,2,0,P|175:41|141:46,1,65,10|2,1:2|2:0,2:0:0:0:
99,49,106167,2,0,P|70:103|105:155,1,130,2|10,3:2|1:2,2:0:0:0:
180,227,106647,6,0,L|258:221,1,65,6|2,3:2|2:0,2:0:0:0:
287,191,106887,1,10,1:2:0:0:
328,222,107007,1,2,1:2:0:0:
320,273,107127,1,2,3:2:0:0:
404,334,107367,5,10,1:2:0:0:
404,334,107487,2,0,P|458:296|448:239,1,130,2|2,3:2|3:2,2:0:0:0:
413,201,107847,2,0,L|410:131,1,65,10|2,1:2|2:0,2:0:0:0:
438,92,108087,1,2,3:2:0:0:
353,30,108327,1,10,1:2:0:0:
258,72,108567,6,0,L|189:64,1,65,10|2,1:2|3:2,2:0:0:0:
145,84,108807,2,0,L|76:76,1,65,10|2,1:2|3:2,2:0:0:0:
33,99,109047,2,0,L|25:28,2,65,10|2|10,1:2|3:2|1:2,2:0:0:0:
0,139,109407,6,0,L|13:268,1,130,2|0,3:2|3:0,2:0:0:0:
17,320,109767,1,8,1:2:0:0:
101,380,110007,2,0,L|245:366,1,130,2|8,3:2|1:2,2:0:0:0:
273,339,110367,1,8,1:2:0:0:
273,339,110487,6,0,L|281:244,1,65,6|2,3:2|2:0,2:0:0:0:
328,258,110727,2,0,L|320:163,1,65,10|2,1:2|2:0,2:0:0:0:
364,161,110967,2,0,P|337:117|264:118,1,130,2|10,3:2|1:2,2:0:0:0:
233,159,111327,1,2,3:2:0:0:
134,125,111567,5,2,3:2:0:0:
134,125,111687,2,0,P|139:75|142:50,1,65,10|2,1:2|2:0,2:0:0:0:
155,10,111927,1,6,3:2:0:0:
253,44,112167,1,14,1:2:0:0:
347,0,112407,6,0,P|395:10|408:95,1,130,2|10,3:2|1:2,2:0:0:0:
391,126,112767,1,2,1:2:0:0:
391,126,112887,2,0,P|285:121|249:120,1,130,2|10,3:2|1:2,2:0:0:0:
222,85,113247,6,0,P|174:95|161:180,1,130,2|2,3:2|3:2,2:0:0:0:
182,209,113607,2,0,P|187:269|191:305,1,65,10|0,1:2|2:0,2:0:0:0:
198,325,113847,1,2,3:2:0:0:
294,286,114087,1,10,1:2:0:0:
374,351,114327,6,0,P|377:318|379:286,1,65,6|2,3:2|2:0,2:0:0:0:
417,251,114567,2,0,P|413:218|411:186,1,65,10|2,1:2|2:0,2:0:0:0:
385,141,114807,2,0,L|456:131,2,65,2|2|10,3:2|1:2|1:2,2:0:0:0:
346,105,115167,6,0,P|229:90|211:88,1,130,2|2,3:2|3:2,2:0:0:0:
182,49,115527,1,10,1:2:0:0:
135,72,115647,1,2,1:2:0:0:
137,123,115767,1,2,3:2:0:0:
223,180,116007,1,10,1:2:0:0:
169,269,116247,6,0,L|177:348,1,65,10|2,1:2|3:2,2:0:0:0:
223,353,116487,2,0,L|306:353,1,65,10|2,1:2|3:2,2:0:0:0:
336,333,116727,2,0,L|343:269,2,65,10|2|10,1:2|3:2|1:2,2:0:0:0:
384,353,117087,1,10,1:2:0:0:
52,28,118167,5,6,3:2:0:0:
461,100,119127,1,6,3:2:0:0:
50,170,120087,1,6,1:2:0:0:
462,241,121047,1,6,3:2:0:0:
49,313,122007,5,6,3:2:0:0:
462,241,122967,1,6,3:2:0:0:
50,170,123927,1,6,3:2:0:0:
461,100,124887,6,0,B|398:79|398:79|336:93|336:93|318:29,1,195,6|2,3:2|3:2,2:0:0:0:
59,1,125847,6,0,B|32:9|32:9|2:55|35:115,1,130,6|0,3:2|1:0,2:0:0:0:
67,142,126207,2,0,B|94:150|94:150|124:196|91:256,1,130,0|0,3:0|3:0,2:0:0:0:
57,283,126567,1,2,1:2:0:0:
121,364,126807,6,0,P|161:306|218:309,1,130,2|2,3:2|1:2,2:0:0:0:
259,335,127167,2,0,P|331:328|392:323,1,130,0|0,3:0|3:0,2:0:0:0:
433,349,127527,1,2,1:2:0:0:
473,253,127767,6,0,B|426:240|426:240|391:240|391:240|335:226,1,130,6|0,3:2|1:0,2:0:0:0:
302,256,128127,2,0,P|259:223|273:149,1,130,0|0,3:0|3:0,2:0:0:0:
311,125,128487,1,2,1:2:0:0:
240,48,128727,6,0,B|175:59|191:109|120:119,1,130,2|2,3:2|1:2,2:0:0:0:
107,161,129087,1,0,3:0:0:0:
107,161,129207,2,0,B|172:172|156:222|227:232,1,130,2|2,1:2|1:2,2:0:0:0:
229,279,129567,1,2,1:2:0:0:
209,327,129687,6,0,P|278:315|364:302,1,130,6|0,3:2|1:0,2:0:0:0:
384,328,130047,2,0,P|437:282|418:230,1,130,0|0,3:0|3:0,2:0:0:0:
376,205,130407,1,2,1:2:0:0:
452,134,130647,6,0,B|418:115|418:115|380:125|317:113,1,130,2|2,3:2|1:2,2:0:0:0:
285,84,131007,1,0,3:0:0:0:
285,84,131127,2,0,B|251:103|251:103|213:93|150:105,1,130,2|2,1:2|1:2,2:0:0:0:
88,27,131607,6,0,P|76:128|74:183,1,130,6|0,3:2|1:0,2:0:0:0:
29,182,131967,2,0,P|41:283|43:338,1,130,0|0,3:0|3:0,2:0:0:0:
82,345,132327,2,0,P|140:336|167:334,1,65,2|2,1:2|1:2,2:0:0:0:
191,361,132567,5,2,3:2:0:0:
245,272,132807,1,2,1:2:0:0:
157,216,133047,1,0,1:0:0:0:
211,127,133287,2,0,P|265:121|301:117,1,65,2|0,1:2|2:0,2:0:0:0:
327,115,133527,6,0,P|395:133|408:195,1,130,6|0,3:2|1:0,2:0:0:0:
399,235,133887,2,0,P|338:270|285:235,1,130,0|0,3:0|3:0,2:0:0:0:
266,198,134247,1,2,1:2:0:0:
218,290,134487,6,0,B|186:285|186:285|136:313|136:313|87:309,1,130,2|2,3:2|1:2,2:0:0:0:
55,277,134847,1,0,3:0:0:0:
55,277,134967,2,0,L|46:126,1,130,2|2,1:2|1:2,2:0:0:0:
9,50,135447,6,0,B|72:22|154:55|134:62|112:71|195:101|256:77,1,260,6|0,3:2|1:0,2:0:0:0:
328,1,136167,1,2,1:2:0:0:
417,53,136407,6,0,P|423:110|430:142,1,65,2|0,3:2|2:0,2:0:0:0:
458,156,136647,2,0,P|452:213|445:245,1,65,2|0,1:2|3:0,2:0:0:0:
432,269,136887,1,2,1:2:0:0:
331,296,137127,1,2,1:2:0:0:
283,274,137247,1,2,1:2:0:0:
249,314,137367,6,0,B|171:302|200:329|107:318,1,130,6|0,3:2|1:0,2:0:0:0:
69,332,137727,1,0,3:0:0:0:
69,332,137847,2,0,P|60:290|56:262,1,65,0|0,1:0|3:0,2:0:0:0:
74,219,138087,5,2,1:2:0:0:
170,180,138327,1,2,3:2:0:0:
268,214,138567,1,2,1:2:0:0:
361,169,138807,1,2,1:2:0:0:
284,98,139047,2,0,P|283:142|283:171,1,65,2|2,1:2|1:2,2:0:0:0:
268,214,139287,6,0,B|263:241|263:241|251:252|251:252|242:274,7,65,10|8|8|8|8|8|8|8,1:2|1:2|1:2|1:2|1:2|1:2|1:2|1:2,2:0:0:0:
232,322,140247,2,0,B|236:349|236:349|248:360|248:360|257:382,7,65,8|8|8|8|8|8|8|8,1:2|1:2|1:2|1:2|1:2|1:2|1:2|1:2,2:0:0:0:
309,380,141207,6,0,L|323:224,1,130,6|10,3:2|1:2,2:0:0:0:
327,199,141567,1,2,3:2:0:0:
430,216,141807,1,2,3:2:0:0:
430,216,141927,2,0,L|424:144,1,65,10|2,1:2|1:2,2:0:0:0:
419,100,142167,6,0,L|264:116,1,130,2|10,3:2|1:2,2:0:0:0:
251,79,142527,1,0,1:0:0:0:
251,79,142647,2,0,L|122:66,1,130,2|10,3:2|1:2,2:0:0:0:
45,136,143127,6,0,P|12:190|32:259,1,130,2|10,3:2|1:2,2:0:0:0:
64,288,143487,1,2,3:2:0:0:
159,245,143727,1,2,3:2:0:0:
159,245,143847,2,0,P|209:251|252:255,1,65,10|2,1:2|2:0,2:0:0:0:
269,280,144087,6,0,L|277:126,2,130,2|10|2,3:2|1:2|3:2,2:0:0:0:
240,323,144687,1,0,3:0:0:0:
278,360,144807,1,10,1:2:0:0:
370,311,145047,6,0,L|240:323,1,130,6|10,3:2|1:2,2:0:0:0:
189,330,145407,1,2,3:2:0:0:
121,252,145647,1,2,3:2:0:0:
121,252,145767,2,0,L|38:243,1,65,10|2,1:2|2:0,2:0:0:0:
6,237,146007,6,0,P|-15:191|9:111,1,130,2|10,3:2|1:2,2:0:0:0:
45,85,146367,1,0,1:0:0:0:
45,85,146487,2,0,P|91:64|171:88,1,130,2|10,3:2|1:2,2:0:0:0:
254,28,146967,6,0,L|263:166,1,130,2|10,3:2|1:2,2:0:0:0:
267,210,147327,1,2,3:2:0:0:
364,172,147567,1,2,3:2:0:0:
364,172,147687,2,0,L|357:251,1,65,10|2,1:2|2:0,2:0:0:0:
372,288,147927,6,0,L|215:299,2,130,10|10|10,1:0|1:0|1:0,2:0:0:0:
473,316,148647,2,0,L|479:252,1,65,10|0,1:0|2:0,2:0:0:0:
482,200,148887,6,0,L|325:211,1,130,6|10,3:2|1:2,2:0:0:0:
312,177,149247,1,2,3:2:0:0:
250,260,149487,1,2,3:2:0:0:
250,260,149607,2,0,L|154:265,1,65,10|2,1:2|1:2,2:0:0:0:
152,304,149847,6,0,P|90:299|61:244,1,130,2|10,3:2|1:2,2:0:0:0:
76,194,150207,1,0,1:0:0:0:
76,194,150327,2,0,P|125:155|184:173,1,130,2|10,3:2|1:2,2:0:0:0:
250,260,150807,6,0,L|260:126,1,130,2|10,3:2|1:2,2:0:0:0:
264,79,151167,1,2,3:2:0:0:
360,37,151407,1,2,3:2:0:0:
360,37,151527,2,0,L|368:111,1,65,10|2,1:2|1:2,2:0:0:0:
355,153,151767,6,0,L|494:167,1,130,2|10,3:2|1:2,2:0:0:0:
485,219,152127,1,0,1:0:0:0:
485,219,152247,2,0,L|356:233,1,130,2|10,3:2|1:2,2:0:0:0:
250,260,152727,6,0,L|240:126,1,130,6|10,3:2|1:2,2:0:0:0:
236,79,153087,1,2,3:2:0:0:
137,50,153327,1,2,3:2:0:0:
137,50,153447,2,0,L|129:124,1,65,10|2,1:2|2:0,2:0:0:0:
143,165,153687,6,0,L|4:179,1,130,2|10,3:2|1:2,2:0:0:0:
13,231,154047,1,0,1:0:0:0:
13,231,154167,2,0,L|143:245,1,130,2|10,3:2|1:2,2:0:0:0:
198,332,154647,6,0,P|246:324|270:248,1,130,2|10,3:2|1:2,2:0:0:0:
246,209,155007,1,2,3:2:0:0:
171,138,155247,1,2,3:2:0:0:
171,138,155367,2,0,P|178:95|204:72,1,65,10|2,1:2|1:2,2:0:0:0:
240,62,155607,6,0,B|268:66|268:66|279:78|279:78|301:87,3,65,10|10|10|10,1:2|1:2|1:2|1:2,0:0:0:0:
328,128,156087,2,0,B|300:132|300:132|289:144|289:144|267:153,3,65,10|10|10|10,1:2|1:2|1:2|1:2,2:0:0:0:
224,177,156567,5,6,3:2:0:0:
143,197,158487,1,6,3:2:0:0:
87,134,160407,1,6,3:2:0:0:
117,55,162327,6,0,L|185:44,1,65,10|2,1:2|3:2,2:0:0:0:
225,71,162567,2,0,L|293:60,1,65,10|2,1:2|3:2,2:0:0:0:
320,18,162807,1,10,1:2:0:0:
368,36,162927,1,2,3:2:0:0:
381,86,163047,1,10,1:2:0:0:
348,126,163167,6,0,P|354:201|359:277,1,130,2|0,3:2|3:0,2:0:0:0:
364,307,163527,1,8,1:2:0:0:
450,248,163767,6,0,B|425:236|425:236|292:227|292:227|259:206,1,195,2|8,3:2|1:2,2:0:0:0:
221,176,164247,6,0,L|213:257,1,65,6|0,3:2|2:0,2:0:0:0:
239,286,164487,2,0,L|231:367,1,65,10|0,1:2|2:0,2:0:0:0:
191,382,164727,2,0,P|151:387|82:328,1,130,2|10,3:2|1:2,2:0:0:0:
84,282,165087,1,2,3:2:0:0:
25,196,165327,5,2,3:2:0:0:
25,196,165447,2,0,P|71:188|100:185,1,65,10|2,1:2|2:0,2:0:0:0:
136,208,165687,1,6,3:2:0:0:
170,169,165807,1,0,1:0:0:0:
153,119,165927,1,14,1:2:0:0:
98,30,166167,6,0,P|144:38|173:41,1,65,2|0,3:2|2:0,2:0:0:0:
209,63,166407,2,0,P|240:57|273:52,1,65,10|0,1:2|1:2,2:0:0:0:
318,27,166647,2,0,P|377:35|391:98,1,130,2|10,3:2|1:2,2:0:0:0:
375,146,167007,1,2,3:2:0:0:
271,133,167247,5,2,3:2:0:0:
271,133,167367,2,0,P|268:181|264:225,1,65,10|2,1:2|2:0,2:0:0:0:
241,243,167607,1,2,3:2:0:0:
255,292,167727,1,0,1:0:0:0:
306,295,167847,1,10,1:2:0:0:
397,345,168087,6,0,B|415:337|415:337|426:325|426:325|454:321,3,65,6|2|10|2,3:2|1:2|1:2|1:2,2:0:0:0:
504,336,168567,2,0,L|508:270,1,65,2|2,3:2|2:0,2:0:0:0:
510,219,168807,1,10,1:2:0:0:
510,219,168927,6,0,B|462:204|462:204|435:215|435:215|383:202,1,130,2|2,3:2|3:2,2:0:0:0:
336,218,169287,2,0,L|332:152,1,65,10|2,1:2|2:0,2:0:0:0:
299,112,169527,1,2,3:2:0:0:
307,61,169647,1,0,1:0:0:0:
357,48,169767,1,10,1:2:0:0:
429,122,170007,5,10,1:2:0:0:
332,153,170247,1,10,1:2:0:0:
235,184,170487,1,10,1:2:0:0:
183,174,170607,1,0,3:0:0:0:
131,163,170727,1,10,1:2:0:0:
88,192,170847,1,10,1:2:0:0:
83,14,171927,6,0,L|92:92,1,65,6|0,3:2|2:0,2:0:0:0:
138,98,172167,2,0,L|129:176,1,65,10|0,1:2|2:0,2:0:0:0:
88,192,172407,1,2,3:2:0:0:
88,192,172527,2,0,L|97:270,1,65,2|0,1:2|2:0,2:0:0:0:
79,306,172767,6,0,L|226:287,1,130,2|2,3:2|3:2,2:0:0:0:
245,253,173127,2,0,L|323:264,1,65,10|2,1:2|1:2,2:0:0:0:
349,295,173367,1,2,3:2:0:0:
398,279,173487,1,2,1:2:0:0:
408,228,173607,1,10,1:2:0:0:
370,131,173847,6,0,L|305:140,1,65,4|0,3:1|2:0,2:0:0:0:
269,176,174087,2,0,L|204:166,1,65,14|0,1:2|2:0,2:0:0:0:
155,184,174327,2,0,P|111:147|124:75,1,130,2|10,3:2|1:2,2:0:0:0:
146,36,174687,6,0,P|231:46|282:53,1,130,2|2,3:2|3:2,2:0:0:0:
325,62,175047,1,14,1:2:0:0:
414,8,175287,2,0,P|456:45|437:118,1,130,6|14,3:2|1:2,2:0:0:0:
376,184,175767,6,0,B|356:181|356:181|342:170|342:170|314:173,3,65,6|2|10|2,3:2|1:2|1:2|1:2,0:0:0:0:
266,154,176247,2,0,L|252:228,1,65,2|2,3:2|1:2,2:0:0:0:
245,269,176487,1,10,1:2:0:0:
245,269,176607,6,0,L|92:256,1,130,2|2,3:2|3:2,2:0:0:0:
63,252,176967,1,10,1:2:0:0:
141,183,177207,1,2,3:2:0:0:
146,131,177327,1,2,1:2:0:0:
149,79,177447,1,10,1:2:0:0:
52,40,177687,6,0,L|47:122,1,65,14|2,1:2|3:2,2:0:0:0:
23,150,177927,2,0,L|28:232,1,65,10|2,1:2|3:2,2:0:0:0:
63,252,178167,2,0,L|-2:262,2,65,10|2|10,1:2|3:2|1:2,2:0:0:0:
99,288,178527,6,0,L|232:268,1,130,2|0,3:2|3:0,2:0:0:0:
278,260,178887,1,8,1:2:0:0:
300,357,179127,2,0,L|433:337,1,130,6|12,3:2|1:2,3:0:0:0:
475,309,179487,1,12,1:2:0:0:
475,309,179607,6,0,L|484:231,1,65,6|0,3:2|2:0,2:0:0:0:
448,205,179847,2,0,L|457:127,1,65,10|0,1:2|2:0,2:0:0:0:
435,92,180087,2,0,L|502:97,2,65,2|2|10,3:2|1:2|1:2,0:0:0:0:
383,89,180447,1,2,3:2:0:0:
297,31,180687,5,2,3:2:0:0:
297,31,180807,2,0,P|254:35|214:41,1,65,14|0,1:2|2:0,2:0:0:0:
191,70,181047,2,0,P|158:65|126:63,1,65,6|0,3:2|2:0,2:0:0:0:
82,35,181287,2,0,L|73:100,1,65,14|0,1:2|2:0,2:0:0:0:
42,141,181527,6,0,P|79:160|82:249,1,130,4|14,3:1|1:2,2:0:0:0:
56,340,182007,2,0,P|88:343|120:347,1,65,2|0,3:2|2:0,2:0:0:0:
169,332,182247,1,10,1:2:0:0:
169,332,182367,6,0,B|209:314|209:314|254:334|306:330,1,130,2|2,3:2|3:2,2:0:0:0:
337,304,182727,2,0,P|341:251|342:229,1,65,10|2,1:2|2:0,2:0:0:0:
326,189,182967,2,0,P|381:171|446:232,1,130,2|10,3:2|1:2,2:0:0:0:
493,119,183447,6,0,B|490:99|490:99|479:85|479:85|482:57,3,65,6|2|10|2,3:2|1:2|1:2|1:2,0:0:0:0:
493,7,183927,2,0,L|415:24,1,65,2|2,3:2|1:2,2:0:0:0:
379,37,184167,1,10,1:2:0:0:
379,37,184287,6,0,L|238:21,1,130,2|2,3:2|3:2,2:0:0:0:
198,16,184647,1,10,1:2:0:0:
114,78,184887,1,2,3:2:0:0:
106,129,185007,1,2,1:2:0:0:
98,180,185127,1,10,1:2:0:0:
84,283,185367,5,14,1:2:0:0:
135,278,185487,1,2,3:2:0:0:
186,274,185607,2,0,L|254:268,1,65,10|2,1:2|3:2,0:0:0:0:
302,263,185847,2,0,L|308:188,1,65,10|2,1:2|3:2,2:0:0:0:
291,148,186087,1,10,1:2:0:0:
342,145,186207,1,2,3:2:0:0:
415,71,186447,5,0,3:0:0:0:
415,71,186567,2,0,L|342:64,1,65,8|0,1:2|3:0,2:0:0:0:
298,61,186807,1,8,1:2:0:0:
204,15,187047,1,10,1:2:0:0:
206,66,187167,1,10,1:2:0:0:
210,116,187287,5,6,3:2:0:0:
289,183,187527,1,10,1:2:0:0:
220,261,187767,2,0,L|217:328,1,65,10|0,1:2|3:0,2:0:0:0:
213,377,188007,1,10,1:2:0:0:
213,377,188127,6,0,P|143:370|70:362,1,130,2|2,3:2|3:2,2:0:0:0:
33,377,188487,1,10,1:2:0:0:
2,340,188607,1,2,3:2:0:0:
23,292,188727,1,10,1:2:0:0:
124,269,188967,1,10,1:2:0:0:
153,226,189087,1,2,3:2:0:0:
130,179,189207,5,10,1:2:0:0:
31,146,189447,1,10,1:2:0:0:
100,68,189687,2,0,L|169:59,1,65,10|0,1:2|3:0,2:0:0:0:
196,18,189927,1,10,1:2:0:0:
196,18,190047,2,0,P|260:38|265:103,1,130,2|2,3:2|3:2,2:0:0:0:
249,141,190407,1,10,1:2:0:0:
284,179,190527,1,2,3:2:0:0:
335,171,190647,1,10,1:2:0:0:
426,120,190887,1,10,1:2:0:0:
465,154,191007,1,2,3:2:0:0:
461,205,191127,5,14,1:2:0:0:
380,271,191367,1,10,1:2:0:0:
442,354,191607,2,0,L|360:346,1,65,10|0,1:2|3:0,2:0:0:0:
329,369,191847,1,10,1:2:0:0:
329,369,191967,2,0,L|197:380,1,130,2|2,3:2|3:2,2:0:0:0:
152,357,192327,1,10,1:2:0:0:
137,307,192447,1,2,3:2:0:0:
171,267,192567,1,10,1:2:0:0:
275,276,192807,1,10,1:2:0:0:
313,241,192927,1,0,3:0:0:0:
293,192,193047,5,10,3:2:0:0:
191,168,193287,1,10,1:2:0:0:
281,116,193527,1,10,1:2:0:0:
331,102,193647,1,2,3:2:0:0:
338,50,193767,1,10,1:2:0:0:
292,24,193887,6,0,L|305:163,2,130,2|0|0,3:2|3:0|3:0,2:0:0:0:
243,4,194487,1,8,1:2:0:0:
164,76,194727,1,10,1:2:0:0:
112,82,194847,1,10,1:2:0:0:
88,36,194967,5,14,1:2:0:0:
61,137,195207,1,10,1:2:0:0:
133,212,195447,2,0,L|60:223,1,65,10|0,1:2|3:0,2:0:0:0:
18,236,195687,1,10,1:2:0:0:
18,236,195807,6,0,P|-8:285|39:347,1,130,2|2,3:2|3:2,2:0:0:0:
75,366,196167,1,10,1:2:0:0:
124,350,196287,1,2,3:2:0:0:
119,298,196407,1,10,1:2:0:0:
216,261,196647,1,8,1:2:0:0:
261,287,196767,1,2,3:2:0:0:
253,339,196887,6,0,L|336:342,1,65,14|0,1:2|3:0,2:0:0:0:
361,313,197127,2,0,L|444:317,1,65,10|0,1:2|3:0,2:0:0:0:
480,315,197367,2,0,P|512:267|487:202,1,130,10|10,1:2|1:2,2:0:0:0:
445,176,197727,6,0,L|303:188,1,130,2|2,3:2|3:2,2:0:0:0:
279,225,198087,1,10,1:2:0:0:
228,214,198207,1,0,3:2:0:0:
220,163,198327,1,10,1:2:0:0:
155,82,198567,1,10,1:2:0:0:
163,31,198687,1,2,3:2:0:0:
116,9,198807,6,0,P|48:31|46:106,1,130,14|10,1:2|1:2,2:0:0:0:
100,164,199287,2,0,L|89:310,1,130,10|10,1:2|1:2,2:0:0:0:
58,336,199647,6,0,P|93:379|168:353,1,130,2|2,3:2|3:2,2:0:0:0:
199,330,200007,1,10,1:2:0:0:
250,322,200127,1,2,3:2:0:0:
289,355,200247,1,10,1:2:0:0:
292,251,200487,1,10,1:2:0:0:
333,282,200607,1,2,3:2:0:0:
383,289,200727,6,0,P|436:268|441:184,1,130,14|10,1:2|1:2,2:0:0:0:
406,107,201207,1,10,1:2:0:0:
354,115,201327,1,2,3:2:0:0:
302,122,201447,1,10,1:2:0:0:
266,84,201567,5,6,3:2:0:0:
217,176,201807,1,14,1:2:0:0:
120,138,202047,1,10,1:2:0:0:
120,138,202167,1,10,1:2:0:0:
