osu file format v14

[General]
AudioFilename: audio.mp3
AudioLeadIn: 0
PreviewTime: 52107
Countdown: 0
SampleSet: Soft
StackLeniency: 0
Mode: 0
LetterboxInBreaks: 0
EpilepsyWarning: 1
WidescreenStoryboard: 1

[Editor]
Bookmarks: 1047,8727,26007,37527,45207,52887,68247,75927,83607,87447,95127,102807,118167,125847,140727,156567,160407,164247,171927,187287,194967
DistanceSpacing: 1.5
BeatDivisor: 4
GridSize: 32
TimelineZoom: 2.899998

[Metadata]
Title:humanly
TitleUnicode:人間らしい
Artist:YurryCanon feat. GUMI
ArtistUnicode:ユリイ・カノン feat. GUMI
Creator:Petal
Version:Len's Classic Extra
Source:
Tags:japanese pop jpop j-pop rock j-rock jrock vocaloid ボカロ ningenrashii original Yurry Canon full len garden fast satellite milr_ firika matha
BeatmapID:3961912
BeatmapSetID:1886627

[Difficulty]
HPDrainRate:5
CircleSize:3.8
OverallDifficulty:9.2
ApproachRate:9.6
SliderMultiplier:1.62
SliderTickRate:1

[Events]
//Background and Video events
0,0,"bg.jpg",0,0
Video,0,"video.mp4"
//Break Periods
2,8927,23578
2,76127,83098
2,118367,124378
2,156767,157978
2,158687,159898
2,160607,161818
//Storyboard Layer 0 (Background)
//Storyboard Layer 1 (Fail)
//Storyboard Layer 2 (Pass)
//Storyboard Layer 3 (Foreground)
//Storyboard Layer 4 (Overlay)
//Storyboard Sound Samples

[TimingPoints]
1047,240,4,2,2,60,1,0
1287,-58.8235294117647,4,2,2,60,0,0
1407,-58.8235294117647,4,2,1,60,0,0
1527,-47.6190476190476,4,2,2,60,0,0
1557,-47.6190476190476,4,2,2,5,0,0
1767,-47.6190476190476,4,2,2,60,0,0
1797,-47.6190476190476,4,2,2,5,0,0
1887,-90.9090909090909,4,2,2,60,0,0
2247,-71.4285714285714,4,2,2,60,0,0
2427,-71.4285714285714,4,2,2,5,0,0
2487,-100,4,2,2,60,0,0
2547,-100,4,2,2,5,0,0
2607,-100,4,2,2,60,0,0
2727,-125,4,2,2,60,0,0
3207,-58.8235294117647,4,2,2,60,0,0
3327,-58.8235294117647,4,2,1,60,0,0
3447,-47.6190476190476,4,2,2,60,0,0
3477,-47.6190476190476,4,2,2,5,0,0
3687,-47.6190476190476,4,2,2,60,0,0
3717,-47.6190476190476,4,2,2,5,0,0
3807,-90.9090909090909,4,2,2,60,0,0
4647,-50,4,2,3,60,0,0
4677,-50,4,2,3,5,0,0
4887,-50,4,2,2,60,0,0
5127,-58.8235294117647,4,2,2,60,0,0
5247,-58.8235294117647,4,2,1,60,0,0
5367,-47.6190476190476,4,2,2,60,0,0
5397,-47.6190476190476,4,2,2,5,0,0
5607,-47.6190476190476,4,2,2,60,0,0
5637,-47.6190476190476,4,2,2,5,0,0
5727,-90.9090909090909,4,2,2,60,0,0
6087,-71.4285714285714,4,2,2,60,0,0
6267,-71.4285714285714,4,2,2,5,0,0
6327,-100,4,2,2,60,0,0
6387,-100,4,2,2,5,0,0
6447,-100,4,2,2,60,0,0
6567,-125,4,2,2,60,0,0
7047,-58.8235294117647,4,2,2,50,0,0
7287,-47.6190476190476,4,2,2,60,0,0
7317,-47.6190476190476,4,2,2,5,0,0
7527,-47.6190476190476,4,2,2,60,0,0
7557,-47.6190476190476,4,2,2,5,0,0
7647,-71.4285714285714,4,2,2,60,0,0
7827,-71.4285714285714,4,2,2,5,0,0
7887,-71.4285714285714,4,2,2,60,0,0
8487,-66.6666666666667,4,2,3,60,0,0
8547,-50,4,2,3,5,0,0
8727,-50,4,2,2,70,0,0
24087,-50,4,2,3,50,0,0
26007,-125,4,2,2,50,0,0
26847,-100,4,2,2,50,0,0
26907,-100,4,2,2,5,0,0
26967,-100,4,2,2,50,0,0
27687,-166.666666666667,4,2,2,50,0,0
27927,-125,4,2,2,50,0,0
28887,-166.666666666667,4,2,2,50,0,0
29847,-125,4,2,4,50,0,0
30687,-100,4,2,4,50,0,0
30747,-100,4,2,4,5,0,0
30807,-100,4,2,4,50,0,0
31527,-166.666666666667,4,2,4,50,0,0
31767,-125,4,2,4,50,0,0
32727,-111.111111111111,4,2,4,60,0,0
33447,-99.9999999999999,4,2,4,60,0,0
33687,-99.9999999999999,4,2,3,60,0,0
37047,-99.9999999999999,4,2,2,60,0,0
37287,-90.9090909090909,4,2,2,50,0,0
37527,-125,4,2,4,50,0,0
38367,-100,4,2,4,50,0,0
38427,-100,4,2,4,5,0,0
38487,-100,4,2,4,50,0,0
39207,-166.666666666667,4,2,4,50,0,0
39447,-125,4,2,4,50,0,0
40287,-99.9999999999999,4,2,4,50,0,0
40347,-99.9999999999999,4,2,4,5,0,0
40407,-99.9999999999999,4,2,4,50,0,0
41127,-166.666666666667,4,2,4,50,0,0
41367,-125,4,2,4,50,0,0
42207,-100,4,2,4,50,0,0
42267,-100,4,2,4,5,0,0
42327,-100,4,2,4,50,0,0
43047,-166.666666666667,4,2,4,50,0,0
43287,-125,4,2,4,50,0,0
44247,-111.111111111111,4,2,4,50,0,0
44967,-100,4,2,4,50,0,0
45207,-100,4,2,2,60,0,0
45447,-83.3333333333333,4,2,2,60,0,0
45507,-83.3333333333333,4,2,2,5,0,0
45567,-66.6666666666667,4,2,2,60,0,0
45747,-66.6666666666667,4,2,2,5,0,0
45807,-83.3333333333333,4,2,2,60,0,0
45867,-83.3333333333333,4,2,2,5,0,0
45927,-100,4,2,2,60,0,0
46407,-111.111111111111,4,2,2,60,0,0
46887,-125,4,2,2,60,0,0
48087,-100,4,2,2,60,0,0
49047,-100,4,2,4,60,0,0
49287,-83.3333333333333,4,2,4,60,0,0
49347,-83.3333333333333,4,2,4,5,0,0
49407,-76.9230769230769,4,2,4,60,0,0
49467,-76.9230769230769,4,2,4,5,0,0
49527,-66.6666666666667,4,2,4,60,0,0
49707,-66.6666666666667,4,2,4,5,0,0
49767,-100,4,2,4,60,0,0
50247,-83.3333333333333,4,2,4,60,0,0
50487,-100,4,2,4,60,0,0
50967,-250,4,2,2,60,0,0
52887,-250,4,2,2,75,0,1
53127,-83.3333333333333,4,2,2,75,0,1
53187,-83.3333333333333,4,2,2,5,0,1
53247,-71.4285714285714,4,2,2,75,0,1
53307,-71.4285714285714,4,2,2,5,0,1
53367,-83.3333333333333,4,2,2,75,0,1
53727,-76.9230769230769,4,2,2,75,0,1
53907,-76.9230769230769,4,2,2,5,0,1
53967,-76.9230769230769,4,2,2,75,0,1
54327,-83.3333333333333,4,2,4,75,0,1
54807,-100,4,2,4,75,0,1
55287,-66.6666666666667,4,2,4,75,0,1
55467,-66.6666666666667,4,2,4,5,0,1
55527,-66.6666666666667,4,2,4,75,0,1
55587,-66.6666666666667,4,2,4,5,0,1
55647,-66.6666666666667,4,2,4,75,0,1
55827,-66.6666666666667,4,2,4,5,0,1
55887,-83.3333333333333,4,2,4,75,0,1
55947,-83.3333333333333,4,2,4,5,0,1
56007,-83.3333333333333,4,2,4,75,0,1
56487,-100,4,2,4,75,0,1
57567,-83.3333333333333,4,2,4,75,0,1
58407,-125,4,2,4,75,0,1
59487,-83.3333333333333,4,2,4,75,0,1
60087,-76.9230769230769,4,2,4,75,0,1
60567,-76.9230769230769,4,2,2,75,0,1
60807,-83.3333333333333,4,2,2,75,0,1
60867,-83.3333333333333,4,2,2,5,0,1
60927,-71.4285714285714,4,2,2,75,0,1
60987,-71.4285714285714,4,2,2,5,0,1
61047,-83.3333333333333,4,2,2,75,0,1
61407,-76.9230769230769,4,2,2,75,0,1
61587,-76.9230769230769,4,2,2,5,0,1
61647,-76.9230769230769,4,2,2,75,0,1
61767,-76.9230769230769,4,2,4,75,0,1
62007,-83.3333333333333,4,2,4,75,0,1
62487,-100,4,2,4,75,0,1
62967,-66.6666666666667,4,2,4,75,0,1
63147,-66.6666666666667,4,2,4,5,0,1
63207,-66.6666666666667,4,2,4,75,0,1
63267,-66.6666666666667,4,2,4,5,0,1
63327,-83.3333333333333,4,2,4,75,0,1
64167,-100,4,2,4,75,0,1
65247,-83.3333333333333,4,2,4,75,0,1
65847,-100,4,2,4,75,0,1
66567,-83.3333333333333,4,2,4,75,0,1
66807,-76.9230769230769,4,2,4,75,0,1
67167,-83.3333333333333,4,2,4,75,0,1
67527,-125,4,2,4,75,0,1
67767,-100,4,2,4,75,0,1
68247,-100,4,2,2,75,0,1
69087,-83.3333333333333,4,2,2,75,0,1
69447,-76.9230769230769,4,2,2,75,0,1
69507,-76.9230769230769,4,2,2,5,0,1
69567,-76.9230769230769,4,2,2,75,0,1
69627,-76.9230769230769,4,2,2,5,0,1
69687,-83.3333333333333,4,2,2,75,0,1
69867,-83.3333333333333,4,2,2,5,0,1
69927,-90.9090909090909,4,2,2,75,0,1
71007,-83.3333333333333,4,2,2,75,0,1
71607,-111.111111111111,4,2,2,75,0,1
72927,-83.3333333333333,4,2,2,75,0,1
73287,-76.9230769230769,4,2,2,75,0,1
73347,-76.9230769230769,4,2,2,5,0,1
73407,-76.9230769230769,4,2,2,75,0,1
73467,-76.9230769230769,4,2,2,5,0,1
73527,-83.3333333333333,4,2,2,75,0,1
74847,-76.9230769230769,4,2,4,75,0,1
75027,-76.9230769230769,4,2,4,5,0,1
75087,-66.6666666666667,4,2,4,75,0,1
75267,-66.6666666666667,4,2,4,5,0,1
75327,-71.4285714285714,4,2,4,75,0,1
75387,-71.4285714285714,4,2,4,5,0,1
75447,-71.4285714285714,4,2,4,75,0,1
75927,-71.4285714285714,4,2,2,60,0,0
83607,-333.333333333333,4,2,2,50,0,0
87207,-90.9090909090909,4,2,2,50,0,0
87447,-125,4,2,2,50,0,0
89127,-166.666666666667,4,2,2,50,0,0
89367,-125,4,2,2,50,0,0
91047,-166.666666666667,4,2,2,50,0,0
91287,-166.666666666667,4,2,4,50,0,0
92247,-125,4,2,4,50,0,0
92487,-100,4,2,4,50,0,0
92727,-83.3333333333333,4,2,4,50,0,0
92967,-100,4,2,4,50,0,0
93687,-90.9090909090909,4,2,4,50,0,0
94167,-100,4,2,4,50,0,0
94887,-90.9090909090909,4,2,4,50,0,0
95127,-90.9090909090909,4,2,2,60,0,0
95847,-125,4,2,2,60,0,0
96567,-111.111111111111,4,2,2,60,0,0
98007,-99.9999999999999,4,2,2,60,0,0
98967,-99.9999999999999,4,2,4,60,0,0
99207,-83.3333333333333,4,2,4,60,0,0
99267,-83.3333333333333,4,2,4,5,0,0
99327,-76.9230769230769,4,2,4,60,0,0
99387,-76.9230769230769,4,2,4,5,0,0
99447,-62.5,4,2,4,60,0,0
99627,-62.5,4,2,4,5,0,0
99687,-90.9090909090909,4,2,4,60,0,0
100167,-83.3333333333333,4,2,4,60,0,0
100407,-100,4,2,4,60,0,0
100887,-250,4,2,2,60,0,0
102087,-200,4,2,2,60,0,0
102807,-200,4,2,2,80,0,1
103047,-83.3333333333333,4,2,2,80,0,1
103107,-83.3333333333333,4,2,2,5,0,1
103167,-71.4285714285714,4,2,2,80,0,1
103227,-71.4285714285714,4,2,2,5,0,1
103287,-83.3333333333333,4,2,2,80,0,1
103647,-76.9230769230769,4,2,2,80,0,1
103827,-76.9230769230769,4,2,2,5,0,1
103887,-76.9230769230769,4,2,2,80,0,1
104247,-83.3333333333333,4,2,2,80,0,1
104727,-100,4,2,2,80,0,1
105207,-66.6666666666667,4,2,2,80,0,1
105387,-66.6666666666667,4,2,2,5,0,1
105447,-66.6666666666667,4,2,2,80,0,1
105507,-66.6666666666667,4,2,2,5,0,1
105567,-66.6666666666667,4,2,2,80,0,1
105747,-66.6666666666667,4,2,2,5,0,1
105807,-83.3333333333333,4,2,2,80,0,1
105867,-83.3333333333333,4,2,2,5,0,1
105927,-83.3333333333333,4,2,2,80,0,1
106407,-100,4,2,2,80,0,1
106647,-100,4,2,4,80,0,1
107487,-83.3333333333333,4,2,4,80,0,1
108327,-125,4,2,4,80,0,1
109407,-83.3333333333333,4,2,4,80,0,1
110007,-76.9230769230769,4,2,4,80,0,1
110487,-83.3333333333333,4,2,2,80,0,1
111327,-76.9230769230769,4,2,2,80,0,1
111507,-76.9230769230769,4,2,2,5,0,1
111567,-76.9230769230769,4,2,2,80,0,1
111927,-83.3333333333333,4,2,4,80,0,1
112407,-100,4,2,4,80,0,1
112887,-66.6666666666667,4,2,4,80,0,1
113067,-66.6666666666667,4,2,4,5,0,1
113127,-66.6666666666667,4,2,4,80,0,1
113187,-66.6666666666667,4,2,4,5,0,1
113247,-66.6666666666667,4,2,4,80,0,1
113427,-66.6666666666667,4,2,4,5,0,1
113487,-83.3333333333333,4,2,4,80,0,1
113547,-83.3333333333333,4,2,4,5,0,1
113607,-83.3333333333333,4,2,4,80,0,1
114087,-100,4,2,4,80,0,1
115167,-83.3333333333333,4,2,4,80,0,1
115767,-100,4,2,4,80,0,1
116487,-83.3333333333333,4,2,4,80,0,1
118167,-83.3333333333333,4,2,4,60,0,0
124887,-100,4,2,4,60,0,0
125247,-166.666666666667,4,2,4,60,0,0
125607,-166.666666666667,4,2,4,40,0,0
125847,-125,4,2,4,65,0,0
130047,-125,4,2,1,65,0,0
130647,-125,4,2,2,65,0,0
131607,-125,4,2,4,65,0,0
137727,-125,4,2,1,65,0,0
138327,-125,4,2,2,65,0,0
139287,-100,4,2,2,80,0,0
140247,-90.9090909090909,4,2,2,80,0,0
141207,-83.3333333333333,4,2,2,70,0,1
142827,-83.3333333333333,4,2,2,5,0,1
142887,-100,4,2,2,70,0,1
143127,-83.3333333333333,4,2,2,70,0,1
144087,-90.9090909090909,4,2,2,70,0,1
144267,-90.9090909090909,4,2,2,5,0,1
144327,-90.9090909090909,4,2,2,70,0,1
145047,-83.3333333333333,4,2,4,70,0,1
146667,-83.3333333333333,4,2,4,5,0,1
146727,-100,4,2,4,70,0,1
146967,-83.3333333333333,4,2,4,70,0,1
147927,-90.9090909090909,4,2,2,70,0,1
148647,-76.9230769230769,4,2,2,70,0,1
148887,-83.3333333333333,4,2,2,70,0,1
150507,-83.3333333333333,4,2,2,5,0,1
150567,-100,4,2,2,70,0,1
150807,-83.3333333333333,4,2,2,70,0,1
151767,-90.9090909090909,4,2,2,70,0,1
151947,-90.9090909090909,4,2,2,5,0,1
152007,-90.9090909090909,4,2,2,70,0,1
152727,-83.3333333333333,4,2,4,70,0,1
154347,-83.3333333333333,4,2,4,5,0,1
154407,-100,4,2,4,70,0,1
154647,-83.3333333333333,4,2,4,70,0,1
156567,-83.3333333333333,4,2,2,70,0,0
158487,-83.3333333333333,4,2,2,60,0,0
160407,-83.3333333333333,4,2,2,70,0,0
162327,-83.3333333333333,4,2,2,70,0,1
163767,-76.9230769230769,4,2,2,70,0,1
164247,-83.3333333333333,4,2,2,80,0,1
165087,-76.9230769230769,4,2,2,80,0,1
165267,-76.9230769230769,4,2,2,5,0,1
165327,-76.9230769230769,4,2,2,80,0,1
165687,-83.3333333333333,4,2,4,80,0,1
166167,-100,4,2,4,80,0,1
166647,-66.6666666666667,4,2,4,80,0,1
166827,-66.6666666666667,4,2,4,5,0,1
166887,-66.6666666666667,4,2,4,80,0,1
166947,-66.6666666666667,4,2,4,5,0,1
167007,-66.6666666666667,4,2,4,80,0,1
167187,-66.6666666666667,4,2,4,5,0,1
167247,-83.3333333333333,4,2,4,80,0,1
167307,-83.3333333333333,4,2,4,5,0,1
167367,-83.3333333333333,4,2,4,80,0,1
167847,-100,4,2,4,80,0,1
168927,-83.3333333333333,4,2,4,80,0,1
169287,-100,4,2,4,80,0,1
170847,-100,4,2,4,80,0,0
171207,-200,4,2,4,55,0,0
171927,-80,4,2,2,90,0,1
172107,-80,4,2,2,5,0,1
172167,-80,4,2,2,90,0,1
172767,-74.0740740740741,4,2,2,90,0,1
173367,-80,4,2,2,90,0,1
173547,-80,4,2,2,5,0,1
173607,-80,4,2,2,90,0,1
174327,-64.5161290322581,4,2,2,90,0,1
174507,-64.5161290322581,4,2,2,5,0,1
174567,-64.5161290322581,4,2,2,90,0,1
174627,-64.5161290322581,4,2,2,5,0,1
174687,-64.5161290322581,4,2,2,90,0,1
174867,-64.5161290322581,4,2,2,5,0,1
174927,-80,4,2,2,90,0,1
174987,-80,4,2,2,5,0,1
175047,-80,4,2,4,90,0,1
175287,-74.0740740740741,4,2,4,90,0,1
175767,-74.0740740740741,4,2,2,90,0,1
176607,-80,4,2,2,90,0,1
178527,-74.0740740740741,4,2,2,90,0,1
179127,-68.9655172413793,4,2,4,90,0,1
179607,-80,4,2,2,90,0,1
180447,-74.0740740740741,4,2,2,90,0,1
180807,-74.0740740740741,4,2,4,90,0,1
181047,-80,4,2,4,90,0,1
181767,-80,4,2,2,90,0,1
182007,-64.5161290322581,4,2,2,90,0,1
182187,-64.5161290322581,4,2,2,5,0,1
182247,-64.5161290322581,4,2,2,90,0,1
182307,-64.5161290322581,4,2,2,5,0,1
182367,-64.5161290322581,4,2,2,90,0,1
182547,-64.5161290322581,4,2,2,5,0,1
182607,-80,4,2,2,90,0,1
182667,-80,4,2,2,5,0,1
182727,-80,4,2,2,90,0,1
182967,-74.0740740740741,4,2,2,90,0,1
184887,-95.2380952380952,4,2,2,90,0,1
186207,-74.0740740740741,4,2,2,90,0,1
186807,-80,4,2,2,90,0,1
188127,-74.0740740740741,4,2,2,90,0,1
188727,-80,4,2,2,90,0,1
188967,-86.9565217391304,4,2,2,90,0,1
190047,-74.0740740740741,4,2,2,90,0,1
190887,-80,4,2,2,90,0,1
191967,-74.0740740740741,4,2,2,90,0,1
192567,-80,4,2,2,90,0,1
193047,-74.0740740740741,4,2,2,90,0,1
193887,-80,4,2,2,90,0,1
195807,-74.0740740740741,4,2,2,90,0,1
195987,-74.0740740740741,4,2,2,5,0,1
196047,-74.0740740740741,4,2,2,90,0,1
196167,-80,4,2,2,90,0,1
197727,-74.0740740740741,4,2,2,90,0,1
197907,-74.0740740740741,4,2,2,5,0,1
197967,-80,4,2,2,90,0,1
198327,-74.0740740740741,4,2,2,90,0,1
198387,-74.0740740740741,4,2,2,5,0,1
198447,-74.0740740740741,4,2,2,90,0,1
198507,-74.0740740740741,4,2,2,5,0,1
198567,-74.0740740740741,4,2,2,90,0,1
200967,-80,4,2,2,90,0,1
201507,-80,4,2,2,90,0,0
201567,-80,4,2,2,90,0,1
201747,-80,4,2,2,90,0,0
201807,-80,4,2,4,90,0,1
201987,-80,4,2,4,90,0,0
202047,-80,4,2,4,90,0,1
202107,-80,4,2,4,90,0,0
202167,-80,4,2,4,90,0,1
202227,-80,4,2,4,90,0,0

[Colours]
Combo1 : 128,128,128
Combo2 : 192,192,192

[HitObjects]
92,344,1047,5,2,3:2:0:0:
17,257,1167,1,2,3:2:0:0:
83,354,1287,6,0,B|143:340|143:340|156:348|156:348|249:325,1,137.7,10|0,1:2|3:0,2:0:0:0:
378,62,1527,6,0,L|365:118,1,42.525,10|0,1:2|2:0,2:0:0:0:
386,74,1767,6,0,L|395:32,1,42.525,10|0,1:2|2:0,2:0:0:0:
282,80,1887,6,0,B|343:99|343:99|365:144|365:144|465:172,1,178.2,2|10,3:2|1:2,2:0:0:0:
512,222,2247,6,0,B|458:235|458:235|436:280|436:280|335:308,1,170.1,2|0,3:2|2:0,2:0:0:0:
370,310,2487,6,0,L|312:298,1,40.5,10|0,1:2|2:0,2:0:0:0:
312,217,2607,5,2,3:2:0:0:
235,252,2727,6,0,P|198:260|147:271,1,64.8,2|10,1:2|1:2,2:0:0:0:
92,344,2967,5,2,3:2:0:0:
17,257,3087,1,2,3:2:0:0:
83,354,3207,6,0,B|143:340|143:340|156:348|156:348|249:325,1,137.7,10|0,1:2|3:0,2:0:0:0:
378,62,3447,6,0,L|365:118,1,42.525,10|0,1:2|2:0,2:0:0:0:
386,74,3687,6,0,L|395:32,1,42.525,10|0,1:2|2:0,2:0:0:0:
282,80,3807,6,0,B|343:99|343:99|365:144|365:144|465:172,1,178.2,2|10,3:2|1:2,2:0:0:0:
497,213,4167,1,2,3:2:0:0:
397,279,4287,5,2,3:2:0:0:
474,380,4407,5,10,1:2:0:0:
407,292,4647,6,0,L|417:244,1,40.5,2|0,2:0|2:0,2:0:0:0:
364,0,4887,5,2,3:2:0:0:
419,73,5007,1,2,3:2:0:0:
507,49,5127,6,0,B|496:106|496:106|484:114|484:114|468:194,1,137.7,10|0,1:2|3:0,2:0:0:0:
273,244,5367,6,0,L|263:202,1,42.525,10|0,1:2|2:0,2:0:0:0:
262,239,5607,6,0,L|271:281,1,42.525,10|0,1:2|2:0,2:0:0:0:
375,295,5727,6,0,P|314:294|261:407,1,178.2,2|10,3:2|1:2,2:0:0:0:
186,287,6087,6,0,P|145:216|63:214,1,170.1,2|0,3:2|2:0,2:0:0:0:
52,208,6327,6,0,L|61:256,1,40.5,10|0,1:2|2:0,2:0:0:0:
6,315,6447,5,2,3:2:0:0:
73,369,6567,6,0,P|104:374|136:382,1,64.8,2|10,1:2|1:2,2:0:0:0:
381,307,6807,5,2,3:2:0:0:
349,223,6927,1,2,3:2:0:0:
262,248,7047,6,0,B|277:192|277:192|287:181|287:181|308:105,1,137.7,10|0,1:2|2:0,2:0:0:0:
512,41,7287,6,0,L|502:0,1,42.525,10|0,1:2|2:0,2:0:0:0:
501,36,7527,6,0,L|510:78,1,42.525,10|0,1:2|2:0,2:0:0:0:
512,226,7647,6,0,P|479:162|368:159,1,170.1,2|0,3:2|2:0,2:0:0:0:
381,138,7887,5,10,1:2:0:0:
421,308,8007,1,10,1:2:0:0:
262,248,8127,1,10,1:2:0:0:
348,226,8247,5,10,1:2:0:0:
341,219,8487,6,0,L|351:281,1,60.7500023174287,2|0,1:2|2:0,2:0:0:0:
368,384,8727,5,6,3:2:0:0:
271,146,24087,5,2,2:0:0:0:
217,213,24447,5,2,2:0:0:0:
136,192,24567,1,2,2:0:0:0:
102,270,24927,5,2,2:0:0:0:
136,192,25167,5,2,2:0:0:0:
217,213,25407,5,2,2:0:0:0:
271,146,25527,1,2,2:0:0:0:
335,312,25767,5,2,2:0:0:0:
512,23,26007,6,0,P|496:84|478:169,1,129.6,2|0,3:2|2:0,2:0:0:0:
416,191,26367,1,10,1:2:0:0:
458,256,26487,2,0,P|397:240|312:222,1,129.6,2|10,3:2|1:2,2:0:0:0:
326,232,26847,6,0,L|320:181,1,40.5,2|0,1:2|2:0,2:0:0:0:
294,317,26967,5,2,3:2:0:0:
219,268,27087,1,2,1:2:0:0:
177,348,27207,5,2,1:2:0:0:
93,315,27327,5,10,1:2:0:0:
29,377,27447,5,2,3:2:0:0:
25,384,27687,6,0,P|2:380|-30:375,1,48.5999999999999,10|0,1:2|2:0,2:0:0:0:
8,209,27927,6,0,P|66:219|147:231,1,129.6,2|0,3:2|2:0,2:0:0:0:
203,192,28287,1,10,1:2:0:0:
225,266,28407,6,0,P|215:317|209:354,1,64.8,2|2,3:2|2:0,2:0:0:0:
280,384,28647,2,0,P|285:352|292:320,1,64.8,10|2,1:2|2:0,2:0:0:0:
400,233,28887,6,0,P|394:203|390:175,1,48.5999999999999,2|2,3:2|2:0,2:0:0:0:
333,128,29127,1,2,1:2:0:0:
417,85,29247,5,10,1:2:0:0:
352,6,29367,5,2,3:2:0:0:
346,10,29487,1,10,1:2:0:0:
343,2,29607,6,0,P|348:30|352:60,1,48.5999999999999,10|10,1:2|1:2,2:0:0:0:
506,243,29847,6,0,P|455:220|365:190,1,129.6,6|0,3:2|2:0,2:0:0:0:
340,258,30207,1,10,1:2:0:0:
386,320,30327,2,0,P|324:341|265:367,1,129.6,2|10,3:2|1:2,2:0:0:0:
262,377,30687,6,0,P|251:352|237:322,1,40.5,2|0,1:2|2:0,2:0:0:0:
263,191,30807,5,2,3:2:0:0:
209,262,30927,1,2,1:2:0:0:
125,232,31047,5,2,1:2:0:0:
92,315,31167,5,10,1:2:0:0:
5,294,31287,5,2,3:2:0:0:
0,290,31527,6,0,P|-10:250|-18:222,1,48.5999999999999,10|0,1:2|2:0,2:0:0:0:
171,380,31767,6,0,P|186:317|204:254,1,129.6,2|0,3:2|2:0,2:0:0:0:
261,202,32127,1,10,1:2:0:0:
327,242,32247,2,0,P|342:179|360:116,1,129.6,2|10,3:2|1:2,2:0:0:0:
338,43,32607,1,2,1:2:0:0:
479,232,32727,6,0,P|436:245|391:262,1,72.9000000000001,10|2,1:2|3:2,2:0:0:0:
443,328,32967,2,0,P|477:315|512:305,1,72.9000000000001,10|2,1:2|3:2,2:0:0:0:
509,8,33207,5,10,1:2:0:0:
448,137,33327,1,8,1:2:0:0:
338,43,33447,6,0,B|330:36|330:36|330:-2|330:-2|346:31,1,81.0000000000001,10|8,3:2|1:2,2:0:0:0:
271,146,33687,5,2,3:2:0:0:
217,213,33927,5,2,2:0:0:0:
136,192,34047,1,2,3:2:0:0:
102,270,34287,5,2,2:0:0:0:
136,192,34527,5,2,3:2:0:0:
217,213,34767,5,2,2:0:0:0:
271,146,35007,5,2,3:2:0:0:
335,312,35127,1,2,3:2:0:0:
400,256,35367,5,2,1:2:0:0:
335,312,35607,5,2,3:2:0:0:
271,146,35847,5,2,2:0:0:0:
217,213,35967,1,2,3:2:0:0:
136,192,36207,5,2,2:0:0:0:
102,270,36447,5,2,3:2:0:0:
136,192,36687,5,2,2:0:0:0:
217,213,36927,5,2,3:2:0:0:
271,146,37047,5,8,1:2:0:0:
335,311,37167,1,8,1:2:0:0:
492,228,37287,6,0,B|501:225|501:225|509:183|509:183|486:220,1,89.1,8|8,1:2|1:2,2:0:0:0:
394,361,37527,6,0,P|317:374|247:389,1,129.6,6|0,3:2|2:0,2:0:0:0:
200,333,37887,1,10,1:2:0:0:
133,384,38007,2,0,P|120:307|105:237,1,129.6,2|10,3:2|1:2,2:0:0:0:
116,249,38367,6,0,P|75:258|62:262,1,40.5,2|0,1:2|2:0,2:0:0:0:
207,192,38487,5,2,3:2:0:0:
248,271,38607,1,2,1:2:0:0:
325,226,38727,5,2,1:2:0:0:
382,294,38847,5,10,1:2:0:0:
471,286,38967,5,2,3:2:0:0:
477,292,39207,6,0,P|509:285|544:277,1,48.5999999999999,10|0,1:2|2:0,2:0:0:0:
462,94,39447,6,0,P|398:108|335:120,1,129.6,2|0,3:2|2:0,2:0:0:0:
256,91,39807,1,10,1:2:0:0:
255,175,39927,2,0,P|269:238|281:301,1,129.6,2|10,3:2|1:2,2:0:0:0:
290,308,40287,6,0,P|260:318|232:328,1,40.5,2|0,1:2|2:0,2:0:0:0:
411,379,40407,5,2,3:2:0:0:
490,337,40527,1,2,1:2:0:0:
436,266,40647,5,2,1:2:0:0:
496,200,40767,5,10,1:2:0:0:
455,121,40887,5,2,3:2:0:0:
450,118,41007,1,0,3:0:0:0:
446,122,41127,6,0,P|453:89|456:62,1,48.5999999999999,10|10,1:2|1:2,2:0:0:0:
280,0,41367,6,0,P|269:64|255:127,1,129.6,6|0,3:2|2:0,2:0:0:0:
317,186,41727,1,10,1:2:0:0:
246,231,41847,2,0,P|183:214|120:199,1,129.6,2|10,3:2|1:2,2:0:0:0:
114,193,42207,6,0,P|108:219|99:257,1,40.5,2|0,1:2|2:0,2:0:0:0:
0,384,42327,5,2,3:2:0:0:
42,305,42447,1,2,1:2:0:0:
120,348,42567,5,2,1:2:0:0:
200,308,42687,5,10,1:2:0:0:
283,340,42807,5,2,3:2:0:0:
287,347,43047,6,0,P|325:357|343:360,1,48.5999999999999,10|2,1:2|2:0,2:0:0:0:
512,384,43287,6,0,P|502:328|486:226,1,129.6,2|0,3:2|2:0,2:0:0:0:
408,240,43647,1,10,1:2:0:0:
428,158,43767,2,0,P|417:94|406:30,1,129.6,2|10,3:2|1:2,2:0:0:0:
488,51,44127,1,2,1:2:0:0:
326,147,44247,6,0,P|290:156|256:167,1,72.9000000000001,10|0,1:2|3:0,2:0:0:0:
326,60,44487,2,0,P|291:70|256:78,1,72.9000000000001,10|0,1:2|3:0,2:0:0:0:
418,341,44727,5,10,1:2:0:0:
295,256,44847,1,8,1:2:0:0:
207,382,44967,6,0,B|199:388|199:388|124:373,1,81,8|8,1:2|1:2,2:0:0:0:
5,198,45207,5,6,3:2:0:0:
0,192,45447,6,0,P|8:227|15:268,1,48.6,10|0,1:2|2:0,2:0:0:0:
0,342,45567,6,0,B|15:298|15:298|105:272|105:272|151:311,1,182.25,10|0,1:2|2:0,2:0:0:0:
150,293,45807,2,0,B|154:306|154:306|141:340,1,48.6,2|0,1:2|2:0,2:0:0:0:
211,384,45927,2,0,P|263:371|322:360,1,81,10|2,1:2|2:0,2:0:0:0:
479,316,46167,5,2,3:2:0:0:
479,316,46407,6,0,B|485:326|485:326|512:332|512:332|485:309,1,72.9000000000001,10|0,1:2|1:0,2:0:0:0:
354,261,46647,5,2,3:2:0:0:
383,341,46767,1,0,1:0:0:0:
433,221,46887,6,0,B|441:214|441:214|459:135,1,64.8,10|0,1:2|3:0,2:0:0:0:
256,0,47127,5,2,3:2:0:0:
277,87,47247,1,2,1:2:0:0:
360,55,47367,5,10,1:2:0:0:
363,48,47487,1,10,1:2:0:0:
356,236,47607,5,2,3:2:0:0:
301,166,47727,1,2,1:2:0:0:
244,234,47847,5,10,1:2:0:0:
165,192,47967,1,2,1:2:0:0:
83,300,48087,6,0,B|73:310|73:310|3:328,1,81,2|0,3:2|2:0,2:0:0:0:
0,326,48327,2,0,B|10:316|10:316|74:299,1,81,10|0,1:2|2:0,2:0:0:0:
214,384,48567,6,0,P|219:361|224:341,2,40.5,10|0|0,1:2|1:0|1:0,2:0:0:0:
300,300,48807,1,8,1:2:0:0:
364,362,48927,1,8,1:2:0:0:
426,189,49047,5,6,3:2:0:0:
429,182,49287,6,0,P|424:158|419:134,1,48.6,10|0,1:2|2:0,2:0:0:0:
485,23,49407,2,0,P|490:48|496:74,1,52.65,10|0,1:2|2:0,2:0:0:0:
508,81,49527,6,0,B|495:95|495:95|366:66|366:66|336:96,1,182.25,2|0,3:2|2:0,2:0:0:0:
331,100,49767,2,0,B|314:112|314:112|256:97,1,81,10|2,1:2|1:2,2:0:0:0:
256,8,50007,1,2,3:2:0:0:
392,250,50247,6,0,B|442:260|442:260|445:259|445:259|488:268,1,97.2000000000001,10|10,1:2|1:2,2:0:0:0:
387,339,50487,2,0,B|349:330|349:330|346:331|346:331|290:320,1,81,2|0,3:2|3:0,2:0:0:0:
218,192,50727,5,10,1:2:0:0:
124,309,50847,1,2,3:2:0:0:
0,218,50967,6,0,P|34:223|63:230,4,64.8,10|10|10|10|10,1:0|1:0|1:0|1:0|1:0,2:0:0:0:
256,40,52887,5,6,3:2:0:0:
261,36,53127,6,0,P|258:60|256:85,1,48.6,10|0,1:2|2:0,2:0:0:0:
307,180,53247,2,0,B|319:174|319:174|348:120,1,56.7,0|0,1:0|2:0,2:0:0:0:
497,60,53367,6,0,B|494:74|494:74|453:79|390:90,1,97.2000000000001,2|2,3:2|2:0,2:0:0:0:
356,21,53607,1,8,1:2:0:0:
397,225,53727,6,0,P|311:220|271:305,1,157.95,2|0,3:2|2:0,2:0:0:0:
280,279,53967,5,2,3:2:0:0:
150,201,54087,1,10,1:2:0:0:
103,369,54207,1,2,1:2:0:0:
1,285,54327,6,0,B|-10:279|-10:279|-14:238|-14:238|6:265|6:265|3:286,1,97.2000000000001,6|0,3:2|2:0,2:0:0:0:
110,376,54567,2,0,B|116:360|116:360|218:337,1,97.2000000000001,14|0,1:2|2:0,2:0:0:0:
512,199,54807,6,0,P|492:274|485:303,1,81,6|0,3:2|2:0,2:0:0:0:
492,384,55047,2,0,P|512:309|519:280,1,81,10|0,1:2|2:0,2:0:0:0:
403,308,55287,6,0,B|332:326|332:326|318:356|318:356|230:380,1,182.25,2|0,3:2|2:0,2:0:0:0:
237,384,55527,2,0,P|248:348|258:311,1,60.75,10|0,1:2|2:0,2:0:0:0:
50,192,55647,6,0,P|117:182|177:271,1,182.25,2|0,3:2|2:0,2:0:0:0:
185,262,55887,2,0,P|176:291|167:320,1,48.6,2|0,3:2|2:0,2:0:0:0:
87,384,56007,5,10,1:2:0:0:
0,306,56127,1,2,1:2:0:0:
266,203,56247,1,2,3:2:0:0:
271,199,56487,6,0,P|315:214|356:228,1,81,10|0,1:2|2:0,2:0:0:0:
512,0,56727,5,6,3:2:0:0:
464,162,56847,1,2,1:2:0:0:
365,42,56967,6,0,P|381:86|393:132,1,81,10|2,1:2|3:2,2:0:0:0:
512,299,57207,5,2,3:2:0:0:
355,236,57327,1,2,1:2:0:0:
423,384,57447,1,10,1:2:0:0:
427,296,57567,6,0,P|358:273|274:365,1,194.4,2|2,3:2|3:2,2:0:0:0:
177,259,57927,5,10,1:2:0:0:
140,378,58047,1,2,1:2:0:0:
63,309,58167,5,2,3:2:0:0:
52,317,58287,1,2,1:2:0:0:
41,312,58407,6,0,P|-3:303|-33:296,1,64.8,10|0,1:2|2:0,2:0:0:0:
226,192,58647,5,10,1:2:0:0:
355,236,58767,1,2,1:2:0:0:
275,347,58887,5,10,1:2:0:0:
264,342,59007,1,2,3:2:0:0:
308,166,59127,5,10,1:2:0:0:
478,243,59247,1,2,1:2:0:0:
359,373,59367,1,10,1:2:0:0:
331,270,59487,6,0,P|351:177|368:60,1,194.4,2|0,3:2|3:0,2:0:0:0:
324,4,59847,1,10,1:2:0:0:
256,49,59967,1,0,1:0:0:0:
423,233,60087,6,0,B|461:197|461:197|451:129,1,105.3,2|0,3:2|3:0,2:0:0:0:
512,69,60327,1,8,1:2:0:0:
413,10,60447,1,0,1:0:0:0:
505,275,60567,5,6,3:2:0:0:
511,282,60807,6,0,L|501:221,1,48.6,10|0,1:2|2:0,2:0:0:0:
430,327,60927,2,0,B|422:339|422:339|413:384,1,56.7,0|0,1:0|2:0,2:0:0:0:
348,200,61047,6,0,B|330:206|330:206|256:185,1,97.2000000000001,2|2,3:2|2:0,2:0:0:0:
256,100,61287,1,10,1:2:0:0:
151,220,61407,6,0,P|211:220|260:313,1,157.95,2|0,3:2|2:0,2:0:0:0:
271,301,61647,5,2,3:2:0:0:
116,384,61767,1,14,1:2:0:0:
74,192,61887,1,0,1:0:0:0:
0,363,62007,6,0,B|13:333|13:333|94:305,1,97.1999970336915,6|0,3:2|2:0,2:0:0:0:
208,361,62247,2,0,P|259:376|310:389,1,97.2000000000001,14|0,1:2|2:0,2:0:0:0:
512,198,62487,6,0,P|496:248|486:288,1,81,6|0,3:2|2:0,2:0:0:0:
481,384,62727,2,0,P|497:334|507:294,1,81,10|0,1:2|2:0,2:0:0:0:
324,78,62967,6,0,B|375:97|375:97|409:237,1,182.25,2|0,3:2|2:0,2:0:0:0:
415,214,63207,6,0,P|367:199|327:188,1,60.75,10|0,1:2|2:0,2:0:0:0:
490,104,63327,2,0,B|493:97|493:97|503:44|515:-1,1,97.2000000000001,2|0,3:2|2:0,2:0:0:0:
301,248,63567,5,2,3:2:0:0:
252,158,63687,1,10,1:2:0:0:
219,293,63807,5,2,1:2:0:0:
406,95,63927,1,2,3:2:0:0:
413,101,64167,6,0,L|396:7,1,81,10|0,1:2|2:0,2:0:0:0:
512,229,64407,5,6,3:2:0:0:
419,219,64527,1,2,1:2:0:0:
343,271,64647,1,10,1:2:0:0:
317,360,64767,1,2,1:2:0:0:
284,182,64887,5,2,3:2:0:0:
425,299,65007,1,2,1:2:0:0:
235,384,65127,1,10,1:2:0:0:
343,271,65247,6,0,P|251:273|206:192,1,194.4,2|2,3:2|3:2,2:0:0:0:
0,255,65607,1,10,1:2:0:0:
160,340,65727,1,2,1:2:0:0:
74,210,65847,6,0,P|88:272|93:302,1,81,2|2,3:2|3:2,2:0:0:0:
235,384,66087,2,0,P|244:348|258:302,1,81,10|0,1:2|2:0,2:0:0:0:
399,75,66327,5,10,1:2:0:0:
321,179,66447,1,2,1:2:0:0:
256,0,66567,6,0,P|271:54|280:107,1,97.2000000000001,10|2,1:2|3:2,2:0:0:0:
482,210,66807,2,0,B|524:183|524:183|510:116,1,105.3,10|2,1:2|3:2,2:0:0:0:
411,63,67047,1,10,1:2:0:0:
362,270,67167,6,0,P|298:258|226:361,1,194.4,2|0,3:2|3:0,2:0:0:0:
304,383,67527,2,0,P|346:370|374:363,1,64.8,8|0,1:2|3:0,2:0:0:0:
225,223,67767,6,0,L|232:262,2,40.5,8|0|0,1:2|1:0|1:0,2:0:0:0:
131,285,68007,5,10,1:2:0:0:
76,192,68127,5,10,1:2:0:0:
6,349,68247,5,14,1:2:0:0:
0,354,68487,5,10,1:2:0:0:
3,360,68727,5,10,1:2:0:0:
10,355,68967,5,10,1:2:0:0:
86,252,69087,6,0,B|191:244|143:348|272:337,1,194.4,2|2,3:2|3:2,2:0:0:0:
350,336,69447,6,0,P|341:365|334:388,1,52.65,10|0,1:2|2:0,2:0:0:0:
256,346,69567,2,0,P|265:317|272:294,1,52.65,2|0,3:2|2:0,2:0:0:0:
329,174,69687,6,0,P|257:169|220:250,1,145.8,10|0,1:2|2:0,2:0:0:0:
226,231,69927,2,0,B|243:219|243:219|252:185|265:135,1,89.1,8|2,1:2|3:2,2:0:0:0:
489,9,70167,5,10,1:2:0:0:
484,15,70407,5,10,1:2:0:0:
488,23,70647,5,10,1:2:0:0:
494,20,70887,5,10,1:2:0:0:
427,145,71007,6,0,B|322:144|370:248|241:237,1,194.4,2|2,3:2|3:2,2:0:0:0:
394,337,71367,5,10,1:2:0:0:
422,260,71487,1,2,3:2:0:0:
401,348,71607,6,0,P|361:361|303:380,1,72.9000000000001,10|0,1:2|3:0,2:0:0:0:
228,323,71847,5,10,1:2:0:0:
152,380,71967,5,2,3:2:0:0:
15,230,72087,5,14,1:2:0:0:
8,227,72327,5,10,1:2:0:0:
11,221,72567,5,10,1:2:0:0:
16,223,72807,5,10,1:2:0:0:
87,347,72927,6,0,B|192:355|144:251|273:262,1,194.4,2|2,3:2|3:2,2:0:0:0:
323,180,73287,6,0,P|330:205|338:230,1,52.65,10|0,1:2|2:0,2:0:0:0:
259,270,73407,2,0,P|251:244|243:219,1,52.65,2|0,3:2|2:0,2:0:0:0:
511,147,73527,6,0,P|462:132|399:103,1,97.2000000000001,10|0,1:2|2:0,2:0:0:0:
256,29,73767,5,10,1:2:0:0:
332,97,73887,1,0,3:0:0:0:
419,0,74007,6,0,P|396:69|359:223,2,194.4,10|10|10,1:2|1:2|1:2,2:0:0:0:
303,121,74607,5,2,3:2:0:0:
256,29,74727,1,10,1:2:0:0:
184,192,74847,6,0,B|148:159|148:159|188:298,1,157.95,14|0,1:2|2:0,2:0:0:0:
257,311,75087,6,0,B|279:265|279:265|180:363,1,182.25,10|0,1:2|2:0,2:0:0:0:
189,377,75327,6,0,P|146:361|124:355,1,56.7,10|0,1:2|2:0,2:0:0:0:
4,254,75447,5,10,1:2:0:0:
0,247,75687,5,0,3:0:0:0:
372,352,75927,5,6,3:2:0:0:
461,44,83607,6,0,B|367:71|443:119|338:158,1,170.1,6|2,1:0|3:1,2:0:0:0:
261,121,84927,5,2,3:1:0:0:
256,113,85047,1,2,1:0:0:0:
303,33,85287,5,2,3:1:0:0:
387,80,85527,6,0,B|480:107|404:155|509:194,1,170.1,2|2,3:1|3:1,2:0:0:0:
512,186,86847,5,2,3:1:0:0:
467,269,86967,5,10,1:0:0:0:
353,161,87087,1,10,1:0:0:0:
296,364,87207,2,0,B|305:379|305:379|336:388|336:388|309:356,1,89.1,10|10,1:0|1:0,2:0:0:0:
372,268,87447,6,0,P|323:275|245:289,1,129.6,2|0,3:2|2:0,2:0:0:0:
196,350,87807,1,10,1:2:0:0:
127,316,87927,2,0,P|120:267|111:227,1,64.8,2|2,3:2|2:0,2:0:0:0:
40,263,88167,2,0,P|33:214|24:174,1,64.8,10|2,1:2|2:0,2:0:0:0:
171,192,88407,5,2,3:2:0:0:
220,266,88527,1,2,1:2:0:0:
299,226,88647,5,2,1:2:0:0:
367,283,88767,5,10,1:2:0:0:
453,262,88887,5,2,3:2:0:0:
458,258,89127,6,0,P|449:291|442:323,1,48.5999999999999,10|0,1:2|2:0,2:0:0:0:
290,233,89367,6,0,P|273:170|256:107,1,129.6,2|0,3:2|2:0,2:0:0:0:
302,46,89727,1,10,1:2:0:0:
361,96,89847,2,0,P|423:79|442:74,1,64.8,2|2,3:2|2:0,2:0:0:0:
449,6,90087,2,0,P|511:22|530:28,1,64.8,10|2,1:2|2:0,2:0:0:0:
422,161,90327,5,2,3:2:0:0:
501,201,90447,1,2,1:2:0:0:
434,260,90567,5,2,1:2:0:0:
470,341,90687,5,10,1:2:0:0:
392,384,90807,5,2,3:2:0:0:
386,380,90927,1,0,3:0:0:0:
379,384,91047,6,0,P|348:378|312:369,1,48.5999999999999,10|10,1:2|1:2,2:0:0:0:
101,248,91287,5,6,1:2:0:0:
95,255,92247,6,0,P|90:223|85:192,1,64.8,6|0,3:2|2:0,2:0:0:0:
172,313,92487,6,0,P|189:258|207:216,1,81,6|0,3:2|2:0,2:0:0:0:
39,363,92727,6,0,P|21:317|-4:267,1,97.2000000000001,6|0,3:2|2:0,2:0:0:0:
270,300,92967,6,0,P|299:290|321:283,3,40.5,10|0|0|0,1:2|1:0|1:0|2:0,2:0:0:0:
319,276,93207,6,0,B|379:295|379:295|387:325|387:325|477:357,1,162,2|0,3:2|3:0,2:0:0:0:
505,284,93567,1,10,1:2:0:0:
440,220,93687,6,0,B|398:229|398:229|366:291,1,89.1,2|2,3:2|3:2,2:0:0:0:
510,290,93927,2,0,P|524:236|531:199,1,89.1,10|2,1:2|3:2,2:0:0:0:
335,104,94167,6,0,P|386:88|418:75,1,81,10|0,1:2|3:0,2:0:0:0:
296,26,94407,2,0,P|347:10|379:-3,1,81,10|0,1:2|3:0,2:0:0:0:
388,291,94647,5,10,1:2:0:0:
256,192,94767,1,8,1:2:0:0:
174,355,94887,6,0,B|166:361|166:361|87:347,1,89.1,8|8,1:2|1:2,2:0:0:0:
4,197,95127,5,6,3:2:0:0:
0,192,95367,5,10,1:2:0:0:
39,274,95487,1,0,1:0:0:0:
121,235,95607,1,2,3:2:0:0:
127,230,95847,6,0,P|118:261|111:292,1,64.8,10|0,1:2|2:0,2:0:0:0:
178,380,96087,5,2,3:2:0:0:
236,315,96207,1,2,1:2:0:0:
310,360,96327,5,10,1:2:0:0:
389,319,96447,1,2,1:2:0:0:
449,384,96567,6,0,P|494:374|537:366,1,72.9000000000001,2|0,3:2|3:0,2:0:0:0:
453,296,96807,2,0,P|408:306|365:314,1,72.9000000000001,8|0,1:2|3:0,2:0:0:0:
509,160,97047,5,2,3:2:0:0:
431,117,97167,1,2,1:2:0:0:
476,40,97287,5,10,1:2:0:0:
487,42,97407,1,10,1:2:0:0:
380,201,97527,5,2,3:2:0:0:
297,172,97647,1,2,1:2:0:0:
246,243,97767,5,10,1:2:0:0:
161,220,97887,1,2,1:2:0:0:
86,340,98007,6,0,B|79:348|79:348|-15:366,1,81.0000000000001,2|0,3:2|2:0,2:0:0:0:
0,356,98247,2,0,B|7:348|7:348|101:330,1,81.0000000000001,10|2,1:2|1:2,2:0:0:0:
219,384,98487,6,0,P|224:361|229:341,2,40.5,10|0|0,1:2|1:0|1:0,2:0:0:0:
305,300,98727,1,8,1:2:0:0:
369,362,98847,1,8,1:2:0:0:
450,193,98967,5,6,3:2:0:0:
454,188,99207,6,0,L|446:135,1,48.6,10|0,1:2|2:0,2:0:0:0:
340,28,99327,2,0,L|350:90,1,52.65,10|0,1:2|2:0,2:0:0:0:
457,126,99447,6,0,B|426:137|389:142|389:142|378:164|369:185|369:185|338:186|276:207,1,194.4,2|0,3:2|2:0,2:0:0:0:
280,213,99687,2,0,B|267:218|267:218|232:204|195:196,1,89.1,10|0,1:2|2:0,2:0:0:0:
105,192,99927,1,2,3:2:0:0:
479,384,100167,6,0,B|489:342|489:342|493:341|493:341|508:276,1,97.2000000000001,10|2,1:2|1:2,2:0:0:0:
398,269,100407,2,0,B|390:236|390:236|387:235|387:235|375:185,1,81,2|0,3:2|3:0,2:0:0:0:
424,37,100647,5,2,1:2:0:0:
304,115,100767,1,0,1:0:0:0:
453,151,100887,6,0,P|484:162|519:178,4,64.8,10|10|10|10|10,1:0|1:0|1:0|1:0|1:0,2:0:0:0:
391,233,102087,6,2,B|280:236|350:324|230:341,1,202.5,2|0,2:0|2:0,2:1:0:0:
164,291,102807,5,6,3:2:0:0:
160,284,103047,6,0,P|144:324|139:340,1,48.6,10|0,1:2|2:0,2:0:0:0:
71,384,103167,2,0,B|62:377|62:377|44:332,1,56.7,0|0,1:0|2:0,2:0:0:0:
0,197,103287,6,0,B|13:207|13:207|92:192,1,97.2000000000001,2|2,3:2|2:0,2:0:0:0:
184,201,103527,1,10,1:2:0:0:
242,355,103647,6,0,P|271:295|388:321,1,157.95,2|0,3:2|2:0,2:0:0:0:
361,295,103887,5,2,3:2:0:0:
259,159,104007,1,10,1:2:0:0:
405,69,104127,1,2,1:2:0:0:
276,3,104247,6,0,B|265:-9|265:-9|227:-12|227:-12|273:21,1,97.2000000000001,2|2,3:2|2:0,2:0:0:0:
411,78,104487,2,0,B|427:97|427:97|407:184,1,97.2000000000001,10|0,1:2|2:0,2:0:0:0:
147,346,104727,6,0,P|186:357|225:369,1,81,2|0,3:2|2:0,2:0:0:0:
319,377,104967,2,0,P|280:366|242:355,1,81,10|0,1:2|2:0,2:0:0:0:
177,192,105207,6,0,B|109:211|109:211|94:251|94:251|11:276,1,182.25,2|0,3:2|2:0,2:0:0:0:
17,267,105447,2,0,P|27:301|34:327,1,60.75,10|0,1:2|2:0,2:0:0:0:
186,273,105567,6,0,B|254:291|254:291|269:331|269:331|350:356,1,182.25,2|0,3:2|2:0,2:0:0:0:
343,358,105807,2,0,P|351:329|363:280,1,48.6,2|0,3:2|2:0,2:0:0:0:
325,218,105927,5,10,1:2:0:0:
417,176,106047,1,2,1:2:0:0:
264,38,106167,1,2,3:2:0:0:
256,34,106407,6,0,P|267:81|277:122,1,81,10|0,1:2|2:0,2:0:0:0:
440,368,106647,5,6,3:2:0:0:
511,207,106767,1,2,1:2:0:0:
353,294,106887,6,0,P|402:281|457:262,1,81,10|2,1:2|3:2,2:0:0:0:
512,44,107127,5,2,3:2:0:0:
422,183,107247,1,0,1:0:0:0:
348,0,107367,1,10,1:2:0:0:
436,91,107487,6,0,P|347:81|287:180,1,194.4,2|2,3:2|3:2,2:0:0:0:
181,226,107847,5,10,1:2:0:0:
261,318,107967,1,2,1:2:0:0:
138,376,108087,5,2,3:2:0:0:
133,367,108207,1,0,1:0:0:0:
120,370,108327,6,0,P|76:357|43:349,1,64.8,10|0,1:2|2:0,2:0:0:0:
291,240,108567,5,10,1:2:0:0:
421,370,108687,1,2,3:2:0:0:
477,188,108807,5,10,1:2:0:0:
465,181,108927,1,2,3:2:0:0:
305,338,109047,5,10,1:2:0:0:
459,271,109167,1,2,3:2:0:0:
291,152,109287,1,10,1:2:0:0:
368,236,109407,6,0,P|387:150|418:39,1,194.4,2|0,3:2|3:0,2:0:0:0:
500,28,109767,1,8,1:2:0:0:
512,114,109887,1,0,1:0:0:0:
256,42,110007,6,0,B|243:93|243:93|281:133,1,105.3,2|0,3:2|3:0,2:0:0:0:
365,106,110247,1,8,1:2:0:0:
343,17,110367,1,8,1:2:0:0:
248,239,110487,6,0,P|193:253|133:272,1,97.2000000000001,6|2,3:2|2:0,2:0:0:0:
280,361,110727,2,0,B|305:351|305:351|348:261,1,97.2000000000001,10|2,1:2|2:0,2:0:0:0:
105,192,110967,6,0,P|127:255|154:391,1,194.4,2|10,3:2|1:2,2:0:0:0:
248,239,111327,6,0,P|315:198|306:106,1,157.95,2|0,3:2|2:0,2:0:0:0:
309,120,111567,5,2,3:2:0:0:
443,14,111687,1,10,1:2:0:0:
416,197,111807,1,2,1:2:0:0:
483,101,111927,6,0,B|488:87|488:87|526:72|526:72|503:107,1,97.1999970336915,6|0,3:2|2:0,2:0:0:0:
411,205,112167,2,0,P|421:252|433:320,1,97.2000000000001,14|0,1:2|2:0,2:0:0:0:
160,384,112407,6,0,P|199:373|238:361,1,81,2|0,3:2|2:0,2:0:0:0:
332,353,112647,2,0,P|293:364|255:375,1,81,10|2,1:2|2:0,2:0:0:0:
258,133,112887,6,0,B|295:95|295:95|243:256,1,182.25,2|0,3:2|2:0,2:0:0:0:
258,232,113127,2,0,P|214:214|176:203,1,60.75,10|0,1:2|2:0,2:0:0:0:
6,374,113247,6,0,P|-20:300|71:242,1,182.25,2|0,3:2|2:0,2:0:0:0:
60,229,113487,6,0,P|66:257|70:286,1,48.6,2|0,3:2|2:0,2:0:0:0:
111,353,113607,5,10,1:2:0:0:
183,298,113727,1,0,1:0:0:0:
341,378,113847,1,2,3:2:0:0:
347,384,114087,6,0,P|386:375|447:363,1,81,10|0,1:2|2:0,2:0:0:0:
512,144,114327,5,6,3:2:0:0:
421,168,114447,1,2,1:2:0:0:
338,128,114567,1,10,1:2:0:0:
298,45,114687,1,2,1:2:0:0:
452,77,114807,5,2,3:2:0:0:
256,182,114927,1,2,1:2:0:0:
439,277,115047,1,10,1:2:0:0:
343,149,115167,6,0,P|315:91|391:-6,1,194.4,2|2,3:2|3:2,2:0:0:0:
512,171,115527,1,10,1:2:0:0:
365,233,115647,1,2,1:2:0:0:
496,358,115767,6,0,P|506:308|522:247,1,81,2|2,3:2|2:0,2:0:0:0:
283,215,116007,2,0,P|292:254|300:294,1,81,10|0,1:2|2:0,2:0:0:0:
319,120,116247,5,10,1:2:0:0:
199,258,116367,1,2,3:2:0:0:
370,354,116487,6,0,B|404:337|404:337|440:245,1,97.2000000000001,10|2,1:2|3:2,2:0:0:0:
148,192,116727,5,10,1:2:0:0:
100,384,116847,1,2,3:2:0:0:
0,247,116967,1,10,1:2:0:0:
179,346,117087,5,10,1:2:0:0:
206,265,118167,5,6,3:2:0:0:
512,207,124887,6,0,P|485:130|452:56,1,162,6|0,3:2|2:0,2:0:0:0:
512,0,125247,6,0,P|488:57|458:152,1,145.8,2|0,3:2|2:0,2:0:0:0:
319,364,125847,6,0,P|265:340|183:316,2,129.6,6|0|0,3:2|1:0|1:0,2:0:0:0:
350,286,126567,1,2,1:2:0:0:
126,368,126807,6,0,P|65:336|76:263,1,129.6,2|2,3:2|1:2,2:0:0:0:
0,198,127287,2,0,P|61:176|118:222,1,129.6,2|2,1:2|1:2,2:0:0:0:
219,192,127767,6,0,P|201:246|179:332,2,129.6,6|0|0,3:2|1:0|1:0,2:0:0:0:
125,223,128487,1,2,1:2:0:0:
275,328,128727,6,0,P|325:306|424:275,1,129.6,2|2,3:2|1:2,2:0:0:0:
512,217,129207,2,0,P|462:195|363:164,1,129.6,2|2,1:2|1:2,2:0:0:0:
450,112,129567,1,2,1:2:0:0:
457,107,129687,6,0,P|437:165|401:316,1,194.4,6|0,3:2|3:0,2:0:0:0:
416,380,130167,2,0,P|354:382|310:315,1,129.6,0|2,1:0|1:2,2:0:0:0:
128,224,130647,6,0,P|136:288|142:352,1,129.6,2|2,3:2|1:2,2:0:0:0:
218,256,131127,2,0,P|226:320|232:384,1,129.6,2|2,1:2|1:2,2:0:0:0:
265,176,131607,6,0,P|325:196|410:40,1,259.2,6|0,3:2|1:0,2:0:0:0:
329,5,132327,2,0,P|336:42|341:82,1,64.8,2|2,1:2|1:2,2:0:0:0:
256,91,132567,6,0,P|322:65|523:8,1,259.2,2|0,3:2|1:0,2:0:0:0:
510,19,133287,1,2,1:2:0:0:
453,208,133527,6,0,P|418:197|318:171,2,129.6,6|0|0,3:2|1:0|1:0,2:0:0:0:
428,118,134247,1,2,1:2:0:0:
504,282,134487,6,0,P|454:300|365:352,1,129.6,2|2,3:2|1:2,2:0:0:0:
276,384,134967,2,0,P|234:355|232:273,1,129.6,2|2,1:2|1:2,2:0:0:0:
348,166,135447,6,0,P|321:232|301:301,2,129.6,6|0|0,3:2|1:0|1:0,2:0:0:0:
428,118,136167,1,2,1:2:0:0:
501,301,136407,6,0,P|460:245|393:247,1,129.6,2|2,3:2|1:2,2:0:0:0:
269,205,136887,2,0,P|280:249|295:347,1,129.6,2|2,1:2|1:2,2:0:0:0:
372,367,137247,1,2,1:2:0:0:
379,374,137367,6,0,P|271:344|178:326,1,194.4,6|0,3:2|3:0,2:0:0:0:
116,380,137847,2,0,P|71:363|57:282,1,129.6,0|2,1:0|1:2,2:0:0:0:
215,192,138327,6,0,P|198:242|178:336,1,129.6,2|2,3:2|1:2,2:0:0:0:
267,374,138807,2,0,P|280:310|299:248,1,129.6,2|2,1:2|1:2,2:0:0:0:
294,157,139167,1,2,1:2:0:0:
390,298,139287,6,0,P|430:283|469:272,1,81,10|8,1:2|1:2,2:0:0:0:
507,195,139527,2,0,P|468:183|430:169,1,81,8|8,1:2|1:2,2:0:0:0:
263,45,139767,5,8,1:2:0:0:
256,36,139887,1,8,1:2:0:0:
345,0,140007,5,8,1:2:0:0:
385,83,140127,1,8,1:2:0:0:
258,159,140247,6,0,P|217:178|176:193,1,89.1,8|8,1:2|1:2,2:0:0:0:
390,298,140487,2,0,P|431:313|472:331,1,89.1,8|8,1:2|1:2,2:0:0:0:
26,384,140727,5,8,1:2:0:0:
82,211,140846,1,8,1:2:0:0:
172,356,140966,1,8,1:2:0:0:
298,229,141087,1,8,1:2:0:0:
402,384,141207,6,0,P|458:356|461:231,1,194.399994067383,6|10,3:2|1:2,2:0:0:0:
512,73,141567,2,0,B|414:82|464:158|344:168,1,194.4,2|2,3:2|3:2,2:0:0:0:
283,95,141927,1,10,1:2:0:0:
352,21,142047,1,2,1:2:0:0:
444,131,142167,6,0,P|413:208|384:332,1,194.4,2|10,3:2|1:2,2:0:0:0:
298,228,142527,1,0,1:0:0:0:
279,377,142647,6,0,P|209:361|187:267,1,145.8,2|0,3:2|2:0,2:0:0:0:
166,300,142887,2,0,P|181:253|192:213,1,81,10|0,1:2|2:0,2:0:0:0:
512,73,143127,6,0,B|414:82|464:158|344:168,1,194.4,2|10,3:2|1:2,2:0:0:0:
256,68,143487,2,0,P|287:145|316:269,1,194.4,2|2,3:2|3:2,2:0:0:0:
403,309,143847,1,10,1:2:0:0:
452,216,143967,1,2,1:2:0:0:
278,344,144087,6,0,P|215:322|134:301,1,133.65,2|0,3:2|2:0,2:0:0:0:
143,296,144327,2,0,P|98:307|52:318,1,89.1,10|0,1:2|1:0,2:0:0:0:
221,227,144567,6,0,P|180:211|140:191,1,89.1,2|0,3:2|3:0,2:0:0:0:
299,361,144807,2,0,P|334:334|372:310,1,89.1,10|0,1:2|2:0,2:0:0:0:
256,68,145047,6,0,P|287:145|316:269,1,194.4,6|10,3:2|1:2,2:0:0:0:
491,252,145407,2,0,B|393:242|443:167|323:156,1,194.4,2|2,3:2|3:2,2:0:0:0:
382,68,145767,1,10,1:2:0:0:
470,121,145887,1,2,1:2:0:0:
323,242,146007,6,0,P|239:260|119:304,1,194.4,2|10,3:2|1:2,2:0:0:0:
50,192,146367,1,0,1:0:0:0:
0,317,146487,6,0,P|64:314|113:375,1,145.8,2|0,3:2|2:0,2:0:0:0:
111,384,146727,2,0,P|171:364|218:350,1,81,10|0,1:2|2:0,2:0:0:0:
491,252,146967,6,0,B|393:242|443:167|323:156,1,194.4,2|10,3:2|1:2,2:0:0:0:
512,141,147327,2,0,P|481:218|452:342,1,194.4,2|2,3:2|3:2,2:0:0:0:
356,357,147687,1,10,1:2:0:0:
323,260,147807,1,2,1:2:0:0:
182,369,147927,6,0,P|176:321|159:246,1,89.1,10|0,1:0|3:0,2:0:0:0:
322,204,148167,2,0,P|306:245|293:288,1,89.1,10|0,1:0|3:0,2:0:0:0:
92,321,148407,6,0,P|69:277|28:213,1,89.1,10|0,1:0|3:0,2:0:0:0:
280,123,148647,2,0,P|244:161|212:203,1,105.3,10|0,1:0|2:0,2:0:0:0:
27,384,148887,6,0,P|110:349|235:308,1,194.4,6|10,3:2|1:2,2:0:0:0:
404,384,149247,2,0,B|394:286|319:336|308:216,1,194.4,2|2,3:2|3:2,2:0:0:0:
472,116,149607,5,10,1:2:0:0:
426,209,149727,1,2,1:2:0:0:
256,1,149847,6,0,P|338:-15|411:76,1,194.4,2|10,3:2|1:2,2:0:0:0:
511,6,150207,1,0,1:0:0:0:
512,186,150327,6,0,P|434:155|362:135,1,145.8,2|0,3:2|2:0,2:0:0:0:
364,129,150567,2,0,P|316:142|260:156,1,81,10|0,1:2|2:0,2:0:0:0:
404,384,150807,6,0,B|394:286|319:336|308:216,1,194.4,2|10,3:2|1:2,2:0:0:0:
479,111,151167,2,0,P|444:194|403:319,1,194.4,2|2,3:2|3:2,2:0:0:0:
207,374,151527,5,10,1:2:0:0:
182,268,151647,1,2,1:2:0:0:
404,384,151767,6,0,P|355:360|263:324,1,133.65,2|0,3:2|2:0,2:0:0:0:
273,334,152007,2,0,P|296:276|311:238,1,89.1,10|0,1:2|1:0,2:0:0:0:
182,268,152247,6,0,P|146:227|113:193,1,89.1,2|0,3:2|3:0,2:0:0:0:
290,60,152487,2,0,P|272:101|256:143,1,89.1,10|0,1:2|2:0,2:0:0:0:
479,111,152727,6,0,P|444:194|403:319,1,194.4,6|10,3:2|1:2,2:0:0:0:
195,282,153087,2,0,B|293:272|243:197|363:186,1,194.4,2|2,3:2|3:2,2:0:0:0:
456,31,153447,5,10,1:2:0:0:
349,0,153567,1,2,1:2:0:0:
479,111,153687,6,0,P|501:166|410:264,1,194.4,2|10,3:2|1:2,2:0:0:0:
297,384,154047,1,0,1:0:0:0:
163,192,154167,6,0,P|221:209|321:248,1,145.8,2|0,3:2|2:0,2:0:0:0:
311,234,154407,2,0,P|295:272|277:324,1,81,10|0,1:2|2:0,2:0:0:0:
29,384,154647,6,0,P|14:337|105:243,1,194.4,2|10,3:2|1:2,2:0:0:0:
203,347,155007,2,0,B|300:359|268:274|388:291,1,194.4,2|2,3:2|3:2,2:0:0:0:
510,105,155367,2,0,P|491:160|475:214,1,97.2000000000001,10|2,1:2|1:2,2:0:0:0:
276,0,155607,5,10,1:2:0:0:
365,38,155727,1,10,1:2:0:0:
300,110,155847,5,10,1:2:0:0:
384,176,155967,1,10,1:2:0:0:
286,218,156087,5,10,1:2:0:0:
333,325,156207,1,10,1:2:0:0:
221,292,156327,5,10,1:2:0:0:
134,384,156447,1,10,1:2:0:0:
75,221,156567,5,6,3:2:0:0:
71,332,158487,5,6,3:2:0:0:
82,337,160407,5,6,3:2:0:0:
336,270,162327,5,10,1:2:0:0:
145,192,162447,1,2,3:2:0:0:
200,384,162567,5,10,1:2:0:0:
209,378,162687,1,2,3:2:0:0:
261,151,162807,5,10,1:2:0:0:
105,290,162927,1,2,3:2:0:0:
315,376,163047,1,10,1:2:0:0:
201,256,163167,6,0,P|294:250|338:152,1,194.4,2|0,3:2|3:0,2:0:0:0:
270,98,163527,1,8,1:2:0:0:
347,36,163647,1,0,1:0:0:0:
485,232,163767,6,0,B|509:187|509:187|485:124,1,105.3,2|0,3:2|3:0,2:0:0:0:
487,44,164007,1,8,1:2:0:0:
408,113,164127,1,8,1:2:0:0:
512,322,164247,6,0,P|440:297|385:283,1,97.2000000000001,6|0,3:2|2:0,2:0:0:0:
281,197,164487,2,0,B|259:217|259:217|281:298,1,97.2000000000001,10|0,1:2|2:0,2:0:0:0:
423,384,164727,6,0,P|445:308|485:194,1,194.4,2|10,3:2|1:2,2:0:0:0:
425,10,165087,6,0,P|357:3|320:114,1,157.95,2|0,3:2|2:0,2:0:0:0:
301,80,165327,5,2,3:2:0:0:
492,101,165447,1,10,1:2:0:0:
369,252,165567,1,2,1:2:0:0:
388,82,165687,6,0,P|401:145|407:191,1,97.2000000000001,6|0,3:2|2:0,2:0:0:0:
471,347,165927,2,0,B|500:327|500:327|524:255,1,97.2000000000001,14|0,1:2|2:0,2:0:0:0:
224,213,166167,6,0,P|170:200|129:193,1,81,2|0,3:2|2:0,2:0:0:0:
305,217,166407,2,0,P|251:204|210:197,1,81,10|0,1:2|2:0,2:0:0:0:
17,289,166647,6,0,B|7:268|-10:236|-10:236|35:270|94:305,1,182.25,2|0,3:2|2:0,2:0:0:0:
106,301,166887,2,0,P|95:331|86:360,1,60.75,10|0,1:2|2:0,2:0:0:0:
206,379,167007,6,0,B|275:363|275:363|289:321|289:321|376:299,1,182.25,2|0,3:2|2:0,2:0:0:0:
360,314,167247,2,0,P|364:290|369:266,1,48.6,2|0,3:2|2:0,2:0:0:0:
344,188,167367,5,10,1:2:0:0:
429,140,167487,1,2,1:2:0:0:
508,354,167607,1,2,3:2:0:0:
512,361,167847,6,0,P|467:349|425:339,1,81,10|0,1:2|2:0,2:0:0:0:
169,260,168087,5,6,3:2:0:0:
262,263,168207,1,2,1:2:0:0:
335,208,168327,1,10,1:2:0:0:
356,117,168447,1,2,1:2:0:0:
417,255,168567,5,2,3:2:0:0:
256,145,168687,1,2,1:2:0:0:
458,57,168807,1,10,1:2:0:0:
340,195,168927,6,0,P|333:143|302:-9,1,194.4,2|2,3:2|3:2,2:0:0:0:
436,186,169287,6,0,P|421:235|412:276,1,81,10|2,1:2|2:0,2:0:0:0:
284,268,169527,2,0,P|313:324|325:363,1,81,2|0,3:2|2:0,2:0:0:0:
482,316,169767,2,0,P|455:357|438:388,1,81,10|0,1:2|2:0,2:0:0:0:
95,281,170007,5,10,1:2:0:0:
234,372,170127,1,0,3:0:0:0:
207,218,170247,5,10,1:2:0:0:
97,384,170367,1,0,3:0:0:0:
39,192,170487,5,10,1:2:0:0:
185,307,170607,1,0,3:0:0:0:
0,354,170727,1,10,1:2:0:0:
91,288,170847,5,10,1:2:0:0:
95,281,171207,6,0,P|90:240|82:184,2,81,2|2|2,2:0|2:0|2:0,2:0:0:0:
249,350,171927,6,0,B|315:363|315:363|325:354|325:354|416:376,1,151.875,6|0,3:2|2:0,2:0:0:0:
408,376,172167,2,0,B|449:342|449:342|438:278,1,101.25,10|0,1:2|2:0,2:0:0:0:
315,154,172407,5,2,3:2:0:0:
506,218,172527,1,2,1:2:0:0:
442,33,172647,1,10,1:2:0:0:
430,155,172767,6,0,B|362:171|362:171|346:202|346:202|227:231,1,218.7,2|2,3:2|3:2,2:0:0:0:
13,341,173127,1,10,1:2:0:0:
98,367,173247,1,2,1:2:0:0:
162,192,173367,6,0,B|204:216|204:216|176:332,1,151.875,2|0,3:2|2:0,2:0:0:0:
173,328,173607,2,0,B|227:346|227:346|281:282,1,101.25,10|0,1:2|2:0,2:0:0:0:
24,199,173847,5,4,3:1:0:0:
29,192,174087,5,14,1:2:0:0:
37,196,174327,6,0,P|26:248|2:390,1,188.325,2|0,3:2|2:0,2:0:0:0:
0,374,174567,2,0,P|36:366|85:356,1,62.775,10|0,1:2|2:0,2:0:0:0:
200,236,174687,6,0,B|268:251|268:251|275:269|275:269|393:290,1,188.325,2|0,3:2|2:0,2:0:0:0:
385,278,174927,2,0,P|376:318|371:348,1,50.625,2|0,3:2|2:0,2:0:0:0:
294,368,175047,5,14,1:2:0:0:
366,190,175167,1,0,2:0:0:0:
496,351,175287,6,0,B|522:329|522:329|534:253,1,109.35,6|0,3:2|2:0,2:0:0:0:
353,105,175527,2,0,B|325:152|325:152|358:195,1,109.35,14|0,1:2|2:0,2:0:0:0:
512,0,175767,5,6,3:2:0:0:
442,165,175887,1,2,1:2:0:0:
307,9,176007,5,10,1:2:0:0:
455,64,176127,1,2,1:2:0:0:
340,274,176247,5,2,3:2:0:0:
256,76,176367,1,2,1:2:0:0:
461,152,176487,1,10,1:2:0:0:
223,246,176607,6,0,B|161:258|161:258|146:275|146:275|5:309,1,202.5,2|2,3:2|3:2,2:0:0:0:
203,338,176967,1,10,1:2:0:0:
91,200,177087,1,2,1:2:0:0:
210,349,177207,6,0,B|262:359|262:359|301:302,1,101.25,2|2,3:2|2:0,2:0:0:0:
365,79,177447,2,0,P|348:136|331:213,1,101.25,10|0,1:2|2:0,2:0:0:0:
307,9,177687,5,14,1:2:0:0:
459,93,177807,1,2,3:2:0:0:
261,147,177927,5,10,1:2:0:0:
471,240,178047,1,2,3:2:0:0:
289,319,178167,5,10,1:2:0:0:
430,167,178287,1,2,3:2:0:0:
476,384,178407,1,10,1:2:0:0:
343,253,178527,6,0,P|264:229|181:341,1,218.7,2|0,3:2|3:0,2:0:0:0:
0,249,178887,5,8,1:2:0:0:
82,384,179007,1,0,1:0:0:0:
109,200,179127,6,0,P|191:194|269:328,1,234.9,6|12,3:2|1:2,3:0:0:0:
189,331,179487,1,12,1:2:0:0:
418,384,179607,6,0,B|449:356|449:356|432:266,1,101.25,6|0,3:2|2:0,2:0:0:0:
278,115,179847,2,0,B|241:133|241:133|256:192,1,101.25,10|0,1:2|2:0,2:0:0:0:
468,51,180087,5,2,3:2:0:0:
337,179,180207,1,2,1:2:0:0:
512,248,180327,1,10,1:2:0:0:
415,129,180447,6,0,B|427:207|427:207|418:223|418:223|437:354,1,218.7,2|2,3:2|3:2,2:0:0:0:
336,384,180807,1,14,1:2:0:0:
283,268,180927,1,0,1:0:0:0:
502,241,181047,6,0,B|528:214|528:214|536:139,1,101.25,6|0,3:2|2:0,2:0:0:0:
362,300,181287,2,0,B|351:303|351:303|341:298|341:298|281:287|229:278,1,101.25,14|0,1:2|2:0,2:0:0:0:
29,381,181527,5,4,3:1:0:0:
22,376,181767,5,14,1:2:0:0:
15,379,182007,6,0,B|-12:361|-12:361|19:187,1,188.325,2|0,3:2|2:0,2:0:0:0:
11,199,182247,2,0,P|59:209|94:214,1,62.775,10|0,1:2|2:0,2:0:0:0:
174,318,182367,6,0,B|236:303|236:303|253:313|253:313|367:289,1,188.325,2|0,3:2|2:0,2:0:0:0:
362,300,182607,2,0,P|368:267|377:218,1,50.625,2|0,3:2|2:0,2:0:0:0:
327,81,182727,5,10,1:2:0:0:
458,188,182847,1,2,1:2:0:0:
262,229,182967,6,0,B|236:188|236:188|271:125,1,109.35,2|0,3:2|2:0,2:0:0:0:
462,12,183207,2,0,B|496:25|496:25|479:106,1,109.35,10|0,1:2|2:0,2:0:0:0:
446,356,183447,5,6,3:2:0:0:
389,141,183567,1,2,1:2:0:0:
263,326,183687,5,10,1:2:0:0:
498,250,183807,1,2,1:2:0:0:
273,141,183927,5,2,3:2:0:0:
333,383,184047,1,2,1:2:0:0:
468,173,184167,1,10,1:2:0:0:
329,277,184287,6,0,B|263:291|263:291|248:311|248:311|102:345,1,218.7,2|2,3:2|3:2,2:0:0:0:
0,192,184647,5,10,1:2:0:0:
30,276,184767,1,2,1:2:0:0:
209,213,184887,6,0,P|199:257|188:314,1,85.05,2|2,3:2|1:2,2:0:0:0:
111,226,185127,1,10,1:2:0:0:
460,375,185367,5,14,1:2:0:0:
410,175,185487,1,2,3:2:0:0:
297,339,185607,5,10,1:2:0:0:
472,230,185727,1,2,3:2:0:0:
273,132,185847,5,10,1:2:0:0:
418,289,185967,1,2,3:2:0:0:
489,57,186087,1,10,1:2:0:0:
356,241,186207,6,0,B|300:249|300:249|289:262|289:262|127:294,1,218.7,2|0,3:2|3:0,2:0:0:0:
32,337,186567,5,8,1:2:0:0:
153,203,186687,1,0,3:0:0:0:
215,384,186807,6,0,P|211:352|208:318,2,50.625,8|0|0,1:2|1:0|1:0,2:0:0:0:
296,295,187047,1,10,1:2:0:0:
240,219,187167,1,10,1:2:0:0:
475,315,187287,5,6,3:2:0:0:
480,312,187527,5,10,1:2:0:0:
483,320,187767,5,10,1:2:0:0:
477,324,188007,5,10,1:2:0:0:
512,173,188127,6,0,B|459:185|459:185|453:198|453:198|296:237,1,218.7,2|2,3:2|3:2,2:0:0:0:
114,369,188487,5,10,1:2:0:0:
82,272,188607,1,2,3:2:0:0:
222,192,188727,6,0,P|202:280|194:330,1,101.25,10|0,1:2|3:0,2:0:0:0:
19,322,188967,2,0,B|-10:289|-10:289|10:227,1,93.15,10|2,1:2|3:2,2:0:0:0:
254,364,189207,5,10,1:2:0:0:
259,362,189447,5,10,1:2:0:0:
260,370,189687,5,10,1:2:0:0:
253,373,189927,5,10,1:2:0:0:
131,229,190047,6,0,B|184:241|184:241|190:254|190:254|347:293,1,218.7,2|2,3:2|3:2,2:0:0:0:
479,374,190407,2,0,B|508:351|508:351|487:262,1,109.35,10|2,1:2|3:2,2:0:0:0:
256,85,190647,5,10,1:2:0:0:
314,201,190767,1,0,1:0:0:0:
397,41,190887,6,0,P|382:92|365:170,1,101.25,10|2,1:2|3:2,2:0:0:0:
132,313,191127,5,14,1:2:0:0:
127,310,191367,5,10,1:2:0:0:
125,317,191607,5,10,1:2:0:0:
131,322,191847,5,10,1:2:0:0:
243,192,191967,6,0,B|190:204|190:204|184:217|184:217|27:256,1,218.7,2|2,3:2|3:2,2:0:0:0:
217,369,192327,5,10,1:2:0:0:
252,282,192447,1,2,3:2:0:0:
366,363,192567,6,0,B|388:372|388:372|466:347,1,101.25,10|0,1:2|3:0,2:0:0:0:
444,154,192807,2,0,B|468:175|468:175|442:250,1,101.25,10|0,1:2|3:0,2:0:0:0:
256,74,193047,6,0,B|267:145|267:145|277:153|277:153|296:290,2,218.7,10|10|10,3:2|1:2|1:2,2:0:0:0:
454,60,193647,5,2,3:2:0:0:
362,187,193767,1,10,1:2:0:0:
304,2,193887,6,0,B|331:22|331:22|345:96,1,101.25,2|8,3:2|1:2,2:0:0:0:
505,136,194127,1,0,3:0:0:0:
377,276,194247,2,0,B|342:251|342:251|360:185,1,101.25,8|0,1:2|3:0,2:0:0:0:
448,53,194487,6,0,P|477:45|501:37,2,50.625,8|0|0,1:2|1:0|1:0,2:0:0:0:
283,159,194727,1,10,1:2:0:0:
462,245,194847,1,10,1:2:0:0:
255,368,194967,5,14,1:2:0:0:
249,362,195207,5,10,1:2:0:0:
253,354,195447,5,10,1:2:0:0:
259,359,195687,5,10,1:2:0:0:
100,371,195807,6,0,B|92:315|92:315|85:305|85:305|72:204,1,164.025,2|0,3:2|2:0,2:0:0:0:
80,200,196047,5,2,3:2:0:0:
201,296,196167,2,0,B|242:308|242:308|316:263,1,101.25,10|2,1:2|3:2,2:0:0:0:
439,86,196407,5,10,1:2:0:0:
361,217,196527,1,0,3:0:0:0:
273,49,196647,6,0,B|299:63|299:63|310:86|337:148,1,101.25,8|2,1:2|3:2,2:0:0:0:
473,330,196887,5,14,1:2:0:0:
479,336,197127,5,10,1:2:0:0:
475,344,197367,5,10,1:2:0:0:
469,339,197607,5,10,1:2:0:0:
493,178,197727,6,0,B|439:185|439:185|432:196|432:196|296:222,1,164.025,2|0,3:2|2:0,2:0:0:0:
328,224,197967,6,0,B|288:193|288:193|308:127,1,101.25,2|10,3:2|1:2,2:0:0:0:
433,101,198207,1,0,3:2:0:0:
347,368,198327,6,0,P|372:376|399:386,1,54.675,10|0,1:2|2:0,2:0:0:0:
431,309,198447,2,0,P|405:301|380:291,1,54.675,0|0,3:0|2:0,2:0:0:0:
252,384,198567,5,10,1:2:0:0:
196,258,198687,1,2,3:2:0:0:
20,334,198807,5,14,1:2:0:0:
14,340,199047,5,10,1:2:0:0:
18,348,199287,5,10,1:2:0:0:
22,342,199527,5,10,1:2:0:0:
121,192,199647,6,0,B|110:240|110:240|106:247|106:247|95:311,1,109.35,2|8,3:2|1:2,2:0:0:0:
29,206,199887,1,2,3:2:0:0:
101,384,200007,5,10,1:2:0:0:
179,277,200127,1,2,3:2:0:0:
293,363,200247,5,10,1:2:0:0:
333,134,200367,1,0,3:0:0:0:
453,331,200487,5,10,1:2:0:0:
511,205,200607,1,2,3:2:0:0:
256,288,200727,1,14,1:2:0:0:
249,294,200967,6,0,B|202:281|202:281|197:277|197:277|135:260,1,101.25,10|0,1:2|3:0,2:0:0:0:
0,342,201207,6,0,B|37:360|37:360|94:307,1,101.25,10|2,1:2|3:2,2:0:0:0:
256,192,201447,1,10,1:2:0:0:
0,0,201567,5,6,3:2:0:0:
0,0,201807,5,14,1:2:0:0:
0,0,202047,5,10,1:2:0:0:
0,0,202167,5,10,1:2:0:0:
