osu file format v14

[General]
AudioFilename: audio.mp3
AudioLeadIn: 0
PreviewTime: 52107
Countdown: 0
SampleSet: Soft
StackLeniency: 0.6
Mode: 0
LetterboxInBreaks: 0
EpilepsyWarning: 1
WidescreenStoryboard: 1

[Editor]
Bookmarks: 1047,24087,26007,33687,37047,75927,83607,174327,202167
DistanceSpacing: 1
BeatDivisor: 2
GridSize: 4
TimelineZoom: 2.799999

[Metadata]
Title:humanly
TitleUnicode:人間らしい
Artist:YurryCanon feat. GUMI
ArtistUnicode:ユリイ・カノン feat. GUMI
Creator:Petal
Version:Firika's Normal
Source:
Tags:japanese pop jpop j-pop rock j-rock jrock vocaloid ボカロ ningenrashii original Yurry Canon full len garden fast satellite milr_ firika matha
BeatmapID:3963137
BeatmapSetID:1886627

[Difficulty]
HPDrainRate:3
CircleSize:3
OverallDifficulty:4
ApproachRate:6
SliderMultiplier:0.9
SliderTickRate:1

[Events]
//Background and Video events
0,0,"bg.jpg",0,0
Video,0,"video.mp4"
//Break Periods
2,24287,24957
2,75987,86397
//Storyboard Layer 0 (Background)
//Storyboard Layer 1 (Fail)
//Storyboard Layer 2 (Pass)
//Storyboard Layer 3 (Foreground)
//Storyboard Layer 4 (Overlay)
//Storyboard Sound Samples

[TimingPoints]
1047,240,4,2,2,60,1,0
1527,-125,4,2,2,60,0,0
7047,-125,4,2,2,50,0,0
7287,-125,4,2,2,60,0,0
8727,-100,4,2,2,70,0,0
12567,-100,4,2,4,70,0,0
15447,-100,4,2,2,70,0,0
20247,-100,4,2,4,70,0,0
23127,-100,4,2,2,70,0,0
24087,-100,4,2,3,50,0,0
26007,-111.111111111111,4,2,2,50,0,0
29847,-111.111111111111,4,2,4,50,0,0
32727,-111.111111111111,4,2,4,60,0,0
33687,-111.111111111111,4,2,3,60,0,0
35607,-111.111111111111,4,2,2,50,0,0
37527,-111.111111111111,4,2,4,50,0,0
45207,-100,4,2,2,60,0,0
49047,-100,4,2,4,60,0,0
50967,-100,4,2,2,60,0,0
52887,-100,4,2,2,75,0,0
54327,-100,4,2,4,75,0,0
60567,-100,4,2,2,75,0,0
61767,-100,4,2,4,75,0,0
68247,-100,4,2,2,75,0,0
74847,-100,4,2,4,75,0,0
87447,-111.111111111111,4,2,4,50,0,0
95127,-100,4,2,2,60,0,0
98967,-100,4,2,4,60,0,0
100887,-100,4,2,2,60,0,0
102807,-100,4,2,2,80,0,0
106647,-100,4,2,4,80,0,0
110487,-100,4,2,2,80,0,0
111927,-100,4,2,4,80,0,0
118167,-133.333333333333,4,2,4,60,0,0
125847,-100,4,2,4,65,0,0
139287,-84.0336134453781,4,2,4,80,0,0
141207,-100,4,2,2,70,0,0
145047,-100,4,2,4,70,0,0
147927,-100,4,2,2,70,0,0
152727,-100,4,2,4,70,0,0
155607,-84.0336134453781,4,2,4,70,0,0
156566,-84.0336134453781,4,2,2,70,0,0
158487,-84.0336134453781,4,2,2,60,0,0
160407,-84.0336134453781,4,2,2,70,0,0
162807,-100,4,2,2,70,0,0
164247,-100,4,2,2,80,0,0
165687,-100,4,2,4,80,0,0
171927,-90.9090909090909,4,2,2,90,0,0
175047,-90.9090909090909,4,2,4,90,0,0
175767,-90.9090909090909,4,2,2,90,0,0
179127,-90.9090909090909,4,2,4,90,0,0
179607,-90.9090909090909,4,2,2,90,0,0
180807,-90.9090909090909,4,2,4,90,0,0
181767,-90.9090909090909,4,2,2,90,0,0
201807,-90.9090909090909,4,2,4,90,0,0

[Colours]
Combo1 : 128,128,128
Combo2 : 192,192,192

[HitObjects]
501,153,1047,5,2,3:2:0:0:
501,153,1287,1,10,1:2:0:0:
501,152,1527,2,0,P|455:198|407:200,1,108,10|2,1:2|3:2,2:0:0:0:
341,247,2247,2,0,P|277:230|252:189,1,108,2|2,3:2|3:2,2:0:0:0:
187,141,2967,5,2,3:2:0:0:
187,141,3207,1,10,1:2:0:0:
187,141,3447,2,0,L|70:164,1,108,10|2,1:2|3:2,2:0:0:0:
40,85,4167,2,0,L|110:71,1,72,2|10,3:2|1:2,2:0:0:0:
211,11,4887,5,2,3:2:0:0:
211,11,5127,1,10,1:2:0:0:
211,11,5367,2,0,P|255:72|252:115,1,108,10|2,1:2|3:2,2:0:0:0:
321,158,6087,2,0,P|290:226|251:245,1,108,2|2,3:2|3:2,2:0:0:0:
196,295,6807,5,2,3:2:0:0:
196,295,7047,1,10,1:2:0:0:
196,295,7287,1,10,1:2:0:0:
136,227,7647,2,0,P|80:221|30:254,1,108,2|10,3:2|1:2,2:0:0:0:
20,270,8247,1,10,1:2:0:0:
111,380,8727,6,0,P|179:357|255:349,1,135,6|2,3:2|3:2,2:0:0:0:
329,369,9327,2,0,P|395:356|383:292,1,135,2|2,1:2|3:2,2:0:0:0:
426,217,9927,2,0,P|454:196|517:192,2,90,10|2|10,1:2|3:2|1:2,2:0:0:0:
336,203,10647,6,0,P|289:242|200:263,1,135,2|2,3:2|1:2,2:0:0:0:
135,229,11247,2,0,P|122:151|102:93,1,135,2|2,3:2|3:2,2:0:0:0:
49,25,11847,2,0,P|20:58|12:101,1,90,10|2,1:2|3:2,2:0:0:0:
59,179,12327,1,10,1:2:0:0:
146,156,12567,6,0,P|212:125|287:122,1,135,6|2,3:2|3:2,2:0:0:0:
335,185,13167,2,0,P|373:227|451:220,1,135,2|2,3:2|3:2,2:0:0:0:
481,139,13767,2,0,P|489:89|511:51,2,90,10|2|10,1:2|3:2|1:2,2:0:0:0:
399,96,14487,6,0,P|332:90|272:120,1,135,2|2,3:2|3:2,2:0:0:0:
214,188,15087,2,0,P|249:246|266:320,1,135,2|10,3:2|1:0,2:0:0:0:
205,378,15687,1,10,1:0:0:0:
136,319,15927,2,0,P|88:323|44:358,1,90,10|10,1:0|1:0,2:0:0:0:
10,266,16407,6,0,P|65:237|151:231,1,135,6|2,3:2|3:2,2:0:0:0:
216,187,17007,2,0,P|244:106|220:68,1,135,2|2,3:2|3:2,2:0:0:0:
136,35,17607,2,0,P|92:43|42:70,2,90,10|2|10,1:2|3:2|1:2,2:0:0:0:
221,69,18327,6,0,P|270:104|355:109,1,135,2|2,3:2|3:2,2:0:0:0:
429,85,18927,2,0,P|483:98|497:176,1,135,2|2,3:2|3:2,2:0:0:0:
464,251,19527,2,0,P|407:259|378:282,1,90,10|2,1:2|3:2,2:0:0:0:
340,357,20007,1,10,1:2:0:0:
255,325,20247,6,0,P|242:265|208:193,1,135,6|2,3:2|3:2,2:0:0:0:
128,232,20847,2,0,P|81:246|34:178,1,135,2|2,3:2|3:2,2:0:0:0:
59,99,21447,2,0,P|39:53|3:17,2,90,10|2|10,1:2|3:2|1:2,2:0:0:0:
146,79,22167,6,0,P|217:88|279:118,1,135,2|2,3:2|3:2,2:0:0:0:
356,149,22767,2,0,P|327:215|318:279,1,135,2|10,3:2|1:0,2:0:0:0:
251,337,23367,1,10,1:0:0:0:
330,379,23607,2,0,P|395:362|435:365,1,90,10|10,1:0|1:0,2:0:0:0:
498,321,24087,1,2,2:0:0:0:
388,97,26007,6,0,P|369:161|272:172,1,161.999995056153,2|2,3:2|3:2,2:0:0:0:
219,124,26727,1,10,1:2:0:0:
155,179,26967,2,0,P|123:201|65:207,1,80.9999975280763,2|2,3:2|1:2,2:0:0:0:
15,158,27447,2,0,P|29:106|49:94,1,80.9999975280763,2|10,3:2|1:2,2:0:0:0:
115,40,27927,6,0,P|161:97|179:194,1,161.999995056153,2|2,3:2|3:2,2:0:0:0:
162,265,28647,1,10,1:2:0:0:
86,227,28887,2,0,P|32:230|-1:247,2,80.9999975280763,2|2|2,3:2|1:2|3:2,2:0:0:0:
162,265,29607,1,10,1:2:0:0:
216,329,29847,6,0,P|265:368|368:372,1,161.999995056153,6|2,3:2|3:2,2:0:0:0:
429,324,30567,1,10,1:2:0:0:
371,262,30807,2,0,P|349:207|328:184,2,80.9999975280763,2|2|2,3:2|1:2|3:2,2:0:0:0:
429,324,31527,1,10,1:2:0:0:
506,291,31767,6,0,P|512:217|478:124,1,161.999995056153,2|2,3:2|3:2,2:0:0:0:
413,90,32487,1,10,1:2:0:0:
331,111,32727,2,0,P|296:137|251:133,1,80.9999975280763,10|10,1:2|1:2,2:0:0:0:
192,85,33207,1,10,1:2:0:0:
192,85,33447,1,10,3:2:0:0:
238,8,33687,1,2,3:2:0:0:
413,90,35607,5,2,3:2:0:0:
340,268,37527,6,0,P|266:218|189:210,1,161.999995056153,6|2,3:2|3:2,2:0:0:0:
118,175,38247,1,10,1:2:0:0:
61,237,38487,2,0,P|53:284|34:314,1,80.9999975280763,2|2,3:2|1:2,2:0:0:0:
95,371,38967,2,0,P|139:354|175:355,1,80.9999975280763,2|10,3:2|1:2,2:0:0:0:
238,302,39447,6,0,P|247:247|308:154,1,161.999995056153,2|2,3:2|3:2,2:0:0:0:
379,123,40167,1,10,1:2:0:0:
433,186,40407,2,0,P|479:204|515:201,2,80.9999975280763,2|2|2,3:2|1:2|3:2,2:0:0:0:
379,123,41127,1,10,1:2:0:0:
309,75,41367,6,0,P|223:82|152:112,1,161.999995056153,6|2,3:2|3:2,2:0:0:0:
115,186,42087,1,10,1:2:0:0:
37,153,42327,2,0,P|23:120|22:63,1,80.9999975280763,2|2,3:2|1:2,2:0:0:0:
80,11,42807,1,2,3:2:0:0:
80,11,43047,1,10,1:2:0:0:
161,48,43287,2,0,P|215:112|301:121,1,161.999995056153,2|2,3:2|3:2,2:0:0:0:
357,75,44007,1,10,1:2:0:0:
446,104,44247,1,10,1:2:0:0:
446,104,44487,1,10,1:2:0:0:
446,104,44727,1,10,1:2:0:0:
509,259,45207,6,0,P|457:270|393:328,1,135,6|10,3:2|1:2,2:0:0:0:
317,279,45807,2,0,L|182:268,1,135,2|2,1:2|3:2,2:0:0:0:
100,305,46407,1,10,1:2:0:0:
17,341,46647,2,0,P|7:298|24:257,1,90,2|10,3:2|1:2,2:0:0:0:
107,204,47127,5,2,3:2:0:0:
168,137,47367,1,10,1:2:0:0:
256,118,47607,1,2,3:2:0:0:
344,137,47847,1,10,1:2:0:0:
405,204,48087,2,0,L|507:185,2,90,2|10|10,3:2|1:2|1:2,2:0:0:0:
243,282,49047,6,0,L|64:254,1,180,6|2,3:2|3:2,2:0:0:0:
3,188,49767,1,10,1:2:0:0:
42,107,50007,2,0,P|79:86|129:91,1,90,2|10,3:2|1:2,2:0:0:0:
191,149,50487,2,0,P|228:170|278:165,1,90,2|10,3:2|1:2,2:0:0:0:
352,104,50967,5,10,1:0:0:0:
438,129,51207,1,10,1:0:0:0:
493,199,51447,1,10,1:0:0:0:
510,287,51687,1,10,1:0:0:0:
495,375,51927,1,10,1:0:0:0:
278,239,52887,6,0,P|274:202|243:152,1,90,6|10,3:2|1:2,2:0:0:0:
169,96,53367,2,0,P|120:99|28:139,2,135,2|2|10,3:2|3:2|1:2,2:0:0:0:
253,44,54327,1,6,3:2:0:0:
330,104,54567,1,14,1:2:0:0:
424,75,54807,6,0,B|434:90|434:90|419:160,1,90,6|10,3:2|1:2,2:0:0:0:
355,235,55287,2,0,L|499:208,2,135,2|2|10,3:2|3:2|1:2,2:0:0:0:
261,201,56247,2,0,P|218:218|203:272,1,90,2|10,3:2|1:2,2:0:0:0:
165,348,56727,5,6,3:2:0:0:
68,363,56967,1,10,1:2:0:0:
7,285,57207,2,0,P|33:237|78:232,1,90,2|10,3:2|1:2,2:0:0:0:
77,223,57567,2,0,P|95:150|127:84,1,135,2|10,3:2|1:2,2:0:0:0:
208,47,58167,1,2,3:2:0:0:
208,47,58407,1,10,1:2:0:0:
276,118,58647,6,0,P|316:149|367:151,1,90,10|10,1:2|1:2,2:0:0:0:
446,121,59127,2,0,P|469:52|479:38,1,90,10|10,1:2|1:2,2:0:0:0:
484,26,59487,2,0,L|333:55,1,135,2|10,3:2|1:2,2:0:0:0:
276,118,60087,2,0,L|242:309,1,180,2|6,3:2|3:2,2:0:0:0:
294,380,60807,5,10,1:2:0:0:
373,320,61047,2,0,P|418:293|504:280,2,135,2|2|14,3:2|3:2|1:2,2:0:0:0:
294,380,62007,1,6,3:2:0:0:
244,295,62247,1,14,1:2:0:0:
153,334,62487,6,0,P|106:355|57:348,1,90,6|10,3:2|1:2,2:0:0:0:
9,272,62967,2,0,P|28:167|50:128,2,135,2|2|10,3:2|3:2|1:2,2:0:0:0:
68,352,63927,2,0,P|113:353|153:334,1,90,2|10,3:2|1:2,2:0:0:0:
202,248,64407,5,6,3:2:0:0:
284,193,64647,1,10,1:2:0:0:
383,193,64887,2,0,L|487:210,1,90,2|10,3:2|1:2,2:0:0:0:
485,202,65247,2,0,P|478:259|404:291,1,135,2|10,3:2|1:2,2:0:0:0:
332,347,65847,2,0,P|296:322|285:276,1,90,2|10,3:2|1:2,2:0:0:0:
226,198,66327,5,10,1:2:0:0:
257,104,66567,1,10,1:2:0:0:
334,42,66807,2,0,P|354:81|352:126,1,90,10|10,1:2|1:2,2:0:0:0:
362,136,67167,2,0,P|410:113|499:101,1,135,2|8,3:2|1:2,2:0:0:0:
494,199,67767,2,0,P|453:201|406:227,1,90,8|10,1:2|1:2,2:0:0:0:
357,309,68247,5,14,1:2:0:0:
357,309,68487,1,10,1:2:0:0:
357,309,68727,2,0,L|261:329,1,90,10|10,1:2|1:2,2:0:0:0:
259,337,69087,2,0,L|281:192,1,135,2|10,3:2|1:2,2:0:0:0:
189,161,69687,2,0,L|170:66,1,90,10|8,1:2|1:2,2:0:0:0:
246,8,70167,5,10,1:2:0:0:
246,8,70407,1,10,1:2:0:0:
246,8,70647,2,0,P|304:10|342:42,1,90,10|10,1:2|1:2,2:0:0:0:
343,30,71007,2,0,P|352:90|279:116,1,135,2|10,3:2|1:2,2:0:0:0:
197,94,71607,1,10,1:2:0:0:
130,167,71847,1,10,1:2:0:0:
47,134,72087,5,14,1:2:0:0:
47,134,72327,1,10,1:2:0:0:
47,134,72567,2,0,L|32:233,1,90,10|10,1:2|1:2,2:0:0:0:
23,232,72927,2,0,L|167:208,1,135,2|10,3:2|1:2,2:0:0:0:
241,159,73527,2,0,P|289:193|294:225,1,90,10|10,1:2|1:2,2:0:0:0:
249,309,74007,5,10,1:2:0:0:
249,309,74247,1,10,1:2:0:0:
331,364,74487,2,0,P|376:345|423:344,1,90,10|10,1:2|1:2,2:0:0:0:
430,348,74847,2,0,L|448:248,1,90,14|10,1:2|1:2,2:0:0:0:
507,181,75327,2,0,L|517:128,1,45,10|10,1:2|1:2,2:0:0:0:
202,43,87447,6,0,P|238:87|263:192,1,161.999995056153,2|2,3:2|3:2,2:0:0:0:
215,257,88167,1,10,1:2:0:0:
137,225,88407,2,0,P|71:233|47:252,2,80.9999975280763,2|2|2,3:2|1:2|3:2,2:0:0:0:
215,257,89127,1,10,1:2:0:0:
276,314,89367,6,0,L|447:290,1,161.999995056153,2|2,3:2|3:2,2:0:0:0:
486,223,90087,1,10,1:2:0:0:
407,192,90327,2,0,P|379:143|381:112,1,80.9999975280763,2|2,3:2|1:2,2:0:0:0:
424,48,90807,1,2,3:2:0:0:
501,92,91047,1,10,1:2:0:0:
501,92,91287,5,6,1:2:0:0:
366,254,92247,5,6,3:2:0:0:
362,258,92487,1,6,3:2:0:0:
358,262,92727,1,6,3:2:0:0:
302,199,92967,1,10,1:2:0:0:
227,238,93207,6,0,P|184:267|104:277,1,121.499996292114,2|10,3:2|1:2,2:0:0:0:
104,274,93687,2,0,L|89:180,1,80.9999975280763,2|10,3:2|1:2,2:0:0:0:
115,116,94167,1,10,1:2:0:0:
115,116,94407,1,10,1:2:0:0:
196,138,94647,2,0,P|231:158|282:162,1,80.9999975280763,10|8,1:2|1:2,2:0:0:0:
348,118,95127,6,0,L|456:99,2,90,6|10|2,3:2|1:2|3:2,2:0:0:0:
271,163,95847,1,10,1:2:0:0:
342,217,96087,2,0,P|351:260|336:301,1,90,2|10,3:2|1:2,2:0:0:0:
249,329,96567,2,0,P|202:305|156:296,1,90,2|8,3:2|1:2,2:0:0:0:
97,238,97047,5,2,3:2:0:0:
40,307,97287,1,10,1:2:0:0:
9,222,97527,1,2,3:2:0:0:
66,153,97767,1,10,1:2:0:0:
39,66,98007,6,0,P|83:60|123:81,1,90,2|10,3:2|1:2,2:0:0:0:
193,137,98487,2,0,P|242:113|336:103,1,135,10|8,1:2|1:2,2:0:0:0:
332,92,98967,6,0,P|360:137|405:157,2,90,6|10|2,3:2|1:2|3:2,2:0:0:0:
381,16,99687,1,10,1:2:0:0:
469,33,99927,2,0,P|484:83|470:130,1,90,2|10,3:2|1:2,2:0:0:0:
391,154,100407,2,0,P|353:130|332:92,1,90,2|2,3:2|1:2,2:0:0:0:
251,35,100887,5,10,1:0:0:0:
224,120,101127,1,10,1:0:0:0:
148,167,101367,1,10,1:0:0:0:
59,155,101607,1,10,1:0:0:0:
0,88,101847,1,10,1:0:0:0:
0,88,102087,6,2,L|40:321,1,225,2|0,2:0|2:0,2:1:0:0:
48,318,102807,6,0,P|99:290|149:296,1,90,6|10,3:2|1:2,2:0:0:0:
218,247,103287,2,0,L|242:98,2,135,2|2|10,3:2|3:2|1:2,2:0:0:0:
272,329,104247,2,0,L|263:381,2,45,2|2|10,3:2|1:2|1:2,2:0:0:0:
361,282,104727,1,2,3:2:0:0:
361,282,104967,1,10,1:2:0:0:
409,368,105207,6,0,P|463:370|492:347,1,90,2|10,3:2|1:2,2:0:0:0:
488,335,105567,2,0,P|507:291|474:204,1,135,2|10,3:2|1:2,2:0:0:0:
400,154,106167,1,2,3:2:0:0:
312,199,106407,1,10,1:2:0:0:
228,146,106647,6,0,L|242:49,1,90,6|10,3:2|1:2,2:0:0:0:
152,11,107127,2,0,L|138:108,1,90,2|10,3:2|1:2,2:0:0:0:
146,113,107487,2,0,P|121:158|42:156,1,135,2|10,3:2|1:2,2:0:0:0:
6,71,108087,1,2,3:2:0:0:
6,71,108327,1,10,1:2:0:0:
85,12,108567,6,0,L|184:29,1,90,10|10,1:2|1:2,2:0:0:0:
247,93,109047,2,0,L|264:192,1,90,10|10,1:2|1:2,2:0:0:0:
258,196,109407,2,0,L|395:168,1,135,2|8,3:2|1:2,2:0:0:0:
471,111,110007,6,0,P|490:174|465:235,1,135,2|8,3:2|1:2,2:0:0:0:
456,245,110487,6,0,L|448:306,2,45,6|2|10,3:2|1:2|1:2,2:0:0:0:
390,168,110967,2,0,P|342:172|313:203,1,90,2|10,3:2|1:2,2:0:0:0:
310,214,111327,2,0,P|283:200|170:185,1,135,2|10,3:2|1:2,2:0:0:0:
89,223,111927,1,6,3:2:0:0:
46,312,112167,1,14,1:2:0:0:
120,376,112407,6,0,P|166:348|203:348,1,90,2|10,3:2|1:2,2:0:0:0:
293,313,112887,2,0,P|389:349|411:381,2,135,2|2|10,3:2|3:2|1:2,2:0:0:0:
217,250,113847,1,2,3:2:0:0:
188,155,114087,1,10,1:2:0:0:
253,80,114327,6,0,L|353:102,1,90,6|10,3:2|1:2,2:0:0:0:
410,169,114807,2,0,L|510:147,1,90,2|10,3:2|1:2,2:0:0:0:
511,157,115167,2,0,P|531:122|467:55,1,135,2|10,3:2|1:2,2:0:0:0:
390,13,115767,1,2,3:2:0:0:
340,99,116007,1,10,1:2:0:0:
250,58,116247,6,0,L|242:13,2,45,10|2|10,1:2|3:2|1:2,2:0:0:0:
178,126,116727,2,0,L|89:111,1,90,10|10,1:2|1:2,2:0:0:0:
80,100,117087,2,0,P|26:134|24:171,1,90,10|2,1:2|2:0,2:0:0:0:
101,214,117567,2,0,L|109:259,1,45,2|2,2:0|2:0,2:0:0:0:
232,130,118167,6,0,L|495:187,1,270.000010299683,6|6,3:2|3:2,2:0:0:0:
392,26,120087,2,0,L|334:289,1,270.000010299683,6|6,1:2|3:2,2:0:0:0:
232,130,122007,5,6,3:2:0:0:
392,26,122967,1,6,3:2:0:0:
495,186,123927,1,6,3:2:0:0:
335,290,124887,2,0,B|300:278|300:278|293:259|293:259|251:245,1,101.250003862381,6|2,3:2|3:2,2:0:0:0:
52,97,125847,6,0,L|70:194,1,90,6|0,3:2|1:0,2:0:0:0:
37,272,126327,1,0,1:0:0:0:
37,272,126567,1,2,1:2:0:0:
78,351,126807,2,0,P|113:375|170:359,1,90,2|2,3:2|1:2,2:0:0:0:
232,317,127287,2,0,P|243:259|269:228,1,90,2|2,1:2|1:2,2:0:0:0:
339,191,127767,6,0,L|435:171,2,90,6|0|0,3:2|1:0|1:0,2:0:0:0:
260,146,128487,1,2,1:2:0:0:
208,61,128727,2,0,P|249:45|293:52,1,90,2|2,3:2|1:2,2:0:0:0:
387,19,129207,2,0,P|421:46|437:88,1,90,2|2,1:2|1:2,2:0:0:0:
512,154,129687,6,0,L|495:255,2,90,6|0|0,3:2|1:0|1:0,2:0:0:0:
444,94,130407,1,2,1:2:0:0:
394,169,130647,2,0,P|352:192|306:186,1,90,2|2,3:2|1:2,2:0:0:0:
240,131,131127,2,0,P|194:114|141:110,1,90,2|2,1:2|1:2,2:0:0:0:
69,141,131607,6,0,P|57:82|36:43,2,90,6|0|0,3:2|1:0|1:0,2:0:0:0:
44,227,132327,2,0,L|-5:238,2,45,2|2|2,1:2|1:2|3:2,2:0:0:0:
123,269,132807,1,2,1:2:0:0:
179,199,133047,1,0,1:0:0:0:
262,245,133287,1,2,1:2:0:0:
262,245,133527,6,0,L|277:349,1,90,6|0,3:2|1:0,2:0:0:0:
356,383,134007,1,0,1:0:0:0:
356,383,134247,1,2,1:2:0:0:
422,322,134487,2,0,P|466:325|505:304,1,90,2|2,3:2|1:2,2:0:0:0:
484,216,134967,2,0,P|439:212|400:233,1,90,2|2,1:2|1:2,2:0:0:0:
326,182,135447,6,0,L|342:88,2,90,6|0|0,3:2|1:0|1:0,2:0:0:0:
271,254,136167,1,2,1:2:0:0:
178,220,136407,2,0,L|73:239,1,90,2|2,3:2|1:2,2:0:0:0:
28,158,136887,2,0,L|133:139,1,90,2|2,1:2|1:2,2:0:0:0:
194,79,137367,6,0,P|213:40|254:23,2,90,6|0|0,3:2|1:0|1:0,2:0:0:0:
279,110,138087,1,2,1:2:0:0:
359,68,138327,2,0,L|457:82,1,90,2|2,3:2|1:2,2:0:0:0:
507,160,138807,1,2,1:2:0:0:
469,252,139047,1,2,1:2:0:0:
374,227,139287,6,0,B|338:186|338:186|327:239|327:239|292:199|292:199|281:251|281:251|245:211|245:211|234:264|234:264|199:224|199:224|188:276|188:276|152:236|152:236|142:289|142:289|106:248|106:248|95:301|95:301|60:261|60:261|49:313|49:313|14:275,1,803.249984066391,10|8,1:2|1:2,2:0:0:0:
4,265,141207,6,0,P|0:210|25:115,1,135,6|2,3:2|3:2,2:0:0:0:
79,67,141807,2,0,P|139:77|185:132,1,135,2|2,3:2|3:2,2:0:0:0:
269,162,142407,2,0,P|295:109|325:90,2,90,10|2|10,1:2|3:2|1:2,2:0:0:0:
199,219,143127,6,0,L|50:240,1,135,2|2,3:2|3:2,2:0:0:0:
48,326,143727,2,0,L|197:305,1,135,2|2,3:2|3:2,2:0:0:0:
243,372,144327,2,0,P|286:380|323:356,1,90,10|2,1:2|3:2,2:0:0:0:
357,274,144807,1,10,1:2:0:0:
268,284,145047,6,0,L|244:142,1,135,6|2,3:2|3:2,2:0:0:0:
308,86,145647,2,0,P|352:134|430:157,1,135,2|2,3:2|3:2,2:0:0:0:
500,121,146247,2,0,L|514:24,2,90,10|2|10,1:2|3:2|1:2,2:0:0:0:
416,156,146967,6,0,B|339:166|388:215|308:224,1,135,2|2,3:2|3:2,2:0:0:0:
227,185,147567,2,0,P|217:136|161:57,1,135,2|10,3:2|1:0,2:0:0:0:
90,25,148167,1,10,1:0:0:0:
20,82,148407,2,0,P|52:112|96:115,1,90,10|10,1:0|1:0,2:0:0:0:
171,65,148887,6,0,P|232:37|299:31,1,135,6|2,3:2|3:2,2:0:0:0:
386,53,149487,2,0,P|412:112|359:154,1,135,2|2,3:2|3:2,2:0:0:0:
281,184,150087,2,0,P|225:154|183:154,2,90,10|2|10,1:2|3:2|1:2,2:0:0:0:
349,242,150807,6,0,L|367:385,1,135,2|2,3:2|3:2,2:0:0:0:
276,367,151407,2,0,P|250:336|161:306,1,135,2|2,3:2|3:2,2:0:0:0:
76,332,152007,2,0,P|42:299|35:252,1,90,10|2,1:2|3:2,2:0:0:0:
74,177,152487,1,10,1:2:0:0:
154,217,152727,6,0,P|186:185|275:172,1,135,6|2,3:2|3:2,2:0:0:0:
336,233,153327,2,0,P|387:269|478:279,1,135,2|2,3:2|3:2,2:0:0:0:
499,201,153927,2,0,P|502:159|531:114,2,90,10|2|10,1:2|3:2|1:2,2:0:0:0:
411,179,154647,6,0,L|391:35,1,135,2|2,3:2|3:2,2:0:0:0:
306,18,155247,2,0,P|289:53|240:66,1,90,2|2,3:2|1:2,2:0:0:0:
226,61,155607,6,0,B|180:88|180:88|230:107|230:107|185:137|185:137|235:155|235:155|191:184|191:184|241:203|241:203|194:232|194:232|246:251,1,428.399991502075,10|6,1:2|3:2,2:0:0:0:
245,251,158487,5,6,3:2:0:0:
245,251,160407,5,6,3:2:0:0:
245,251,162327,5,10,1:2:0:0:
338,216,162567,1,10,1:2:0:0:
396,295,162807,2,0,L|487:278,1,90,10|10,1:2|1:2,2:0:0:0:
496,287,163167,2,0,L|516:141,1,135,2|8,3:2|1:2,2:0:0:0:
447,79,163767,2,0,P|388:74|323:130,1,135,2|8,3:2|1:2,2:0:0:0:
319,127,164247,6,0,L|229:115,1,90,6|10,3:2|1:2,2:0:0:0:
167,192,164727,2,0,L|77:203,1,90,2|10,3:2|1:2,2:0:0:0:
66,213,165087,2,0,P|42:203|16:94,1,135,2|10,3:2|1:2,2:0:0:0:
64,25,165687,1,6,3:2:0:0:
161,43,165927,1,14,1:2:0:0:
229,115,166167,6,0,L|334:96,1,90,2|10,3:2|1:2,2:0:0:0:
402,47,166647,2,0,L|418:135,1,90,2|10,3:2|1:2,2:0:0:0:
428,147,167007,2,0,P|413:181|325:204,1,135,2|10,3:2|1:2,2:0:0:0:
236,248,167607,1,2,3:2:0:0:
167,176,167847,1,10,1:2:0:0:
70,154,168087,6,0,P|67:198|89:237,1,90,6|10,3:2|1:2,2:0:0:0:
65,333,168567,2,0,P|102:357|146:357,1,90,2|10,3:2|1:2,2:0:0:0:
160,351,168927,2,0,P|209:312|293:301,1,135,2|10,3:2|1:2,2:0:0:0:
369,259,169527,1,2,3:2:0:0:
415,346,169767,1,10,1:2:0:0:
510,370,170007,6,0,L|521:274,1,90,10|10,1:2|1:2,2:0:0:0:
459,202,170487,2,0,L|470:106,1,90,10|10,1:2|1:2,2:0:0:0:
478,101,170847,1,10,1:2:0:0:
478,101,171927,6,0,P|447:143|402:146,1,99.0000030212403,6|10,3:2|1:2,2:0:0:0:
314,102,172407,2,0,L|298:37,1,49.5000015106202,2|2,3:2|1:2,2:0:0:0:
208,21,172767,2,0,P|146:47|128:85,1,99.0000030212403,2|2,3:2|3:2,2:0:0:0:
120,85,173127,1,10,1:2:0:0:
215,111,173367,1,2,3:2:0:0:
249,203,173607,1,10,1:2:0:0:
169,261,173847,6,0,P|122:238|73:232,1,99.0000030212403,4|14,3:1|1:2,2:0:0:0:
45,326,174327,2,0,P|92:349|141:355,1,99.0000030212403,2|10,3:2|1:2,2:0:0:0:
152,348,174687,1,2,3:2:0:0:
246,319,174927,2,0,P|277:295|299:295,1,49.5000015106202,2|14,3:2|1:2,2:0:0:0:
378,329,175287,1,6,3:2:0:0:
400,232,175527,1,14,1:2:0:0:
318,175,175767,6,0,L|303:72,1,99.0000030212403,6|10,3:2|1:2,2:0:0:0:
392,31,176247,2,0,L|407:134,1,99.0000030212403,2|10,3:2|1:2,2:0:0:0:
399,143,176607,2,0,P|466:172|487:240,1,148.50000453186,2|10,3:2|1:2,2:0:0:0:
458,335,177207,1,2,3:2:0:0:
371,383,177447,1,10,1:2:0:0:
307,307,177687,6,0,L|316:197,1,99.0000030212403,14|10,1:2|1:2,2:0:0:0:
225,164,178167,2,0,L|216:274,1,99.0000030212403,10|10,1:2|1:2,2:0:0:0:
223,278,178527,2,0,P|160:295|111:373,1,148.50000453186,2|8,3:2|1:2,2:0:0:0:
22,320,179127,2,0,P|29:262|74:178,1,148.50000453186,6|12,3:2|1:2,3:0:0:0:
83,175,179607,6,0,L|203:154,1,99.0000030212403,6|10,3:2|1:2,2:0:0:0:
273,192,180087,2,0,L|338:203,1,49.5000015106202,2|2,3:2|1:2,2:0:0:0:
395,266,180447,2,0,P|472:245|468:178,1,148.50000453186,2|14,3:2|1:2,2:0:0:0:
391,130,181047,1,6,3:2:0:0:
460,59,181287,1,14,1:2:0:0:
378,3,181527,6,0,P|342:46|293:46,1,99.0000030212403,4|14,3:1|1:2,2:0:0:0:
219,86,182007,2,0,P|166:48|117:44,1,99.0000030212403,2|10,3:2|1:2,2:0:0:0:
120,35,182367,1,2,3:2:0:0:
33,82,182607,2,0,L|21:145,1,49.5000015106202,2|10,3:2|1:2,2:0:0:0:
83,209,182967,1,2,3:2:0:0:
176,175,183207,1,10,1:2:0:0:
219,86,183447,6,0,P|288:92|325:120,1,99.0000030212403,6|10,3:2|1:2,2:0:0:0:
344,200,183927,2,0,L|327:307,1,99.0000030212403,2|10,3:2|1:2,2:0:0:0:
319,311,184287,2,0,L|471:284,1,148.50000453186,2|10,3:2|1:2,2:0:0:0:
512,199,184887,2,0,L|522:149,2,49.5000015106202,2|2|10,3:2|1:2|1:2,2:0:0:0:
424,151,185367,5,14,1:2:0:0:
349,215,185607,1,10,1:2:0:0:
256,182,185847,1,10,1:2:0:0:
256,83,186087,2,0,L|312:66,1,49.5000015106202,10|2,1:2|3:2,2:0:0:0:
376,136,186447,2,0,L|432:153,1,49.5000015106202,0|8,3:0|1:2,2:0:0:0:
470,237,186807,2,0,L|489:344,1,99.0000030212403,8|10,1:2|1:2,2:0:0:0:
394,370,187287,5,6,3:2:0:0:
323,300,187527,1,10,1:2:0:0:
236,348,187767,2,0,L|122:372,1,99.0000030212403,10|10,1:2|1:2,2:0:0:0:
125,361,188127,1,2,3:2:0:0:
50,295,188367,2,0,L|62:238,1,49.5000015106202,2|10,3:2|1:2,2:0:0:0:
121,169,188727,2,0,P|172:201|180:240,1,99.0000030212403,10|10,1:2|1:2,2:0:0:0:
248,308,189207,5,10,1:2:0:0:
319,238,189447,1,10,1:2:0:0:
406,286,189687,1,10,1:2:0:0:
493,238,189927,2,0,L|504:172,1,49.5000015106202,10|2,1:2|3:2,2:0:0:0:
435,115,190287,2,0,L|338:94,1,99.0000030212403,2|2,3:2|3:2,2:0:0:0:
326,84,190647,1,10,1:2:0:0:
253,151,190887,1,10,1:2:0:0:
164,103,191127,6,0,P|163:54|137:12,1,99.0000030212403,14|10,1:2|1:2,2:0:0:0:
68,83,191607,1,10,1:2:0:0:
4,159,191847,2,0,L|13:207,1,49.5000015106202,10|2,1:2|3:2,2:0:0:0:
99,257,192207,2,0,L|108:208,1,49.5000015106202,2|10,3:2|1:2,2:0:0:0:
190,152,192567,2,0,L|303:132,1,99.0000030212403,10|10,1:2|1:2,2:0:0:0:
362,69,193047,5,10,3:2:0:0:
453,107,193287,1,10,1:2:0:0:
423,201,193527,2,0,P|443:245|452:294,1,99.0000030212403,10|10,1:2|1:2,2:0:0:0:
462,307,193887,1,2,3:2:0:0:
393,378,194127,1,0,3:0:0:0:
300,341,194367,2,0,L|282:281,1,49.5000015106202,0|8,3:0|1:2,2:0:0:0:
328,204,194727,1,10,1:2:0:0:
239,160,194967,5,14,1:2:0:0:
196,249,195207,1,10,1:2:0:0:
100,273,195447,2,0,P|41:258|13:215,1,99.0000030212403,10|10,1:2|1:2,0:0:0:0:
15,214,195807,1,2,3:2:0:0:
77,137,196047,2,0,L|66:83,1,49.5000015106202,2|10,3:2|1:2,2:0:0:0:
159,53,196407,2,0,L|178:150,1,99.0000030212403,10|8,1:2|1:2,2:0:0:0:
266,196,196887,5,14,1:2:0:0:
309,107,197127,1,10,1:2:0:0:
400,67,197367,1,10,1:2:0:0:
498,71,197607,2,0,L|507:119,1,49.5000015106202,10|2,1:2|3:2,2:0:0:0:
469,210,197967,2,0,L|371:229,1,99.0000030212403,2|0,3:2|3:2,2:0:0:0:
359,240,198327,1,10,1:2:0:0:
266,196,198567,1,10,1:2:0:0:
204,273,198807,6,0,P|215:337|255:363,1,99.0000030212403,14|10,1:2|1:2,2:0:0:0:
335,335,199287,1,10,1:2:0:0:
423,379,199527,2,0,L|479:368,1,49.5000015106202,10|2,1:2|3:2,2:0:0:0:
511,278,199887,2,0,L|462:268,1,49.5000015106202,2|10,3:2|1:2,2:0:0:0:
380,212,200247,2,0,L|359:93,1,99.0000030212403,10|10,1:2|1:2,2:0:0:0:
401,22,200727,5,14,1:2:0:0:
304,1,200967,1,10,1:2:0:0:
221,55,201207,1,10,1:2:0:0:
195,150,201447,2,0,L|132:161,1,49.5000015106202,10|6,1:2|3:2,2:0:0:0:
51,131,201807,5,14,1:2:0:0:
122,63,202047,2,0,L|133:0,1,49.5000015106202,10|10,1:2|1:2,2:0:0:0:
