osu file format v14

[General]
AudioFilename: audio.mp3
AudioLeadIn: 0
PreviewTime: 98129
Countdown: 0
SampleSet: Normal
StackLeniency: 0.7
Mode: 1
LetterboxInBreaks: 0
WidescreenStoryboard: 0

[Editor]
DistanceSpacing: 1.5
BeatDivisor: 4
GridSize: 16
TimelineZoom: 4.499998

[Metadata]
Title:*Light Year Song*
TitleUnicode:✧Light Year Song✧
Artist:*Yurizono*
ArtistUnicode:✧百合園✧
Creator:6_9
Version:Over the Light Year
Source:アイドルマスター
Tags:高槻やよい takatsuki yayoi 仁後真耶子 nigo mayako 菊地真 kikuchi makoto 平田宏美 hirata hiromi 双海亜美 futami ami 双海真美 futami mami 双海亜美/真美 ami/mami 下田麻美 shimoda asami 我那覇響 ganaha hibiki 沼倉愛美 numakura manami 井上拓 taku inoue bnsi mctc mc tc アイマス imas im@s the idolm@ster master primal dancin' blue jcore j-core remix bootleg japanese electronic hardcore idolmaster videogame dnb drum and & bass light song yurizono 百合園 nokduro munine
BeatmapID:3518171
BeatmapSetID:1721490

[Difficulty]
HPDrainRate:5
CircleSize:2
OverallDifficulty:6.5
ApproachRate:0
SliderMultiplier:1.4
SliderTickRate:1

[Events]
//Background and Video events
0,0,"img.png",0,100
//Break Periods
//Storyboard Layer 0 (Background)
//Storyboard Layer 1 (Fail)
//Storyboard Layer 2 (Pass)
//Storyboard Layer 3 (Foreground)
//Storyboard Layer 4 (Overlay)
//Storyboard Sound Samples

[TimingPoints]
542,337.078651685393,4,1,0,45,1,0
542,-111.111111111111,4,1,0,45,0,0
1890,337.078651685393,4,1,0,45,1,0
1890,-111.111111111111,4,1,0,45,0,0
12676,-105.263157894737,4,1,0,70,0,0
18049,-105.263157894737,4,1,0,70,0,0
18217,-104.577191621412,4,1,0,70,0,0
18301,-104.237550262914,4,1,0,70,0,0
18386,-103.896103896104,4,1,0,71,0,0
18554,-103.227782670291,4,1,0,71,0,0
18723,-102.564102564103,4,1,0,71,0,0
18807,-102.237390974592,4,1,0,71,0,0
18975,-101.586344624892,4,1,0,72,0,0
19060,-101.26582278481,4,1,0,72,0,0
19228,-100.63080885372,4,1,0,72,0,0
19397,-100,4,1,0,73,0,0
19481,-99.689395059902,4,1,0,73,0,0
19650,-99.070297284386,4,1,0,73,0,0
19734,-98.765432098765,4,1,0,73,0,0
19818,-98.462437456631,4,1,0,73,0,0
19902,-98.157722274812,4,1,0,73,0,0
20071,-97.560975609756,4,1,0,74,0,0
20155,-97.265314957789,4,1,0,74,0,0
20240,-96.967953098586,4,1,0,74,0,0
20324,-96.675870477283,4,1,0,74,0,0
20408,-96.385542168675,4,1,0,74,0,0
20492,-96.096952414899,4,1,0,75,0,0
20577,-95.806680881308,4,1,0,75,0,0
20745,-96.1538461538461,4,1,0,75,0,0
23041,-100,4,1,0,75,0,0
23463,-100,4,1,0,80,0,0
33554,-100,4,1,0,80,0,0
33723,-101.012117461522,4,1,0,78,0,0
33807,-101.522842639594,4,1,0,78,0,0
33891,-102.038758595656,4,1,0,77,0,0
34060,-103.092783505155,4,1,0,75,0,0
34249,-100,4,1,0,80,0,0
43603,-111.111111111111,4,1,0,60,0,0
44952,-125,4,1,0,30,0,0
55822,-117.647058823529,4,1,0,40,0,0
66609,-111.111111111111,4,1,0,60,0,0
71981,-111.111111111111,4,1,0,60,0,0
72318,-109.965845949941,4,1,0,61,0,0
72487,-109.400357026939,4,1,0,61,0,0
72655,-108.843949301687,4,1,0,62,0,0
72740,-108.564584151141,4,1,0,62,0,0
72908,-108.016624104952,4,1,0,63,0,0
72992,-107.744713156922,4,1,0,63,0,0
73161,-107.201781064265,4,1,0,63,0,0
73329,-106.667457821555,4,1,0,64,0,0
73414,-106.399139810403,4,1,0,64,0,0
73582,-105.872768141975,4,1,0,64,0,0
73666,-105.608428308464,4,1,0,65,0,0
73751,-105.348491951867,4,1,0,65,0,0
73835,-105.089832027749,4,1,0,65,0,0
74004,-104.573262363903,4,1,0,66,0,0
74088,-104.318390637845,4,1,0,66,0,0
74256,-103.81235623057,4,1,0,66,0,0
74341,-103.558192676229,4,1,0,67,0,0
74425,-103.308238990096,4,1,0,67,0,0
74509,-103.059489002274,4,1,0,67,0,0
74593,-102.808994118937,4,1,0,67,0,0
74678,-102.562639661484,4,1,0,68,0,0
74762,-102.317463027785,4,1,0,68,0,0
74931,-101.827725539066,4,1,0,68,0,0
75015,-101.586045810729,4,1,0,68,0,0
75183,-101.106111736033,4,1,0,69,0,0
75268,-100.867841244903,4,1,0,69,0,0
75436,-100.391850259217,4,1,0,70,0,0
75520,-100.156930477013,4,1,0,70,0,0
75605,-99.920330535638,4,1,0,70,0,0
75689,-99.687609752491,4,1,0,70,0,0
75858,-99.222666850651,4,1,0,71,0,0
75942,-98.993180796094,4,1,0,71,0,0
76026,-98.764753820656,4,1,0,71,0,0
76110,-98.537378609733,4,1,0,71,0,0
76195,-98.308359765212,4,1,0,72,0,0
76279,-98.083078713808,4,1,0,72,0,0
76363,-97.858827798948,4,1,0,72,0,0
76447,-97.635599971033,4,1,0,72,0,0
76532,-97.410748959152,4,1,0,73,0,0
76616,-97.18955838492,4,1,0,73,0,0
76700,-96.969370049716,4,1,0,73,0,0
76784,-96.747573686382,4,1,0,73,0,0
76869,-96.529381231094,4,1,0,74,0,0
76953,-96.312170729529,4,1,0,74,0,0
77037,-96.095935567791,4,1,0,74,0,0
77122,-95.878112305217,4,1,0,74,0,0
77206,-95.663819634764,4,1,0,75,0,0
77374,-95.238095238095,4,1,0,75,0,0
77480,-111.111111111111,4,1,0,60,0,0
88098,-100,4,1,0,70,0,0
88266,-105.263157894737,4,1,0,70,0,0
93554,-105.263157894737,4,1,0,70,0,0
93723,-104.5537025836,4,1,0,70,0,0
93807,-104.204619981054,4,1,0,71,0,0
93891,-103.857860646916,4,1,0,71,0,0
94060,-103.16715965659,4,1,0,71,0,0
94228,-102.4895914099,4,1,0,71,0,0
94313,-102.150153582399,4,1,0,72,0,0
94397,-101.816910798548,4,1,0,72,0,0
94481,-101.485835209714,4,1,0,72,0,0
94565,-101.156905743371,4,1,0,72,0,0
94734,-100.501549372265,4,1,0,73,0,0
94902,-99.854629941154,4,1,0,73,0,0
95071,-99.219740502217,4,1,0,73,0,0
95155,-98.905313724134,4,1,0,73,0,0
95240,-98.589165846657,4,1,0,74,0,0
95408,-97.970216555908,4,1,0,74,0,0
95492,-97.663647144285,4,1,0,74,0,0
95577,-97.355374969828,4,1,0,74,0,0
95661,-97.052635475731,4,1,0,74,0,0
95745,-96.7517729624,4,1,0,75,0,0
95829,-96.4527700279,4,1,0,75,0,0
95914,-96.152082887619,4,1,0,75,0,0
96082,-95.563264339046,4,1,0,75,0,0
96166,-95.26808912684,4,1,0,76,0,0
96251,-94.978172530598,4,1,0,76,0,0
96335,-94.690015109468,4,1,0,76,0,0
96419,-94.403600900225,4,1,0,76,0,0
96504,-94.115535345679,4,1,0,76,0,0
96588,-93.832580724056,4,1,0,76,0,0
96672,-93.551322386302,4,1,0,77,0,0
96756,-93.271745124432,4,1,0,77,0,0
96841,-92.990535419758,4,1,0,77,0,0
96925,-92.714294976453,4,1,0,77,0,0
97009,-92.439690888256,4,1,0,77,0,0
97093,-92.163468580636,4,1,0,78,0,0
97178,-91.892112934414,4,1,0,78,0,0
97262,-91.622350494807,4,1,0,78,0,0
97346,-91.354167271629,4,1,0,78,0,0
97431,-91.084384789545,4,1,0,78,0,0
97515,-90.819337070802,4,1,0,78,0,0
97599,-90.555827408537,4,1,0,79,0,0
97683,-90.293842453605,4,1,0,79,0,0
97768,-90.030277187942,4,1,0,79,0,0
97852,-89.771319975117,4,1,0,79,0,0
97936,-89.513848184969,4,1,0,79,0,0
98020,-89.257849073092,4,1,0,79,0,0
98105,-89.000288557833,4,1,0,80,0,0
98273,-88.495575221239,4,1,0,80,0,0
98547,-100,4,1,0,80,0,0
98968,-90.909090909091,4,1,0,90,0,1
110008,-83.333333333333,4,1,0,90,0,1
110176,-90.909090909091,4,1,0,90,0,1
120541,-90.909090909091,4,1,0,90,0,0
120689,-100,4,1,0,70,0,0
120773,-99.41445209446,4,1,0,71,0,0
120858,-98.828872529945,4,1,0,72,0,0
120942,-98.25692011723,4,1,0,73,0,0
121026,-97.69154973364,4,1,0,74,0,0
121110,-97.132648410199,4,1,0,75,0,0
121195,-96.573565721072,4,1,0,75,0,0
121279,-96.027347594137,4,1,0,76,0,0
121363,-95.48727351387,4,1,0,77,0,0
121447,-94.953240394563,4,1,0,78,0,0
121532,-94.418896001711,4,1,0,79,0,0
121616,-93.896713615023,4,1,0,80,0,0
121700,-93.380275305601,4,1,0,81,0,0
121784,-92.863439653791,4,1,0,82,0,0
121869,-92.358274384776,4,1,0,83,0,0
121953,-91.858575448888,4,1,0,84,0,0
122037,-91.36425459778,4,1,0,85,0,0
122122,-90.869435227345,4,1,0,85,0,0
122206,-90.385674796827,4,1,0,86,0,0
122290,-89.907037868612,4,1,0,87,0,0
122374,-89.433443477002,4,1,0,88,0,0
122543,-88.495575221239,4,1,0,90,0,0
122817,-105.263157894737,4,1,0,70,0,0
123154,-100,4,1,0,80,0,0
130633,-100,4,1,0,80,0,0
130802,-101.012117461522,4,1,0,78,0,0
130886,-101.522842639594,4,1,0,78,0,0
130970,-102.038758595656,4,1,0,77,0,0
131139,-103.092783505155,4,1,0,75,0,0
131328,-100,4,1,0,80,0,0
140682,-111.111111111111,4,1,0,60,0,0
142031,-125,4,1,0,30,0,0
152817,-105.263157894737,4,1,0,70,0,0
171777,-105.263157894737,4,1,0,70,0,0
171925,-104.577191621412,4,1,0,70,0,0
172009,-104.237550262914,4,1,0,70,0,0
172093,-103.896103896104,4,1,0,70,0,0
172262,-103.227782670291,4,1,0,70,0,0
172431,-102.564102564103,4,1,0,70,0,0
172704,-101.586344624892,4,1,0,70,0,0
172768,-101.26582278481,4,1,0,70,0,0
172936,-100.63080885372,4,1,0,70,0,0
173105,-100,4,1,0,70,0,0
174390,-111.111111111111,4,1,0,60,0,0
185176,-100,4,1,0,70,0,0
185344,-105.263157894737,4,1,0,70,0,0
190633,-105.263157894737,4,1,0,70,0,0
190822,-104.641844707855,4,1,0,71,0,0
190886,-104.33574713333,4,1,0,71,0,0
190970,-104.031435124546,4,1,0,71,0,0
191159,-103.42453537587,4,1,0,72,0,0
191307,-102.828204634419,4,1,0,72,0,0
191412,-102.529101877007,4,1,0,73,0,0
191475,-102.235222527009,4,1,0,73,0,0
191560,-101.943023055796,4,1,0,73,0,0
191644,-101.652489100584,4,1,0,74,0,0
191813,-101.072951318934,4,1,0,74,0,0
192002,-100.499984160025,4,1,0,75,0,0
192150,-99.936809842099,4,1,0,76,0,0
192234,-99.657582975609,4,1,0,76,0,0
192339,-99.376615814389,4,1,0,76,0,0
192487,-98.825926733577,4,1,0,77,0,0
192571,-98.552864575243,4,1,0,77,0,0
192676,-98.278083422475,4,1,0,78,0,0
192740,-98.008036186464,4,1,0,78,0,0
192824,-97.739468948281,4,1,0,78,0,0
192908,-97.472369574451,4,1,0,78,0,0
193013,-97.203572361958,4,1,0,79,0,0
193161,-96.676639675605,4,1,0,79,0,0
193266,-96.41220732647,4,1,0,80,0,0
193350,-96.152303251492,4,1,0,80,0,0
193414,-95.893796686659,4,1,0,80,0,0
193498,-95.636676390527,4,1,0,81,0,0
193603,-95.377894895081,4,1,0,81,0,0
193666,-95.123530065421,4,1,0,81,0,0
193751,-94.87051836632,4,1,0,82,0,0
193835,-94.618849029161,4,1,0,82,0,0
193940,-94.36553916791,4,1,0,82,0,0
194004,-94.116538368239,4,1,0,83,0,0
194088,-93.86884817893,4,1,0,83,0,0
194193,-93.619532857106,4,1,0,83,0,0
194277,-93.374448332401,4,1,0,83,0,0
194341,-93.130643660019,4,1,0,84,0,0
194425,-92.888108840819,4,1,0,84,0,0
194530,-92.643969209151,4,1,0,84,0,0
194593,-92.40395933746,4,1,0,85,0,0
194678,-92.165189824744,4,1,0,85,0,0
194762,-91.927651080614,4,1,0,85,0,0
194867,-91.688527628118,4,1,0,86,0,0
194931,-91.453436414171,4,1,0,86,0,0
195015,-91.219547674181,4,1,0,86,0,0
195099,-90.986852205836,4,1,0,87,0,0
195204,-90.752591909507,4,1,0,87,0,0
195268,-90.522269686873,4,1,0,87,0,0
195352,-90.293113580466,4,1,0,88,0,0
195436,-90.065114756617,4,1,0,88,0,0
195520,-89.838264470657,4,1,0,88,0,0
195605,-89.609873868245,4,1,0,88,0,0
195689,-89.385308191195,4,1,0,89,0,0
195773,-89.16186524043,4,1,0,89,0,0
195858,-88.936896526134,4,1,0,89,0,0
196026,-88.495575221239,4,1,0,90,0,0
196384,-100,4,1,0,80,0,0
207487,-100,4,1,0,80,0,0
207656,-101.012117461522,4,1,0,78,0,0
207740,-101.522842639594,4,1,0,78,0,0
207824,-102.038758595656,4,1,0,77,0,0
207993,-103.092783505155,4,1,0,75,0,0
208098,-100,4,1,0,80,0,0
213554,-100,4,1,0,80,0,0
213723,-99.567431979319,4,1,0,80,0,0
213807,-99.353817076597,4,1,0,81,0,0
213891,-99.141116803018,4,1,0,81,0,0
214060,-98.715931584023,4,1,0,81,0,0
214228,-98.296861575782,4,1,0,81,0,0
214313,-98.086184724779,4,1,0,82,0,0
214397,-97.878871751,4,1,0,82,0,0
214481,-97.67243327391,4,1,0,82,0,0
214565,-97.466863771892,4,1,0,82,0,0
214734,-97.055888223553,4,1,0,82,0,0
214902,-96.650765255416,4,1,0,83,0,0
215071,-96.246628893782,4,1,0,83,0,0
215155,-96.047011184909,4,1,0,83,0,0
215240,-95.848219785635,4,1,0,83,0,0
215324,-95.645545966413,4,1,0,84,0,0
215408,-95.45075330029,4,1,0,84,0,0
215577,-95.056569655206,4,1,0,84,0,0
215661,-94.861852854391,4,1,0,84,0,0
215745,-94.667932150593,4,1,0,84,0,0
215829,-94.474802671524,4,1,0,84,0,0
215914,-94.280174503151,4,1,0,85,0,0
215998,-94.088622291022,4,1,0,85,0,0
216082,-93.897846866853,4,1,0,85,0,0
216251,-93.516359352838,4,1,0,85,0,0
216419,-93.137959105493,4,1,0,86,0,0
216504,-92.948794532986,4,1,0,86,0,0
216588,-92.762608799332,4,1,0,86,0,0
216672,-92.577167471858,4,1,0,86,0,0
216756,-92.392466095053,4,1,0,86,0,0
216925,-92.023088569266,4,1,0,87,0,0
217093,-91.656652765015,4,1,0,87,0,0
217178,-91.475602586714,4,1,0,87,0,0
217262,-91.295266258302,4,1,0,87,0,0
217346,-91.115639566205,4,1,0,88,0,0
217431,-90.934592547571,4,1,0,88,0,0
217599,-90.578866483491,4,1,0,88,0,0
217683,-90.402045084825,4,1,0,88,0,0
217768,-90.223820016236,4,1,0,88,0,0
217852,-90.048380749554,4,1,0,89,0,0
217936,-89.873622438371,4,1,0,89,0,0
218020,-89.699541125741,4,1,0,89,0,0
218105,-89.524072539814,4,1,0,89,0,0
218189,-89.351341418596,4,1,0,89,0,0
218273,-89.179275561669,4,1,0,89,0,0
218968,-89.179275561669,4,1,0,89,0,0
219305,-83.333333333333,4,1,0,90,0,1
219390,-90.909090909091,4,1,0,90,0,1
229671,-83.333333333333,4,1,0,90,0,1
229924,-90.909090909091,4,1,0,90,0,1
237845,-90.909090909091,4,1,0,90,0,0
237929,-90.635253617342,4,1,0,90,0,0
238013,-90.363061082212,4,1,0,90,0,0
238098,-90.089287305519,4,1,0,90,0,0
238182,-89.820359281437,4,1,0,90,0,0
238266,-89.553032047762,4,1,0,90,0,0
238350,-89.287291353881,4,1,0,90,0,0
238435,-89.019987672801,4,1,0,90,0,0
238519,-88.757396449704,4,1,0,90,0,0
238603,-88.496349853819,4,1,0,90,0,0
238688,-88.233753992774,4,1,0,90,0,0
238772,-87.975774030178,4,1,0,90,0,0
238856,-87.719298245614,4,1,0,90,0,0
238940,-87.464313521931,4,1,0,90,0,0
239025,-87.207797809023,4,1,0,90,0,0
239109,-86.955773828978,4,1,0,90,0,0
239193,-86.705202312139,4,1,0,90,0,0
239277,-86.45607073834,4,1,0,90,0,0
239362,-86.205426422688,4,1,0,90,0,0
239446,-85.959154522421,4,1,0,90,0,0
239530,-85.714285714286,4,1,0,90,0,0
239615,-85.467917829064,4,1,0,90,0,0
239699,-85.225835820141,4,1,0,90,0,0
239783,-84.985121299238,4,1,0,90,0,0
239867,-84.745762711864,4,1,0,90,0,0
240457,-83.333333333333,4,1,0,90,0,0
240541,-83.333333333333,4,1,0,90,0,1
240626,-90.909090909091,4,1,0,90,0,1
251581,-83.333333333333,4,1,0,90,0,1
251749,-90.909090909091,4,1,0,90,0,1
262030,-100,4,1,0,75,0,1
262114,-100,4,1,0,75,0,0
267487,-100,4,1,0,75,0,0
267655,-99.196420687016,4,1,0,75,0,0
267740,-98.794748047741,4,1,0,75,0,0
267824,-98.40098400984,4,1,0,76,0,0
267908,-98.010346344425,4,1,0,76,0,0
267992,-97.622797964985,4,1,0,76,0,0
268077,-97.233743282721,4,1,0,76,0,0
268161,-96.852300242131,4,1,0,76,0,0
268245,-96.473838270341,4,1,0,76,0,0
268329,-96.098322556729,4,1,0,77,0,0
268414,-95.721300474701,4,1,0,77,0,0
268498,-95.351609058403,4,1,0,77,0,0
268582,-94.984762273856,4,1,0,77,0,0
268666,-94.61641047238,4,1,0,77,0,0
268751,-94.255188230687,4,1,0,77,0,0
268835,-93.896713615023,4,1,0,78,0,0
268919,-93.540955394565,4,1,0,78,0,0
269004,-93.183695618362,4,1,0,78,0,0
269088,-92.833309803625,4,1,0,78,0,0
269172,-92.485549132948,4,1,0,78,0,0
269256,-92.140384214466,4,1,0,78,0,0
269341,-91.793722889187,4,1,0,78,0,0
269425,-91.453693087376,4,1,0,79,0,0
269509,-91.116173120729,4,1,0,79,0,0
269593,-90.777161597489,4,1,0,79,0,0
269678,-90.444607709933,4,1,0,79,0,0
269762,-90.114481490766,4,1,0,79,0,0
269846,-89.786756453423,4,1,0,79,0,0
269931,-89.457547482845,4,1,0,80,0,0
270015,-89.134574693187,4,1,0,80,0,0
270183,-88.495575221239,4,1,0,80,0,0
272480,-100,4,1,0,75,0,0
272817,-117.647058823529,4,1,0,40,0,0
285036,-114.942528735632,4,1,0,43,0,0
295738,-111.111111111111,4,1,0,60,0,0
301195,-111.111111111111,4,1,0,60,0,0
301363,-109.968999836841,4,1,0,61,0,0
301447,-109.406704001299,4,1,0,61,0,0
301532,-108.843537414966,4,1,0,61,0,0
301616,-108.292663332731,4,1,0,62,0,0
301700,-107.747337289931,4,1,0,62,0,0
301784,-107.201081553939,4,1,0,62,0,0
301869,-106.666666666667,4,1,0,63,0,0
301953,-106.13755363962,4,1,0,63,0,0
302037,-105.613663963646,4,1,0,63,0,0
302122,-105.088775848292,4,1,0,63,0,0
302206,-104.575163398693,4,1,0,64,0,0
302374,-103.562854124652,4,1,0,64,0,0
302459,-103.058103975535,4,1,0,65,0,0
302543,-102.564102564103,4,1,0,65,0,0
302711,-101.584430754159,4,1,0,66,0,0
302796,-101.10442331852,4,1,0,66,0,0
302880,-100.62893081761,4,1,0,66,0,0
302964,-100.157889848611,4,1,0,67,0,0
303049,-99.685709003513,4,1,0,67,0,0
303133,-99.22343675242,4,1,0,67,0,0
303217,-98.765432098765,4,1,0,68,0,0
303301,-98.311636217773,4,1,0,68,0,0
303386,-97.856663218453,4,1,0,68,0,0
303470,-97.411161093346,4,1,0,68,0,0
303554,-96.969696969697,4,1,0,69,0,0
303723,-96.093527231252,4,1,0,69,0,0
303891,-95.238095238095,4,1,0,70,0,0
304228,-105.263157894737,4,1,0,70,0,0
304397,-104.086268110349,4,1,0,71,0,0
304565,-102.94213866655,4,1,0,73,0,0
304734,-101.816299236378,4,1,0,74,0,0
304818,-101.26582278481,4,1,0,75,0,0
304902,-100.714819161421,4,1,0,76,0,0
305071,-99.643226582786,4,1,0,77,0,0
305240,-98.58801904921,4,1,0,79,0,0
305324,-98.071808510638,4,1,0,79,0,0
305408,-97.560975609756,4,1,0,80,0,0
305492,-97.055436749465,4,1,0,81,0,0
305577,-96.549184854869,4,1,0,81,0,0
305661,-96.054050753984,4,1,0,82,0,0
305745,-95.563969144176,4,1,0,83,0,0
305914,-94.592969658103,4,1,0,84,0,0
306082,-93.647077496925,4,1,0,86,0,0
306251,-92.714451275806,4,1,0,87,0,0
306419,-91.805574465602,4,1,0,89,0,0
306588,-90.909090909091,4,1,0,90,0,0
306609,-90.909090909091,4,1,0,90,0,1
316700,-90.909090909091,4,1,0,90,0,1
316869,-92.310498951017,4,1,0,90,0,1
316953,-93.023255813953,4,1,0,90,0,1
317037,-93.747105141269,4,1,0,90,0,1
317206,-95.238095238095,4,1,0,90,0,1
317395,-90.909090909091,4,1,0,90,0,1
328182,-90.909090909091,4,1,0,90,0,0
328498,-105.263157894737,4,1,0,60,0,0
328666,-105.717767186464,4,1,0,60,0,0
329004,-106.644399379697,4,1,0,59,0,0
329172,-107.111043970641,4,1,0,58,0,0
329509,-108.059532067856,4,1,0,57,0,0
329678,-108.541535797803,4,1,0,57,0,0
330015,-109.515642809208,4,1,0,56,0,0
330183,-110.007811078892,4,1,0,55,0,0
330352,-110.507392418941,4,1,0,55,0,0
330520,-111.008535380529,4,1,0,54,0,0
330858,-112.030685576363,4,1,0,53,0,0
331026,-112.54577200751,4,1,0,53,0,0
331195,-113.068725461084,4,1,0,52,0,0
331363,-113.593423713083,4,1,0,52,0,0
331700,-114.660763178292,4,1,0,51,0,0
331869,-115.203603684364,4,1,0,50,0,0
332037,-115.748350633852,4,1,0,50,0,0
332206,-116.301562791645,4,1,0,49,0,0
332374,-116.856767769765,4,1,0,49,0,0
332711,-117.986618772737,4,1,0,48,0,0
332880,-118.561486256624,4,1,0,47,0,0
333049,-119.141983034348,4,1,0,47,0,0
333217,-119.724706539966,4,1,0,46,0,0
333554,-120.91097795471,4,1,0,45,0,0
333723,-121.514768281584,4,1,0,45,0,0
333891,-122.120992552294,4,1,0,44,0,0
334060,-122.736958974267,4,1,0,44,0,0
334397,-123.983984949712,4,1,0,43,0,0
334565,-124.615160844586,4,1,0,42,0,0
334734,-125.256610968634,4,1,0,42,0,0
334902,-125.900844359811,4,1,0,41,0,0
335071,-126.555633516747,4,1,0,41,0,0
335408,-127.881882467084,4,1,0,40,0,0
335577,-128.557495123293,4,1,0,39,0,0
335745,-129.236222847949,4,1,0,39,0,0
335914,-129.926260117908,4,1,0,38,0,0
336251,-131.32448554677,4,1,0,37,0,0
336419,-132.032825201947,4,1,0,37,0,0
336588,-132.753132888714,4,1,0,36,0,0
336756,-133.477010561575,4,1,0,36,0,0
337093,-134.953138536662,4,1,0,35,0,0
337262,-135.705753073872,4,1,0,34,0,0
337431,-136.466809137608,4,1,0,34,0,0
337599,-137.231869936063,4,1,0,33,0,0
337768,-138.010188671647,4,1,0,33,0,0
338105,-139.588877423559,4,1,0,32,0,0
338273,-140.389447236181,4,1,0,31,0,0
338442,-141.204101113179,4,1,0,31,0,0
338610,-142.023359741399,4,1,0,30,0,0
338779,-142.857142857143,4,1,0,30,0,0

[HitObjects]
256,192,542,12,0,1721,0:0:0:0:
256,192,1891,5,12,0:0:0:0:
272,192,2143,1,0,0:0:0:0:
256,192,2228,1,8,0:0:0:0:
256,192,2396,1,0,0:0:0:0:
256,192,2565,1,8,0:0:0:0:
256,192,2817,1,0,0:0:0:0:
256,192,2901,1,8,0:0:0:0:
256,192,3070,1,0,0:0:0:0:
256,192,3238,1,8,0:0:0:0:
256,192,3491,1,8,0:0:0:0:
256,192,3575,1,8,0:0:0:0:
256,192,3744,1,0,0:0:0:0:
256,192,3912,1,8,0:0:0:0:
256,192,4165,1,0,0:0:0:0:
256,192,4249,1,8,0:0:0:0:
256,192,4418,1,0,0:0:0:0:
272,192,4586,1,8,0:0:0:0:
272,192,4755,1,0,0:0:0:0:
272,192,4839,1,0,0:0:0:0:
272,192,4924,1,8,0:0:0:0:
272,192,5092,1,0,0:0:0:0:
272,192,5261,1,8,0:0:0:0:
272,192,5513,1,0,0:0:0:0:
272,192,5598,1,8,0:0:0:0:
256,192,5766,1,0,0:0:0:0:
272,192,5935,1,8,0:0:0:0:
272,192,6019,1,0,0:0:0:0:
272,192,6188,1,8,0:0:0:0:
256,192,6272,1,8,0:0:0:0:
256,192,6440,1,0,0:0:0:0:
256,192,6609,1,8,0:0:0:0:
256,192,6862,1,0,0:0:0:0:
256,192,6946,1,8,0:0:0:0:
272,192,7115,1,0,0:0:0:0:
256,192,7283,1,8,0:0:0:0:
256,192,7452,1,0,0:0:0:0:
256,192,7536,1,0,0:0:0:0:
256,192,7620,1,8,0:0:0:0:
256,192,7789,1,0,0:0:0:0:
256,192,7957,1,8,0:0:0:0:
256,192,8210,1,0,0:0:0:0:
256,192,8294,1,8,0:0:0:0:
256,192,8463,1,0,0:0:0:0:
256,192,8631,1,8,0:0:0:0:
256,192,8716,1,0,0:0:0:0:
256,192,8884,1,8,0:0:0:0:
256,192,8968,1,8,0:0:0:0:
256,192,9137,1,0,0:0:0:0:
256,192,9306,1,8,0:0:0:0:
256,192,9390,1,0,0:0:0:0:
256,208,9558,1,0,0:0:0:0:
256,192,9643,1,8,0:0:0:0:
256,192,9811,1,0,0:0:0:0:
256,192,9980,1,8,0:0:0:0:
256,192,10148,1,0,0:0:0:0:
256,192,10233,1,0,0:0:0:0:
256,192,10317,1,8,0:0:0:0:
256,192,10485,1,0,0:0:0:0:
256,192,10654,1,8,0:0:0:0:
256,192,10907,1,0,0:0:0:0:
256,192,10991,1,8,0:0:0:0:
256,192,11159,1,0,0:0:0:0:
256,192,11328,1,8,0:0:0:0:
256,192,11412,1,0,0:0:0:0:
256,192,11581,1,8,0:0:0:0:
256,192,11665,1,8,0:0:0:0:
256,192,11749,1,0,0:0:0:0:
256,192,11834,1,0,0:0:0:0:
256,192,12002,1,8,0:0:0:0:
256,192,12171,1,0,0:0:0:0:
256,192,12255,1,0,0:0:0:0:
256,192,12339,1,8,0:0:0:0:
256,192,12508,1,0,0:0:0:0:
256,192,12676,1,12,0:0:0:0:
272,192,12929,1,0,0:0:0:0:
272,192,13013,1,8,0:0:0:0:
256,192,13182,1,0,0:0:0:0:
256,192,13350,1,8,0:0:0:0:
256,192,13435,1,0,0:0:0:0:
256,192,13603,1,0,0:0:0:0:
256,192,13688,1,8,0:0:0:0:
256,192,13856,1,0,0:0:0:0:
256,192,14025,1,8,0:0:0:0:
256,192,14193,1,0,0:0:0:0:
256,192,14277,1,0,0:0:0:0:
256,192,14362,1,8,0:0:0:0:
256,192,14530,1,0,0:0:0:0:
256,192,14699,1,8,0:0:0:0:
256,192,14783,1,0,0:0:0:0:
256,192,14952,1,0,0:0:0:0:
256,192,15036,1,8,0:0:0:0:
256,192,15120,1,8,0:0:0:0:
256,192,15204,1,0,0:0:0:0:
256,192,15373,1,8,0:0:0:0:
256,192,15541,1,0,0:0:0:0:
256,192,15626,1,0,0:0:0:0:
256,192,15710,1,8,0:0:0:0:
256,192,15879,1,0,0:0:0:0:
256,192,16047,1,8,0:0:0:0:
256,192,16131,1,0,0:0:0:0:
256,192,16300,1,8,0:0:0:0:
272,192,16384,1,8,0:0:0:0:
272,192,16553,1,0,0:0:0:0:
272,192,16721,1,8,0:0:0:0:
272,192,16890,1,0,0:0:0:0:
272,192,16974,1,8,0:0:0:0:
272,192,17058,1,8,0:0:0:0:
272,192,17227,1,0,0:0:0:0:
272,192,17395,1,8,0:0:0:0:
272,192,17480,1,0,0:0:0:0:
272,192,17648,1,0,0:0:0:0:
272,192,17733,1,8,0:0:0:0:
272,192,17817,1,8,0:0:0:0:
272,192,17901,1,0,0:0:0:0:
272,192,18070,1,8,0:0:0:0:
272,192,18238,1,0,0:0:0:0:
272,192,18322,1,0,0:0:0:0:
272,192,18407,1,8,0:0:0:0:
272,192,18575,1,0,0:0:0:0:
272,192,18744,1,8,0:0:0:0:
272,192,18828,1,0,0:0:0:0:
272,192,18997,1,0,0:0:0:0:
272,192,19081,1,8,0:0:0:0:
272,192,19249,1,0,0:0:0:0:
272,192,19418,1,8,0:0:0:0:
272,192,19502,1,8,0:0:0:0:
256,192,19671,1,0,0:0:0:0:
256,192,19755,1,8,0:0:0:0:
272,192,19839,1,8,0:0:0:0:
256,192,19924,1,0,0:0:0:0:
256,192,20092,1,8,0:0:0:0:
256,192,20176,1,0,0:0:0:0:
272,192,20261,1,0,0:0:0:0:
240,208,20345,1,0,0:0:0:0:
256,192,20429,1,8,0:0:0:0:
256,192,20513,1,8,0:0:0:0:
256,192,20598,1,0,0:0:0:0:
256,192,20766,1,12,0:0:0:0:
256,192,20935,12,0,22957,0:0:0:0:
256,192,23126,5,8,0:0:0:0:
256,192,23210,1,0,0:0:0:0:
256,192,23294,1,8,0:0:0:0:
256,192,23463,1,4,0:0:0:0:
256,192,23631,1,0,0:0:0:0:
256,192,23716,1,0,0:0:0:0:
256,192,23800,1,8,0:0:0:0:
256,192,23968,1,0,0:0:0:0:
256,192,24137,1,8,0:0:0:0:
256,192,24221,1,0,0:0:0:0:
256,192,24306,1,8,0:0:0:0:
256,192,24390,1,8,0:0:0:0:
256,192,24474,1,0,0:0:0:0:
256,192,24643,1,0,0:0:0:0:
256,192,24811,1,8,0:0:0:0:
256,192,24980,1,0,0:0:0:0:
256,192,25064,1,0,0:0:0:0:
256,192,25148,1,0,0:0:0:0:
272,192,25317,1,8,0:0:0:0:
256,192,25401,1,8,0:0:0:0:
256,192,25485,1,8,0:0:0:0:
256,192,25654,1,0,0:0:0:0:
256,192,25738,1,0,0:0:0:0:
256,192,25822,1,8,0:0:0:0:
256,192,25907,1,8,0:0:0:0:
256,192,25991,1,0,0:0:0:0:
256,192,26159,1,0,0:0:0:0:
256,192,26328,1,8,0:0:0:0:
256,192,26412,1,0,0:0:0:0:
256,192,26497,1,8,0:0:0:0:
256,192,26665,1,0,0:0:0:0:
256,192,26834,1,0,0:0:0:0:
256,192,26918,1,0,0:0:0:0:
256,192,27002,1,8,0:0:0:0:
256,192,27086,1,8,0:0:0:0:
256,192,27171,1,0,0:0:0:0:
256,192,27339,1,0,0:0:0:0:
256,192,27508,1,8,0:0:0:0:
256,192,27592,1,0,0:0:0:0:
256,192,27676,1,0,0:0:0:0:
256,192,27845,1,0,0:0:0:0:
256,192,28013,1,8,0:0:0:0:
256,192,28098,1,8,0:0:0:0:
256,192,28182,1,8,0:0:0:0:
256,192,28350,1,8,0:0:0:0:
256,192,28435,1,0,0:0:0:0:
256,192,28519,1,8,0:0:0:0:
256,192,28603,1,8,0:0:0:0:
256,192,28688,1,0,0:0:0:0:
256,192,28856,1,0,0:0:0:0:
256,192,29025,1,0,0:0:0:0:
256,192,29109,1,0,0:0:0:0:
256,192,29193,1,8,0:0:0:0:
256,192,29362,1,0,0:0:0:0:
256,192,29530,1,8,0:0:0:0:
256,192,29615,1,0,0:0:0:0:
256,192,29699,1,8,0:0:0:0:
256,192,29783,1,8,0:0:0:0:
256,192,29867,1,0,0:0:0:0:
256,192,30036,1,0,0:0:0:0:
256,192,30204,1,8,0:0:0:0:
256,192,30373,1,0,0:0:0:0:
256,192,30457,1,8,0:0:0:0:
256,192,30541,1,0,0:0:0:0:
256,192,30710,1,8,0:0:0:0:
256,192,30794,1,0,0:0:0:0:
256,192,30879,1,0,0:0:0:0:
256,192,31047,1,8,0:0:0:0:
256,192,31131,1,8,0:0:0:0:
256,192,31216,1,0,0:0:0:0:
256,192,31300,1,8,0:0:0:0:
256,192,31384,1,0,0:0:0:0:
256,192,31553,1,0,0:0:0:0:
256,192,31721,1,8,0:0:0:0:
256,192,31806,1,0,0:0:0:0:
256,192,31890,1,8,0:0:0:0:
256,192,32058,1,0,0:0:0:0:
256,192,32227,1,8,0:0:0:0:
256,192,32311,1,8,0:0:0:0:
256,192,32395,1,8,0:0:0:0:
256,192,32564,1,0,0:0:0:0:
256,192,32733,1,8,0:0:0:0:
256,192,32817,1,0,0:0:0:0:
256,192,32901,1,8,0:0:0:0:
256,192,32985,1,8,0:0:0:0:
256,192,33070,1,0,0:0:0:0:
256,192,33238,1,0,0:0:0:0:
256,192,33322,1,0,0:0:0:0:
256,192,33407,1,8,0:0:0:0:
299,163,33491,1,8,0:0:0:0:
256,192,33575,1,0,0:0:0:0:
240,176,33744,1,8,0:0:0:0:
256,192,33828,1,0,0:0:0:0:
256,192,33912,1,8,0:0:0:0:
256,192,34081,1,8,0:0:0:0:
256,192,34249,1,4,0:0:0:0:
256,192,34417,1,0,0:0:0:0:
256,192,34502,1,0,0:0:0:0:
256,192,34586,1,8,0:0:0:0:
256,192,34754,1,0,0:0:0:0:
256,192,34924,1,8,0:0:0:0:
256,192,35008,1,0,0:0:0:0:
256,192,35092,1,8,0:0:0:0:
256,192,35176,1,8,0:0:0:0:
256,192,35260,1,0,0:0:0:0:
256,192,35429,1,0,0:0:0:0:
256,192,35597,1,8,0:0:0:0:
256,192,35766,1,0,0:0:0:0:
256,192,35850,1,8,0:0:0:0:
256,192,35934,1,0,0:0:0:0:
272,192,36103,1,8,0:0:0:0:
272,192,36188,1,8,0:0:0:0:
256,192,36271,1,0,0:0:0:0:
256,192,36440,1,0,0:0:0:0:
256,192,36524,1,0,0:0:0:0:
256,192,36608,1,8,0:0:0:0:
256,192,36693,1,8,0:0:0:0:
256,192,36777,1,8,0:0:0:0:
256,192,36945,1,0,0:0:0:0:
256,192,37114,1,8,0:0:0:0:
256,192,37198,1,0,0:0:0:0:
256,192,37283,1,8,0:0:0:0:
256,192,37451,1,0,0:0:0:0:
256,192,37620,1,0,0:0:0:0:
256,192,37704,1,0,0:0:0:0:
256,192,37788,1,8,0:0:0:0:
256,192,37872,1,8,0:0:0:0:
256,192,37957,1,0,0:0:0:0:
256,192,38125,1,0,0:0:0:0:
256,192,38294,1,8,0:0:0:0:
256,192,38379,1,8,0:0:0:0:
256,192,38462,1,0,0:0:0:0:
256,192,38631,1,0,0:0:0:0:
256,192,38799,1,8,0:0:0:0:
256,192,38884,1,0,0:0:0:0:
256,192,38968,1,8,0:0:0:0:
256,192,39136,1,8,0:0:0:0:
256,192,39221,1,8,0:0:0:0:
256,192,39305,1,0,0:0:0:0:
256,192,39389,1,8,0:0:0:0:
256,192,39474,1,0,0:0:0:0:
256,192,39642,1,0,0:0:0:0:
256,192,39811,1,0,0:0:0:0:
256,192,39895,1,0,0:0:0:0:
256,192,39979,1,8,0:0:0:0:
256,192,40148,1,0,0:0:0:0:
256,192,40316,1,8,0:0:0:0:
256,192,40401,1,0,0:0:0:0:
256,192,40485,1,8,0:0:0:0:
256,192,40569,1,8,0:0:0:0:
256,192,40653,1,0,0:0:0:0:
256,192,40822,1,0,0:0:0:0:
256,192,40990,1,8,0:0:0:0:
256,192,41159,1,0,0:0:0:0:
256,192,41243,1,8,0:0:0:0:
256,192,41327,1,0,0:0:0:0:
256,192,41496,1,8,0:0:0:0:
256,192,41665,1,0,0:0:0:0:
256,192,41749,1,0,0:0:0:0:
256,192,41833,1,8,0:0:0:0:
256,192,41917,1,0,0:0:0:0:
256,192,42002,1,8,0:0:0:0:
256,192,42086,1,8,0:0:0:0:
256,192,42170,1,0,0:0:0:0:
256,192,42339,1,12,0:0:0:0:
256,192,42507,12,0,43350,0:0:0:0:
240,192,43856,5,0,0:0:0:0:
256,192,44025,1,0,0:0:0:0:
256,192,44193,1,8,0:0:0:0:
256,192,44362,1,4,0:0:0:0:
256,192,45036,1,4,0:0:0:0:
256,192,45541,1,0,0:0:0:0:
256,192,46047,1,0,0:0:0:0:
256,192,46553,1,8,0:0:0:0:
256,192,47058,1,0,0:0:0:0:
256,192,47733,1,0,0:0:0:0:
256,192,48238,1,8,0:0:0:0:
256,192,48744,1,0,0:0:0:0:
256,192,49249,1,0,0:0:0:0:
256,192,49755,1,8,0:0:0:0:
256,192,50429,1,0,0:0:0:0:
256,192,50935,1,8,0:0:0:0:
256,192,51440,1,0,0:0:0:0:
256,192,51946,1,8,0:0:0:0:
256,192,52452,1,8,0:0:0:0:
272,192,53126,1,0,0:0:0:0:
272,192,53631,1,8,0:0:0:0:
272,192,54137,1,0,0:0:0:0:
272,192,54643,1,8,0:0:0:0:
272,192,55148,1,8,0:0:0:0:
256,192,55485,1,0,0:0:0:0:
256,192,55822,1,4,0:0:0:0:
256,192,56327,1,0,0:0:0:0:
256,192,56833,1,0,0:0:0:0:
256,192,57002,1,8,0:0:0:0:
256,192,57508,1,0,0:0:0:0:
256,192,57676,1,8,0:0:0:0:
256,192,58013,1,8,0:0:0:0:
256,192,58350,1,8,0:0:0:0:
256,192,58519,1,0,0:0:0:0:
256,192,59024,1,8,0:0:0:0:
256,192,59530,1,0,0:0:0:0:
256,192,59699,1,8,0:0:0:0:
256,192,59867,1,0,0:0:0:0:
256,192,60204,1,8,0:0:0:0:
256,192,60373,1,0,0:0:0:0:
256,192,60710,1,8,0:0:0:0:
256,192,61047,1,8,0:0:0:0:
256,192,61215,1,0,0:0:0:0:
256,192,61721,1,8,0:0:0:0:
256,192,62226,1,0,0:0:0:0:
256,192,62395,1,8,0:0:0:0:
256,192,62564,1,0,0:0:0:0:
256,192,62901,1,8,0:0:0:0:
256,192,63070,1,0,0:0:0:0:
256,192,63407,1,0,0:0:0:0:
256,192,63744,1,8,0:0:0:0:
272,192,63912,1,0,0:0:0:0:
272,192,64417,1,8,0:0:0:0:
272,192,64923,1,0,0:0:0:0:
272,192,65429,1,8,0:0:0:0:
272,192,65766,1,0,0:0:0:0:
272,192,65934,1,8,0:0:0:0:
256,192,66271,1,0,0:0:0:0:
256,192,66609,1,4,0:0:0:0:
256,192,67115,1,0,0:0:0:0:
256,192,67283,1,8,0:0:0:0:
256,192,67620,1,4,0:0:0:0:
256,192,68126,1,8,0:0:0:0:
256,192,68463,1,0,0:0:0:0:
256,192,68631,1,8,0:0:0:0:
256,192,68800,1,8,0:0:0:0:
256,192,69137,1,8,0:0:0:0:
256,192,69306,1,0,0:0:0:0:
256,192,69558,1,0,0:0:0:0:
256,192,69811,1,0,0:0:0:0:
256,192,69980,1,8,0:0:0:0:
256,192,70317,1,4,0:0:0:0:
256,192,70654,1,0,0:0:0:0:
256,192,70822,1,8,0:0:0:0:
256,192,70907,1,8,0:0:0:0:
256,192,71159,1,0,0:0:0:0:
256,192,71243,1,0,0:0:0:0:
256,192,71327,1,8,0:0:0:0:
354,210,71497,1,0,0:0:0:0:
256,192,71581,1,8,0:0:0:0:
272,192,71834,1,8,0:0:0:0:
256,192,72002,1,4,0:0:0:0:
272,192,72339,1,0,0:0:0:0:
272,192,72508,1,8,0:0:0:0:
272,192,72676,1,0,0:0:0:0:
272,192,72761,1,8,0:0:0:0:
256,192,72929,1,8,0:0:0:0:
256,192,73013,1,0,0:0:0:0:
256,192,73182,1,8,0:0:0:0:
256,192,73350,1,0,0:0:0:0:
256,192,73435,1,8,0:0:0:0:
272,192,73603,1,8,0:0:0:0:
272,192,73688,1,0,0:0:0:0:
256,192,73772,1,0,0:0:0:0:
272,192,73856,1,8,0:0:0:0:
272,192,74025,1,0,0:0:0:0:
272,192,74109,1,8,0:0:0:0:
256,192,74277,1,0,0:0:0:0:
272,192,74362,1,8,0:0:0:0:
272,192,74446,1,0,0:0:0:0:
272,192,74530,1,8,0:0:0:0:
272,192,74615,1,8,0:0:0:0:
272,192,74699,1,0,0:0:0:0:
256,192,74783,1,0,0:0:0:0:
256,192,74952,1,8,0:0:0:0:
256,192,75036,1,8,0:0:0:0:
256,192,75204,1,0,0:0:0:0:
256,192,75288,1,8,0:0:0:0:
256,192,75457,1,0,0:0:0:0:
256,192,75541,1,8,0:0:0:0:
256,192,75626,1,0,0:0:0:0:
256,192,75710,1,8,0:0:0:0:
256,192,75879,1,0,0:0:0:0:
256,192,75963,1,0,0:0:0:0:
256,192,76047,1,8,0:0:0:0:
256,192,76131,1,0,0:0:0:0:
256,192,76216,1,8,0:0:0:0:
256,192,76300,1,8,0:0:0:0:
256,192,76384,1,0,0:0:0:0:
256,192,76468,1,0,0:0:0:0:
256,192,76553,1,8,0:0:0:0:
256,192,76637,1,0,0:0:0:0:
256,192,76721,1,8,0:0:0:0:
256,192,76806,1,0,0:0:0:0:
256,192,76890,1,0,0:0:0:0:
256,192,76974,1,0,0:0:0:0:
256,192,77058,1,8,0:0:0:0:
256,192,77143,1,8,0:0:0:0:
256,192,77227,1,8,0:0:0:0:
256,192,77395,1,4,0:0:0:0:
256,192,77648,1,8,0:0:0:0:
256,192,77732,1,0,0:0:0:0:
256,192,77901,1,8,0:0:0:0:
256,192,78069,1,0,0:0:0:0:
256,192,78154,1,0,0:0:0:0:
256,192,78322,1,8,0:0:0:0:
256,192,78407,1,0,0:0:0:0:
256,192,78575,1,8,0:0:0:0:
256,192,78743,1,0,0:0:0:0:
353,170,78912,1,8,0:0:0:0:
256,192,78996,1,8,0:0:0:0:
256,192,79080,1,0,0:0:0:0:
256,192,79249,1,8,0:0:0:0:
256,192,79418,1,0,0:0:0:0:
256,192,79502,1,8,0:0:0:0:
256,192,79670,1,8,0:0:0:0:
256,192,79755,1,0,0:0:0:0:
256,192,79923,1,8,0:0:0:0:
256,192,80092,1,0,0:0:0:0:
256,192,80260,1,0,0:0:0:0:
256,192,80345,1,8,0:0:0:0:
256,192,80429,1,0,0:0:0:0:
256,192,80597,1,8,0:0:0:0:
256,192,80766,1,0,0:0:0:0:
256,192,80850,1,0,0:0:0:0:
256,192,81019,1,8,0:0:0:0:
256,192,81103,1,0,0:0:0:0:
256,192,81271,1,8,0:0:0:0:
256,192,81440,1,0,0:0:0:0:
256,192,81609,1,8,0:0:0:0:
256,192,81693,1,8,0:0:0:0:
256,192,81777,1,0,0:0:0:0:
256,192,81946,1,8,0:0:0:0:
256,192,82114,1,8,0:0:0:0:
256,192,82198,1,8,0:0:0:0:
256,192,82283,1,0,0:0:0:0:
256,192,82367,1,0,0:0:0:0:
256,192,82451,1,8,0:0:0:0:
256,192,82620,1,8,0:0:0:0:
256,192,82788,1,0,0:0:0:0:
256,192,83041,1,8,0:0:0:0:
256,192,83125,1,0,0:0:0:0:
256,192,83294,1,8,0:0:0:0:
256,192,83462,1,0,0:0:0:0:
256,192,83547,1,0,0:0:0:0:
256,192,83715,1,8,0:0:0:0:
256,192,83800,1,0,0:0:0:0:
256,192,83968,1,8,0:0:0:0:
256,192,84137,1,0,0:0:0:0:
256,192,84306,1,8,0:0:0:0:
256,192,84389,1,8,0:0:0:0:
256,192,84474,1,0,0:0:0:0:
256,192,84642,1,8,0:0:0:0:
256,192,84811,1,0,0:0:0:0:
256,192,84895,1,8,0:0:0:0:
256,192,85064,1,8,0:0:0:0:
256,192,85148,1,0,0:0:0:0:
256,192,85233,1,0,0:0:0:0:
256,192,85316,1,8,0:0:0:0:
256,192,85485,1,0,0:0:0:0:
256,192,85653,1,0,0:0:0:0:
256,192,85738,1,8,0:0:0:0:
256,192,85822,1,0,0:0:0:0:
256,192,85990,1,8,0:0:0:0:
256,192,86159,1,0,0:0:0:0:
256,192,86244,1,0,0:0:0:0:
256,192,86412,1,8,0:0:0:0:
256,192,86496,1,0,0:0:0:0:
256,192,86581,1,0,0:0:0:0:
256,192,86664,1,8,0:0:0:0:
256,192,86833,1,0,0:0:0:0:
256,192,86918,1,0,0:0:0:0:
256,192,87002,1,8,0:0:0:0:
256,192,87086,1,8,0:0:0:0:
256,192,87170,1,0,0:0:0:0:
256,192,87339,1,8,0:0:0:0:
256,192,87507,1,0,0:0:0:0:
256,192,87676,1,0,0:0:0:0:
205,187,87761,1,0,0:0:0:0:
256,192,87844,1,8,0:0:0:0:
256,192,88013,1,0,0:0:0:0:
256,192,88182,1,12,0:0:0:0:
256,192,88435,1,8,0:0:0:0:
256,192,88519,1,0,0:0:0:0:
256,192,88687,1,8,0:0:0:0:
256,192,88856,1,0,0:0:0:0:
256,192,88940,1,0,0:0:0:0:
256,192,89109,1,8,0:0:0:0:
256,192,89193,1,0,0:0:0:0:
256,192,89361,1,8,0:0:0:0:
256,192,89530,1,0,0:0:0:0:
256,192,89699,1,8,0:0:0:0:
256,192,89783,1,8,0:0:0:0:
256,192,89867,1,0,0:0:0:0:
256,192,90036,1,8,0:0:0:0:
256,192,90204,1,0,0:0:0:0:
256,192,90288,1,8,0:0:0:0:
256,192,90457,1,8,0:0:0:0:
256,192,90541,1,0,0:0:0:0:
256,192,90626,1,0,0:0:0:0:
256,192,90710,1,8,0:0:0:0:
256,192,90794,1,8,0:0:0:0:
256,192,90878,1,0,0:0:0:0:
256,192,91047,1,0,0:0:0:0:
256,192,91131,1,8,0:0:0:0:
256,192,91215,1,0,0:0:0:0:
256,192,91384,1,8,0:0:0:0:
256,192,91552,1,0,0:0:0:0:
256,192,91637,1,0,0:0:0:0:
256,192,91805,1,8,0:0:0:0:
256,192,91889,1,0,0:0:0:0:
272,192,91974,1,0,0:0:0:0:
256,192,92058,1,8,0:0:0:0:
272,192,92143,1,0,0:0:0:0:
256,192,92227,1,8,0:0:0:0:
256,192,92395,1,0,0:0:0:0:
256,192,92479,1,8,0:0:0:0:
256,192,92564,1,0,0:0:0:0:
256,192,92732,1,8,0:0:0:0:
240,192,92817,1,0,0:0:0:0:
256,192,92901,1,8,0:0:0:0:
256,192,92985,1,8,0:0:0:0:
256,192,93069,1,0,0:0:0:0:
256,192,93154,1,8,0:0:0:0:
272,192,93238,1,0,0:0:0:0:
272,192,93406,1,8,0:0:0:0:
256,192,93575,1,4,0:0:0:0:
240,192,93744,1,0,0:0:0:0:
256,192,93828,1,0,0:0:0:0:
272,192,93912,1,8,0:0:0:0:
272,192,94081,1,0,0:0:0:0:
256,192,94249,1,8,0:0:0:0:
256,192,94334,1,8,0:0:0:0:
256,192,94418,1,0,0:0:0:0:
256,192,94502,1,8,0:0:0:0:
256,192,94586,1,0,0:0:0:0:
256,192,94755,1,8,0:0:0:0:
256,192,94924,1,4,0:0:0:0:
256,192,95092,1,0,0:0:0:0:
256,192,95176,1,0,0:0:0:0:
256,192,95261,1,8,0:0:0:0:
256,192,95429,1,8,0:0:0:0:
256,192,95513,1,0,0:0:0:0:
256,192,95598,1,8,0:0:0:0:
256,192,95682,1,8,0:0:0:0:
256,192,95766,1,0,0:0:0:0:
256,192,95850,1,8,0:0:0:0:
256,192,95935,1,0,0:0:0:0:
256,192,96103,1,8,0:0:0:0:
256,192,96188,1,0,0:0:0:0:
256,192,96272,1,8,0:0:0:0:
256,192,96356,1,8,0:0:0:0:
272,192,96440,1,0,0:0:0:0:
272,192,96525,1,8,0:0:0:0:
272,192,96609,1,0,0:0:0:0:
272,192,96693,1,0,0:0:0:0:
272,192,96777,1,8,0:0:0:0:
272,192,96862,1,0,0:0:0:0:
272,192,96946,1,8,0:0:0:0:
272,192,97030,1,8,0:0:0:0:
272,192,97114,1,8,0:0:0:0:
272,192,97199,1,8,0:0:0:0:
272,208,97283,1,0,0:0:0:0:
272,208,97367,1,0,0:0:0:0:
272,208,97452,1,8,0:0:0:0:
288,192,97536,1,0,0:0:0:0:
256,192,97620,1,8,0:0:0:0:
256,192,97704,1,8,0:0:0:0:
256,192,97789,1,8,0:0:0:0:
256,192,97873,1,8,0:0:0:0:
256,192,97957,1,0,0:0:0:0:
256,192,98041,1,0,0:0:0:0:
256,192,98126,1,0,0:0:0:0:
256,192,98294,1,12,0:0:0:0:
256,192,98631,1,0,0:0:0:0:
256,192,98968,1,12,0:0:0:0:
256,192,99221,1,0,0:0:0:0:
256,192,99306,1,8,0:0:0:0:
256,192,99474,1,8,0:0:0:0:
256,192,99558,1,8,0:0:0:0:
256,192,99643,1,0,0:0:0:0:
256,192,99811,1,0,0:0:0:0:
196,202,99895,1,0,0:0:0:0:
256,192,99980,1,8,0:0:0:0:
256,192,100064,1,0,0:0:0:0:
256,192,100148,1,8,0:0:0:0:
256,192,100233,1,8,0:0:0:0:
256,192,100317,1,0,0:0:0:0:
256,192,100485,1,0,0:0:0:0:
256,192,100570,1,0,0:0:0:0:
256,192,100654,1,8,0:0:0:0:
256,192,100822,1,0,0:0:0:0:
256,192,100991,1,8,0:0:0:0:
256,192,101075,1,0,0:0:0:0:
256,192,101159,1,0,0:0:0:0:
256,192,101244,1,0,0:0:0:0:
256,192,101328,1,8,0:0:0:0:
256,192,101497,1,0,0:0:0:0:
256,192,101665,1,8,0:0:0:0:
256,192,101834,1,0,0:0:0:0:
256,192,101918,1,0,0:0:0:0:
256,192,102002,1,8,0:0:0:0:
256,192,102171,1,8,0:0:0:0:
256,192,102255,1,8,0:0:0:0:
256,192,102339,1,0,0:0:0:0:
256,192,102508,1,0,0:0:0:0:
256,192,102592,1,0,0:0:0:0:
256,192,102676,1,8,0:0:0:0:
256,192,102761,1,8,0:0:0:0:
256,192,102845,1,8,0:0:0:0:
256,192,102929,1,8,0:0:0:0:
256,192,103013,1,0,0:0:0:0:
256,192,103182,1,8,0:0:0:0:
256,192,103266,1,8,0:0:0:0:
256,192,103350,1,0,0:0:0:0:
256,192,103435,1,8,0:0:0:0:
256,192,103519,1,0,0:0:0:0:
256,192,103603,1,0,0:0:0:0:
256,192,103688,1,8,0:0:0:0:
256,192,103856,1,0,0:0:0:0:
256,192,103940,1,0,0:0:0:0:
256,192,104025,1,8,0:0:0:0:
240,192,104193,1,0,0:0:0:0:
256,192,104362,1,8,0:0:0:0:
256,192,104446,1,8,0:0:0:0:
256,192,104530,1,0,0:0:0:0:
256,192,104615,1,0,0:0:0:0:
256,192,104699,1,8,0:0:0:0:
256,192,104867,1,8,0:0:0:0:
256,192,104952,1,0,0:0:0:0:
256,192,105036,1,0,0:0:0:0:
256,192,105204,1,0,0:0:0:0:
256,192,105289,1,0,0:0:0:0:
256,192,105373,1,8,0:0:0:0:
272,192,105457,1,8,0:0:0:0:
272,192,105541,1,0,0:0:0:0:
272,192,105626,1,8,0:0:0:0:
272,192,105710,1,0,0:0:0:0:
272,192,105879,1,8,0:0:0:0:
272,192,105963,1,8,0:0:0:0:
272,192,106047,1,8,0:0:0:0:
272,192,106216,1,0,0:0:0:0:
272,192,106384,1,0,0:0:0:0:
272,192,106468,1,0,0:0:0:0:
272,192,106553,1,8,0:0:0:0:
272,192,106637,1,0,0:0:0:0:
272,192,106721,1,8,0:0:0:0:
272,192,106806,1,8,0:0:0:0:
272,192,106890,1,0,0:0:0:0:
272,192,107058,1,0,0:0:0:0:
213,174,107143,1,0,0:0:0:0:
272,192,107227,1,0,0:0:0:0:
272,192,107311,1,0,0:0:0:0:
272,192,107395,1,8,0:0:0:0:
288,192,107564,1,8,0:0:0:0:
272,192,107648,1,8,0:0:0:0:
272,192,107733,1,0,0:0:0:0:
272,192,107901,1,0,0:0:0:0:
272,192,107985,1,0,0:0:0:0:
272,192,108070,1,8,0:0:0:0:
272,192,108154,1,0,0:0:0:0:
272,192,108238,1,8,0:0:0:0:
272,192,108322,1,8,0:0:0:0:
272,192,108407,1,0,0:0:0:0:
272,192,108575,1,0,0:0:0:0:
288,192,108659,1,0,0:0:0:0:
256,176,108744,1,8,0:0:0:0:
256,176,108912,1,0,0:0:0:0:
256,176,108997,1,0,0:0:0:0:
256,176,109081,1,8,0:0:0:0:
256,176,109165,1,0,0:0:0:0:
256,176,109249,1,0,0:0:0:0:
256,176,109334,1,0,0:0:0:0:
256,176,109418,1,8,0:0:0:0:
256,176,109502,1,8,0:0:0:0:
256,176,109586,1,0,0:0:0:0:
256,176,109755,1,4,0:0:0:0:
256,192,110092,1,12,0:0:0:0:
256,176,110261,1,0,0:0:0:0:
256,176,110345,1,0,0:0:0:0:
256,176,110429,1,8,0:0:0:0:
256,176,110598,1,0,0:0:0:0:
256,176,110682,1,0,0:0:0:0:
256,176,110766,1,8,0:0:0:0:
256,176,110850,1,0,0:0:0:0:
256,176,110935,1,8,0:0:0:0:
256,176,111019,1,8,0:0:0:0:
256,176,111103,1,0,0:0:0:0:
256,176,111272,1,0,0:0:0:0:
256,176,111356,1,0,0:0:0:0:
256,176,111440,1,8,0:0:0:0:
256,176,111609,1,0,0:0:0:0:
256,176,111777,1,8,0:0:0:0:
256,176,111862,1,0,0:0:0:0:
256,176,111946,1,0,0:0:0:0:
256,176,112030,1,0,0:0:0:0:
256,176,112115,1,8,0:0:0:0:
256,176,112283,1,0,0:0:0:0:
256,176,112452,1,8,0:0:0:0:
256,192,112536,1,8,0:0:0:0:
256,176,112620,1,0,0:0:0:0:
256,176,112704,1,0,0:0:0:0:
256,176,112789,1,8,0:0:0:0:
256,192,112957,1,8,0:0:0:0:
256,192,113041,1,8,0:0:0:0:
256,192,113126,1,0,0:0:0:0:
256,192,113294,1,0,0:0:0:0:
256,192,113379,1,0,0:0:0:0:
256,192,113463,1,8,0:0:0:0:
256,192,113547,1,0,0:0:0:0:
256,192,113631,1,8,0:0:0:0:
256,192,113716,1,8,0:0:0:0:
256,192,113800,1,0,0:0:0:0:
256,192,113968,1,8,0:0:0:0:
256,192,114053,1,8,0:0:0:0:
256,192,114137,1,8,0:0:0:0:
256,192,114221,1,8,0:0:0:0:
256,192,114306,1,0,0:0:0:0:
256,192,114474,1,8,0:0:0:0:
256,192,114558,1,0,0:0:0:0:
256,192,114643,1,8,0:0:0:0:
256,192,114727,1,8,0:0:0:0:
256,192,114811,1,0,0:0:0:0:
256,192,114895,1,8,0:0:0:0:
256,192,114980,1,0,0:0:0:0:
256,192,115148,1,8,0:0:0:0:
256,192,115317,1,0,0:0:0:0:
256,192,115401,1,0,0:0:0:0:
256,192,115485,1,8,0:0:0:0:
256,192,115654,1,0,0:0:0:0:
240,192,115822,1,8,0:0:0:0:
240,192,115907,1,0,0:0:0:0:
240,192,115991,1,8,0:0:0:0:
256,192,116075,1,8,0:0:0:0:
240,192,116159,1,0,0:0:0:0:
256,176,116328,1,0,0:0:0:0:
256,176,116412,1,0,0:0:0:0:
240,192,116497,1,8,0:0:0:0:
240,192,116665,1,0,0:0:0:0:
240,192,116749,1,8,0:0:0:0:
240,192,116834,1,0,0:0:0:0:
256,176,116918,1,0,0:0:0:0:
256,176,117002,1,8,0:0:0:0:
240,192,117086,1,8,0:0:0:0:
256,192,117171,1,0,0:0:0:0:
256,192,117339,1,8,0:0:0:0:
256,192,117424,1,8,0:0:0:0:
256,176,117508,1,0,0:0:0:0:
256,176,117676,1,0,0:0:0:0:
256,192,117845,1,8,0:0:0:0:
256,192,118013,1,0,0:0:0:0:
256,192,118098,1,8,0:0:0:0:
256,192,118182,1,0,0:0:0:0:
256,192,118266,1,0,0:0:0:0:
256,192,118350,1,8,0:0:0:0:
256,192,118519,1,8,0:0:0:0:
256,176,118603,1,8,0:0:0:0:
256,192,118688,1,0,0:0:0:0:
256,192,118772,1,8,0:0:0:0:
256,192,118856,1,0,0:0:0:0:
256,192,118940,1,0,0:0:0:0:
256,192,119025,1,8,0:0:0:0:
256,192,119193,1,0,0:0:0:0:
256,192,119362,1,0,0:0:0:0:
256,192,119446,1,0,0:0:0:0:
256,192,119530,1,8,0:0:0:0:
256,192,119699,1,0,0:0:0:0:
256,192,119867,1,8,0:0:0:0:
256,192,119952,1,8,0:0:0:0:
256,192,120036,1,0,0:0:0:0:
256,192,120120,1,0,0:0:0:0:
256,192,120204,1,8,0:0:0:0:
256,192,120373,1,0,0:0:0:0:
256,192,120541,1,12,0:0:0:0:
256,192,120710,1,0,0:0:0:0:
256,192,120794,1,0,0:0:0:0:
256,192,120879,1,8,0:0:0:0:
256,192,120963,1,8,0:0:0:0:
256,192,121047,1,8,0:0:0:0:
256,192,121131,1,0,0:0:0:0:
256,192,121216,1,8,0:0:0:0:
256,192,121300,1,0,0:0:0:0:
256,192,121384,1,8,0:0:0:0:
256,192,121468,1,8,0:0:0:0:
256,192,121553,1,0,0:0:0:0:
256,192,121637,1,0,0:0:0:0:
256,192,121721,1,8,0:0:0:0:
256,192,121806,1,0,0:0:0:0:
256,192,121890,1,8,0:0:0:0:
256,192,121974,1,8,0:0:0:0:
256,192,122058,1,0,0:0:0:0:
256,192,122143,1,8,0:0:0:0:
256,192,122227,1,0,0:0:0:0:
272,192,122311,1,0,0:0:0:0:
256,192,122395,1,8,0:0:0:0:
256,192,122564,1,4,0:0:0:0:
256,192,122901,1,8,0:0:0:0:
256,192,123238,1,4,0:0:0:0:
256,192,123407,1,8,0:0:0:0:
256,192,123491,1,0,0:0:0:0:
256,192,123576,1,8,0:0:0:0:
256,192,123744,1,0,0:0:0:0:
256,192,123913,1,0,0:0:0:0:
256,192,123997,1,0,0:0:0:0:
256,192,124081,1,8,0:0:0:0:
256,192,124165,1,8,0:0:0:0:
256,192,124250,1,0,0:0:0:0:
256,192,124418,1,0,0:0:0:0:
256,192,124587,1,8,0:0:0:0:
256,192,124671,1,0,0:0:0:0:
256,192,124755,1,0,0:0:0:0:
256,192,124924,1,0,0:0:0:0:
256,192,125092,1,8,0:0:0:0:
256,192,125177,1,8,0:0:0:0:
256,192,125261,1,8,0:0:0:0:
256,192,125429,1,8,0:0:0:0:
256,192,125514,1,0,0:0:0:0:
256,192,125598,1,8,0:0:0:0:
256,192,125682,1,8,0:0:0:0:
256,192,125767,1,0,0:0:0:0:
256,192,125935,1,0,0:0:0:0:
256,192,126104,1,0,0:0:0:0:
256,192,126188,1,0,0:0:0:0:
256,192,126272,1,8,0:0:0:0:
256,192,126441,1,0,0:0:0:0:
256,192,126609,1,8,0:0:0:0:
256,192,126694,1,0,0:0:0:0:
256,192,126778,1,8,0:0:0:0:
256,192,126862,1,8,0:0:0:0:
256,192,126946,1,0,0:0:0:0:
256,192,127115,1,0,0:0:0:0:
256,192,127283,1,8,0:0:0:0:
256,192,127452,1,0,0:0:0:0:
256,192,127536,1,8,0:0:0:0:
256,192,127620,1,0,0:0:0:0:
256,192,127789,1,8,0:0:0:0:
256,192,127873,1,0,0:0:0:0:
256,192,127958,1,0,0:0:0:0:
256,192,128126,1,8,0:0:0:0:
256,192,128210,1,8,0:0:0:0:
256,192,128295,1,0,0:0:0:0:
256,192,128379,1,8,0:0:0:0:
256,192,128463,1,0,0:0:0:0:
256,192,128632,1,0,0:0:0:0:
256,192,128800,1,8,0:0:0:0:
256,192,128885,1,0,0:0:0:0:
256,192,128969,1,8,0:0:0:0:
256,192,129137,1,0,0:0:0:0:
256,192,129306,1,8,0:0:0:0:
256,192,129390,1,8,0:0:0:0:
256,192,129474,1,8,0:0:0:0:
256,192,129643,1,0,0:0:0:0:
256,192,129812,1,8,0:0:0:0:
256,192,129896,1,0,0:0:0:0:
256,192,129980,1,8,0:0:0:0:
256,192,130064,1,8,0:0:0:0:
256,192,130149,1,0,0:0:0:0:
256,192,130317,1,0,0:0:0:0:
256,192,130401,1,0,0:0:0:0:
256,192,130486,1,8,0:0:0:0:
299,163,130570,1,8,0:0:0:0:
256,192,130654,1,0,0:0:0:0:
240,176,130823,1,8,0:0:0:0:
256,192,130907,1,0,0:0:0:0:
256,192,130991,1,8,0:0:0:0:
256,192,131160,1,8,0:0:0:0:
256,192,131328,1,4,0:0:0:0:
256,192,131496,1,0,0:0:0:0:
256,192,131581,1,0,0:0:0:0:
256,192,131665,1,8,0:0:0:0:
256,192,131833,1,0,0:0:0:0:
256,192,132003,1,8,0:0:0:0:
256,192,132087,1,0,0:0:0:0:
256,192,132171,1,8,0:0:0:0:
256,192,132255,1,8,0:0:0:0:
256,192,132339,1,0,0:0:0:0:
256,192,132508,1,0,0:0:0:0:
256,192,132676,1,8,0:0:0:0:
256,192,132845,1,0,0:0:0:0:
256,192,132929,1,8,0:0:0:0:
256,192,133013,1,0,0:0:0:0:
272,192,133182,1,8,0:0:0:0:
272,192,133267,1,8,0:0:0:0:
256,192,133350,1,0,0:0:0:0:
256,192,133519,1,0,0:0:0:0:
256,192,133603,1,0,0:0:0:0:
256,192,133687,1,8,0:0:0:0:
256,192,133772,1,8,0:0:0:0:
256,192,133856,1,8,0:0:0:0:
256,192,134024,1,0,0:0:0:0:
256,192,134193,1,8,0:0:0:0:
256,192,134277,1,0,0:0:0:0:
256,192,134362,1,8,0:0:0:0:
256,192,134530,1,0,0:0:0:0:
256,192,134699,1,0,0:0:0:0:
256,192,134783,1,0,0:0:0:0:
256,192,134867,1,8,0:0:0:0:
256,192,134951,1,8,0:0:0:0:
256,192,135036,1,0,0:0:0:0:
256,192,135204,1,0,0:0:0:0:
256,192,135373,1,8,0:0:0:0:
256,192,135458,1,8,0:0:0:0:
256,192,135541,1,0,0:0:0:0:
256,192,135710,1,0,0:0:0:0:
256,192,135878,1,8,0:0:0:0:
256,192,135963,1,0,0:0:0:0:
256,192,136047,1,8,0:0:0:0:
256,192,136215,1,8,0:0:0:0:
256,192,136300,1,8,0:0:0:0:
256,192,136384,1,0,0:0:0:0:
256,192,136468,1,8,0:0:0:0:
256,192,136553,1,0,0:0:0:0:
256,192,136721,1,0,0:0:0:0:
256,192,136890,1,0,0:0:0:0:
256,192,136974,1,0,0:0:0:0:
256,192,137058,1,8,0:0:0:0:
256,192,137227,1,0,0:0:0:0:
256,192,137395,1,8,0:0:0:0:
256,192,137480,1,0,0:0:0:0:
256,192,137564,1,8,0:0:0:0:
256,192,137648,1,8,0:0:0:0:
256,192,137732,1,0,0:0:0:0:
256,192,137901,1,0,0:0:0:0:
256,192,138069,1,8,0:0:0:0:
256,192,138238,1,0,0:0:0:0:
256,192,138322,1,8,0:0:0:0:
256,192,138406,1,0,0:0:0:0:
256,192,138575,1,8,0:0:0:0:
256,192,138744,1,0,0:0:0:0:
256,192,138828,1,0,0:0:0:0:
256,192,138912,1,8,0:0:0:0:
256,192,138996,1,0,0:0:0:0:
256,192,139081,1,8,0:0:0:0:
256,192,139165,1,8,0:0:0:0:
256,192,139249,1,0,0:0:0:0:
256,192,139418,1,12,0:0:0:0:
256,192,139586,12,0,140429,0:0:0:0:
240,192,140935,5,0,0:0:0:0:
256,192,141104,1,0,0:0:0:0:
256,192,141272,1,8,0:0:0:0:
256,192,141441,1,4,0:0:0:0:
256,192,142115,1,4,0:0:0:0:
256,192,142620,1,0,0:0:0:0:
256,192,143126,1,0,0:0:0:0:
256,192,143632,1,8,0:0:0:0:
256,192,144137,1,0,0:0:0:0:
256,192,144812,1,0,0:0:0:0:
256,192,145317,1,8,0:0:0:0:
256,192,145823,1,0,0:0:0:0:
256,192,146328,1,8,0:0:0:0:
256,192,146834,1,8,0:0:0:0:
256,192,147508,1,0,0:0:0:0:
256,192,148014,1,8,0:0:0:0:
256,192,148519,1,0,0:0:0:0:
256,192,149025,1,8,0:0:0:0:
256,192,149531,1,0,0:0:0:0:
272,192,150205,1,0,0:0:0:0:
272,192,150710,1,8,0:0:0:0:
272,192,151216,1,0,0:0:0:0:
272,192,151722,1,8,0:0:0:0:
272,192,152227,1,8,0:0:0:0:
256,192,152564,1,0,0:0:0:0:
256,192,152901,1,12,0:0:0:0:
272,192,153154,1,0,0:0:0:0:
272,192,153238,1,8,0:0:0:0:
256,192,153407,1,0,0:0:0:0:
256,192,153575,1,8,0:0:0:0:
256,192,153744,1,0,0:0:0:0:
256,192,153828,1,0,0:0:0:0:
256,192,153913,1,8,0:0:0:0:
256,192,154081,1,8,0:0:0:0:
256,192,154250,1,0,0:0:0:0:
256,192,154418,1,0,0:0:0:0:
256,192,154502,1,0,0:0:0:0:
256,192,154587,1,8,0:0:0:0:
256,192,154755,1,8,0:0:0:0:
256,192,154924,1,0,0:0:0:0:
256,192,155092,1,8,0:0:0:0:
256,192,155177,1,8,0:0:0:0:
256,192,155261,1,0,0:0:0:0:
256,192,155429,1,8,0:0:0:0:
256,192,155598,1,0,0:0:0:0:
256,192,155766,1,0,0:0:0:0:
256,192,155851,1,0,0:0:0:0:
256,192,155935,1,8,0:0:0:0:
256,192,156104,1,0,0:0:0:0:
256,192,156272,1,8,0:0:0:0:
256,192,156440,1,0,0:0:0:0:
256,192,156525,1,0,0:0:0:0:
272,192,156609,1,8,0:0:0:0:
272,192,156778,1,8,0:0:0:0:
272,192,156946,1,0,0:0:0:0:
272,192,157115,1,0,0:0:0:0:
272,192,157199,1,0,0:0:0:0:
272,192,157283,1,8,0:0:0:0:
272,192,157452,1,8,0:0:0:0:
272,192,157620,1,0,0:0:0:0:
272,192,157789,1,8,0:0:0:0:
272,192,157873,1,8,0:0:0:0:
272,192,157957,1,0,0:0:0:0:
272,192,158126,1,8,0:0:0:0:
272,192,158295,1,0,0:0:0:0:
272,192,158463,1,0,0:0:0:0:
272,192,158547,1,0,0:0:0:0:
272,192,158632,1,8,0:0:0:0:
272,192,158800,1,0,0:0:0:0:
272,192,158969,1,8,0:0:0:0:
272,192,159137,1,0,0:0:0:0:
272,192,159222,1,0,0:0:0:0:
272,192,159306,1,8,0:0:0:0:
272,192,159474,1,8,0:0:0:0:
272,192,159643,1,0,0:0:0:0:
272,192,159811,1,8,0:0:0:0:
256,192,159896,1,0,0:0:0:0:
256,192,159980,1,0,0:0:0:0:
256,192,160148,1,8,0:0:0:0:
256,192,160317,1,0,0:0:0:0:
272,192,160486,1,8,0:0:0:0:
240,208,160570,1,0,0:0:0:0:
256,192,160654,1,8,0:0:0:0:
256,192,160823,1,8,0:0:0:0:
256,192,160991,1,0,0:0:0:0:
256,192,161159,1,0,0:0:0:0:
256,192,161244,1,0,0:0:0:0:
256,192,161328,1,8,0:0:0:0:
256,192,161497,1,0,0:0:0:0:
256,192,161665,1,8,0:0:0:0:
256,192,161749,1,0,0:0:0:0:
256,192,161834,1,0,0:0:0:0:
272,192,162002,1,8,0:0:0:0:
272,192,162171,1,0,0:0:0:0:
272,192,162339,1,8,0:0:0:0:
272,192,162508,1,0,0:0:0:0:
272,192,162592,1,0,0:0:0:0:
272,192,162676,1,8,0:0:0:0:
272,192,162845,1,0,0:0:0:0:
272,192,163013,1,8,0:0:0:0:
272,192,163098,1,8,0:0:0:0:
272,192,163182,1,0,0:0:0:0:
272,192,163266,1,0,0:0:0:0:
272,192,163351,1,8,0:0:0:0:
272,192,163519,1,0,0:0:0:0:
256,192,163688,1,12,0:0:0:0:
272,192,163941,1,0,0:0:0:0:
272,192,164025,1,8,0:0:0:0:
256,192,164194,1,0,0:0:0:0:
256,192,164362,1,8,0:0:0:0:
256,192,164530,1,0,0:0:0:0:
256,192,164615,1,0,0:0:0:0:
256,192,164698,1,8,0:0:0:0:
256,192,164868,1,8,0:0:0:0:
256,192,165037,1,0,0:0:0:0:
256,192,165205,1,0,0:0:0:0:
256,192,165289,1,0,0:0:0:0:
256,192,165374,1,8,0:0:0:0:
256,192,165457,1,0,0:0:0:0:
256,192,165541,1,8,0:0:0:0:
256,192,165711,1,0,0:0:0:0:
256,192,165879,1,8,0:0:0:0:
256,192,165964,1,8,0:0:0:0:
256,192,166048,1,0,0:0:0:0:
256,192,166216,1,8,0:0:0:0:
256,192,166385,1,0,0:0:0:0:
256,192,166553,1,0,0:0:0:0:
256,192,166638,1,0,0:0:0:0:
256,192,166722,1,8,0:0:0:0:
256,192,166889,1,0,0:0:0:0:
256,192,167059,1,8,0:0:0:0:
256,192,167227,1,0,0:0:0:0:
256,192,167312,1,0,0:0:0:0:
272,192,167396,1,8,0:0:0:0:
272,192,167564,1,8,0:0:0:0:
272,192,167733,1,0,0:0:0:0:
272,192,167901,1,0,0:0:0:0:
272,192,167986,1,0,0:0:0:0:
272,192,168070,1,8,0:0:0:0:
272,192,168238,1,8,0:0:0:0:
272,192,168322,1,0,0:0:0:0:
272,192,168407,1,0,0:0:0:0:
272,192,168575,1,8,0:0:0:0:
272,192,168660,1,8,0:0:0:0:
272,192,168743,1,0,0:0:0:0:
272,192,168828,1,0,0:0:0:0:
272,192,168913,1,8,0:0:0:0:
272,192,169082,1,0,0:0:0:0:
272,192,169250,1,0,0:0:0:0:
272,192,169334,1,0,0:0:0:0:
272,192,169419,1,8,0:0:0:0:
272,192,169587,1,0,0:0:0:0:
272,192,169756,1,8,0:0:0:0:
272,192,169924,1,0,0:0:0:0:
272,192,170007,1,0,0:0:0:0:
272,192,170093,1,8,0:0:0:0:
272,192,170261,1,8,0:0:0:0:
272,192,170430,1,0,0:0:0:0:
272,192,170598,1,0,0:0:0:0:
256,192,170683,1,0,0:0:0:0:
256,192,170767,1,8,0:0:0:0:
272,192,170851,1,0,0:0:0:0:
256,192,170935,1,8,0:0:0:0:
272,192,171019,1,8,0:0:0:0:
256,192,171104,1,0,0:0:0:0:
272,192,171272,1,8,0:0:0:0:
240,208,171357,1,8,0:0:0:0:
256,192,171441,1,0,0:0:0:0:
256,192,171610,1,8,0:0:0:0:
256,192,171778,1,0,0:0:0:0:
256,192,171946,1,0,0:0:0:0:
256,192,172031,1,0,0:0:0:0:
256,192,172115,1,8,0:0:0:0:
256,192,172284,1,0,0:0:0:0:
256,192,172452,1,8,0:0:0:0:
256,192,172620,1,0,0:0:0:0:
256,192,172705,1,0,0:0:0:0:
272,192,172789,1,8,0:0:0:0:
272,192,172958,1,0,0:0:0:0:
272,192,173126,1,12,0:0:0:0:
256,192,174474,1,4,0:0:0:0:
256,192,174727,1,8,0:0:0:0:
256,192,174811,1,0,0:0:0:0:
256,192,174980,1,8,0:0:0:0:
256,192,175148,1,0,0:0:0:0:
256,192,175233,1,0,0:0:0:0:
256,192,175401,1,8,0:0:0:0:
256,192,175486,1,0,0:0:0:0:
256,192,175654,1,8,0:0:0:0:
256,192,175822,1,0,0:0:0:0:
353,170,175991,1,8,0:0:0:0:
256,192,176075,1,8,0:0:0:0:
256,192,176159,1,0,0:0:0:0:
256,192,176328,1,8,0:0:0:0:
256,192,176497,1,0,0:0:0:0:
256,192,176581,1,8,0:0:0:0:
256,192,176749,1,8,0:0:0:0:
256,192,176834,1,0,0:0:0:0:
256,192,177002,1,8,0:0:0:0:
256,192,177171,1,0,0:0:0:0:
256,192,177339,1,0,0:0:0:0:
256,192,177424,1,8,0:0:0:0:
256,192,177508,1,0,0:0:0:0:
256,192,177676,1,8,0:0:0:0:
256,192,177845,1,0,0:0:0:0:
256,192,177929,1,0,0:0:0:0:
256,192,178098,1,8,0:0:0:0:
256,192,178182,1,0,0:0:0:0:
256,192,178350,1,8,0:0:0:0:
256,192,178519,1,0,0:0:0:0:
256,192,178688,1,8,0:0:0:0:
256,192,178772,1,8,0:0:0:0:
256,192,178856,1,0,0:0:0:0:
256,192,179025,1,8,0:0:0:0:
256,192,179193,1,8,0:0:0:0:
256,192,179277,1,8,0:0:0:0:
256,192,179362,1,0,0:0:0:0:
256,192,179446,1,0,0:0:0:0:
256,192,179530,1,8,0:0:0:0:
256,192,179699,1,8,0:0:0:0:
256,192,179867,1,0,0:0:0:0:
256,192,180120,1,8,0:0:0:0:
256,192,180204,1,0,0:0:0:0:
256,192,180373,1,8,0:0:0:0:
256,192,180541,1,0,0:0:0:0:
256,192,180626,1,0,0:0:0:0:
256,192,180794,1,8,0:0:0:0:
256,192,180879,1,0,0:0:0:0:
256,192,181047,1,8,0:0:0:0:
256,192,181216,1,0,0:0:0:0:
256,192,181385,1,8,0:0:0:0:
256,192,181468,1,8,0:0:0:0:
256,192,181553,1,0,0:0:0:0:
256,192,181721,1,8,0:0:0:0:
256,192,181890,1,0,0:0:0:0:
256,192,181974,1,8,0:0:0:0:
256,192,182143,1,8,0:0:0:0:
256,192,182227,1,0,0:0:0:0:
256,192,182312,1,0,0:0:0:0:
256,192,182395,1,8,0:0:0:0:
256,192,182564,1,0,0:0:0:0:
256,192,182732,1,0,0:0:0:0:
256,192,182817,1,8,0:0:0:0:
256,192,182901,1,0,0:0:0:0:
256,192,183069,1,8,0:0:0:0:
256,192,183238,1,0,0:0:0:0:
256,192,183323,1,0,0:0:0:0:
256,192,183491,1,8,0:0:0:0:
256,192,183575,1,0,0:0:0:0:
256,192,183660,1,0,0:0:0:0:
256,192,183743,1,8,0:0:0:0:
256,192,183912,1,0,0:0:0:0:
256,192,183997,1,0,0:0:0:0:
256,192,184081,1,8,0:0:0:0:
256,192,184165,1,8,0:0:0:0:
256,192,184249,1,0,0:0:0:0:
256,192,184418,1,8,0:0:0:0:
256,192,184586,1,0,0:0:0:0:
256,192,184755,1,0,0:0:0:0:
205,187,184840,1,0,0:0:0:0:
256,192,184923,1,8,0:0:0:0:
256,192,185092,1,0,0:0:0:0:
256,192,185261,1,12,0:0:0:0:
256,192,185514,1,8,0:0:0:0:
256,192,185598,1,0,0:0:0:0:
256,192,185766,1,8,0:0:0:0:
256,192,185935,1,0,0:0:0:0:
256,192,186019,1,0,0:0:0:0:
256,192,186188,1,8,0:0:0:0:
256,192,186272,1,0,0:0:0:0:
256,192,186440,1,8,0:0:0:0:
256,192,186609,1,0,0:0:0:0:
256,192,186778,1,8,0:0:0:0:
256,192,186862,1,8,0:0:0:0:
256,192,186946,1,0,0:0:0:0:
256,192,187115,1,8,0:0:0:0:
256,192,187283,1,0,0:0:0:0:
256,192,187367,1,8,0:0:0:0:
256,192,187536,1,8,0:0:0:0:
256,192,187620,1,0,0:0:0:0:
256,192,187705,1,0,0:0:0:0:
256,192,187789,1,8,0:0:0:0:
256,192,187873,1,8,0:0:0:0:
256,192,187957,1,0,0:0:0:0:
256,192,188126,1,8,0:0:0:0:
256,192,188210,1,8,0:0:0:0:
256,192,188294,1,0,0:0:0:0:
256,192,188463,1,8,0:0:0:0:
256,192,188631,1,0,0:0:0:0:
256,192,188716,1,0,0:0:0:0:
256,192,188884,1,8,0:0:0:0:
256,192,188968,1,0,0:0:0:0:
272,192,189053,1,0,0:0:0:0:
256,192,189137,1,8,0:0:0:0:
272,192,189222,1,0,0:0:0:0:
256,192,189306,1,8,0:0:0:0:
256,192,189474,1,0,0:0:0:0:
256,192,189558,1,8,0:0:0:0:
256,192,189643,1,0,0:0:0:0:
256,192,189811,1,8,0:0:0:0:
240,192,189896,1,0,0:0:0:0:
256,192,189980,1,8,0:0:0:0:
256,192,190064,1,8,0:0:0:0:
256,192,190148,1,0,0:0:0:0:
256,192,190233,1,8,0:0:0:0:
272,192,190317,1,0,0:0:0:0:
272,192,190485,1,8,0:0:0:0:
256,192,190654,1,4,0:0:0:0:
240,192,190823,1,0,0:0:0:0:
256,192,190907,1,0,0:0:0:0:
272,192,190991,1,8,0:0:0:0:
272,192,191160,1,0,0:0:0:0:
256,192,191328,1,8,0:0:0:0:
256,192,191413,1,8,0:0:0:0:
256,192,191497,1,0,0:0:0:0:
256,192,191581,1,8,0:0:0:0:
256,192,191665,1,0,0:0:0:0:
256,192,191834,1,8,0:0:0:0:
256,192,192003,1,4,0:0:0:0:
256,192,192171,1,0,0:0:0:0:
256,192,192255,1,8,0:0:0:0:
256,192,192340,1,0,0:0:0:0:
256,192,192508,1,8,0:0:0:0:
256,192,192592,1,0,0:0:0:0:
256,192,192677,1,8,0:0:0:0:
256,192,192761,1,8,0:0:0:0:
256,192,192845,1,0,0:0:0:0:
256,192,192929,1,8,0:0:0:0:
256,192,193014,1,0,0:0:0:0:
256,192,193182,1,8,0:0:0:0:
256,192,193267,1,0,0:0:0:0:
256,192,193351,1,8,0:0:0:0:
256,192,193435,1,8,0:0:0:0:
272,192,193519,1,0,0:0:0:0:
272,192,193604,1,0,0:0:0:0:
272,192,193688,1,0,0:0:0:0:
272,192,193772,1,0,0:0:0:0:
272,192,193856,1,8,0:0:0:0:
272,192,193941,1,0,0:0:0:0:
272,192,194025,1,8,0:0:0:0:
272,192,194109,1,8,0:0:0:0:
272,192,194194,1,8,0:0:0:0:
272,192,194278,1,8,0:0:0:0:
272,208,194362,1,0,0:0:0:0:
272,208,194446,1,0,0:0:0:0:
272,208,194531,1,0,0:0:0:0:
288,192,194615,1,0,0:0:0:0:
256,192,194699,1,8,0:0:0:0:
256,192,194783,1,8,0:0:0:0:
256,192,194868,1,0,0:0:0:0:
256,192,194952,1,8,0:0:0:0:
256,192,195036,1,0,0:0:0:0:
256,192,195120,1,0,0:0:0:0:
256,192,195205,1,8,0:0:0:0:
256,192,195289,1,8,0:0:0:0:
256,192,195373,1,0,0:0:0:0:
256,192,195457,1,0,0:0:0:0:
256,192,195541,1,0,0:0:0:0:
256,192,195626,1,0,0:0:0:0:
256,192,195710,1,8,0:0:0:0:
256,192,195794,1,8,0:0:0:0:
256,192,195879,1,0,0:0:0:0:
256,192,196047,1,12,0:0:0:0:
256,192,196384,1,8,0:0:0:0:
256,192,196497,1,8,0:0:0:0:
256,192,196609,1,8,0:0:0:0:
256,192,196721,1,0,0:0:0:0:
256,192,196834,1,0,0:0:0:0:
256,192,196946,1,0,0:0:0:0:
256,192,197058,1,8,0:0:0:0:
272,192,197143,1,8,0:0:0:0:
272,192,197227,1,8,0:0:0:0:
256,192,197395,1,4,0:0:0:0:
256,192,197563,1,0,0:0:0:0:
256,192,197648,1,0,0:0:0:0:
256,192,197732,1,8,0:0:0:0:
256,192,197900,1,0,0:0:0:0:
256,192,198069,1,8,0:0:0:0:
256,192,198153,1,0,0:0:0:0:
256,192,198238,1,8,0:0:0:0:
256,192,198322,1,8,0:0:0:0:
256,192,198406,1,0,0:0:0:0:
256,192,198575,1,0,0:0:0:0:
256,192,198743,1,8,0:0:0:0:
256,192,198912,1,0,0:0:0:0:
256,192,198996,1,0,0:0:0:0:
256,192,199080,1,0,0:0:0:0:
272,192,199249,1,8,0:0:0:0:
256,192,199333,1,8,0:0:0:0:
256,192,199417,1,8,0:0:0:0:
256,192,199586,1,0,0:0:0:0:
256,192,199670,1,0,0:0:0:0:
256,192,199754,1,8,0:0:0:0:
256,192,199839,1,8,0:0:0:0:
256,192,199923,1,0,0:0:0:0:
256,192,200091,1,0,0:0:0:0:
256,192,200260,1,8,0:0:0:0:
256,192,200344,1,0,0:0:0:0:
256,192,200429,1,8,0:0:0:0:
256,192,200597,1,0,0:0:0:0:
256,192,200766,1,0,0:0:0:0:
256,192,200850,1,0,0:0:0:0:
256,192,200934,1,8,0:0:0:0:
256,192,201018,1,8,0:0:0:0:
256,192,201103,1,0,0:0:0:0:
256,192,201271,1,0,0:0:0:0:
256,192,201440,1,8,0:0:0:0:
256,192,201524,1,0,0:0:0:0:
256,192,201608,1,0,0:0:0:0:
256,192,201777,1,0,0:0:0:0:
256,192,201945,1,8,0:0:0:0:
256,192,202030,1,8,0:0:0:0:
256,192,202114,1,8,0:0:0:0:
256,192,202282,1,8,0:0:0:0:
256,192,202367,1,0,0:0:0:0:
256,192,202451,1,8,0:0:0:0:
256,192,202535,1,8,0:0:0:0:
256,192,202620,1,0,0:0:0:0:
256,192,202788,1,0,0:0:0:0:
256,192,202957,1,0,0:0:0:0:
256,192,203041,1,0,0:0:0:0:
256,192,203125,1,8,0:0:0:0:
256,192,203294,1,0,0:0:0:0:
256,192,203462,1,8,0:0:0:0:
256,192,203547,1,0,0:0:0:0:
256,192,203631,1,8,0:0:0:0:
256,192,203715,1,8,0:0:0:0:
256,192,203799,1,0,0:0:0:0:
256,192,203968,1,0,0:0:0:0:
256,192,204136,1,8,0:0:0:0:
256,192,204305,1,0,0:0:0:0:
256,192,204389,1,8,0:0:0:0:
256,192,204473,1,0,0:0:0:0:
256,192,204642,1,8,0:0:0:0:
256,192,204726,1,0,0:0:0:0:
256,192,204811,1,0,0:0:0:0:
256,192,204979,1,8,0:0:0:0:
256,192,205063,1,8,0:0:0:0:
256,192,205148,1,0,0:0:0:0:
256,192,205232,1,8,0:0:0:0:
256,192,205316,1,0,0:0:0:0:
256,192,205485,1,0,0:0:0:0:
256,192,205653,1,8,0:0:0:0:
256,192,205738,1,0,0:0:0:0:
256,192,205822,1,8,0:0:0:0:
256,192,205990,1,0,0:0:0:0:
256,192,206159,1,8,0:0:0:0:
256,192,206243,1,8,0:0:0:0:
256,192,206327,1,8,0:0:0:0:
256,192,206496,1,0,0:0:0:0:
256,192,206665,1,8,0:0:0:0:
256,192,206749,1,0,0:0:0:0:
256,192,206833,1,8,0:0:0:0:
256,192,206917,1,8,0:0:0:0:
256,192,207002,1,0,0:0:0:0:
256,192,207170,1,0,0:0:0:0:
256,192,207254,1,0,0:0:0:0:
256,192,207339,1,8,0:0:0:0:
299,163,207423,1,8,0:0:0:0:
256,192,207507,1,0,0:0:0:0:
240,176,207676,1,8,0:0:0:0:
256,192,207760,1,0,0:0:0:0:
256,192,207844,1,8,0:0:0:0:
256,192,208013,1,8,0:0:0:0:
256,192,208181,1,4,0:0:0:0:
256,192,208349,1,0,0:0:0:0:
256,192,208434,1,0,0:0:0:0:
256,192,208518,1,8,0:0:0:0:
256,192,208688,1,0,0:0:0:0:
256,192,208856,1,8,0:0:0:0:
256,192,208940,1,0,0:0:0:0:
256,192,209024,1,8,0:0:0:0:
256,192,209108,1,8,0:0:0:0:
256,192,209192,1,0,0:0:0:0:
256,192,209361,1,0,0:0:0:0:
256,192,209529,1,8,0:0:0:0:
256,192,209698,1,0,0:0:0:0:
256,192,209782,1,8,0:0:0:0:
256,192,209866,1,0,0:0:0:0:
272,192,210035,1,8,0:0:0:0:
272,192,210120,1,8,0:0:0:0:
256,192,210203,1,0,0:0:0:0:
256,192,210372,1,0,0:0:0:0:
256,192,210456,1,0,0:0:0:0:
256,192,210540,1,8,0:0:0:0:
256,192,210625,1,8,0:0:0:0:
256,192,210709,1,8,0:0:0:0:
256,192,210879,1,0,0:0:0:0:
256,192,211046,1,8,0:0:0:0:
256,192,211130,1,0,0:0:0:0:
256,192,211215,1,8,0:0:0:0:
256,192,211383,1,0,0:0:0:0:
256,192,211552,1,0,0:0:0:0:
256,192,211636,1,0,0:0:0:0:
256,192,211720,1,8,0:0:0:0:
256,192,211806,1,8,0:0:0:0:
256,192,211889,1,0,0:0:0:0:
256,192,212057,1,0,0:0:0:0:
256,192,212226,1,8,0:0:0:0:
256,192,212311,1,8,0:0:0:0:
256,192,212394,1,0,0:0:0:0:
256,192,212563,1,0,0:0:0:0:
256,192,212733,1,8,0:0:0:0:
256,192,212816,1,0,0:0:0:0:
256,192,212900,1,8,0:0:0:0:
256,192,213070,1,8,0:0:0:0:
256,192,213153,1,8,0:0:0:0:
256,192,213237,1,0,0:0:0:0:
256,192,213321,1,8,0:0:0:0:
256,192,213406,1,0,0:0:0:0:
256,192,213575,1,4,0:0:0:0:
256,192,213743,1,0,0:0:0:0:
256,192,213827,1,0,0:0:0:0:
256,192,213911,1,8,0:0:0:0:
256,192,214080,1,0,0:0:0:0:
256,192,214248,1,8,0:0:0:0:
256,192,214333,1,0,0:0:0:0:
256,192,214417,1,8,0:0:0:0:
256,192,214501,1,8,0:0:0:0:
256,192,214585,1,0,0:0:0:0:
256,192,214754,1,0,0:0:0:0:
256,192,214924,1,12,0:0:0:0:
256,192,215091,1,0,0:0:0:0:
256,192,215175,1,8,0:0:0:0:
256,192,215261,1,0,0:0:0:0:
256,192,215345,1,0,0:0:0:0:
256,192,215428,1,8,0:0:0:0:
256,192,215597,1,0,0:0:0:0:
256,192,215681,1,0,0:0:0:0:
256,192,215765,1,8,0:0:0:0:
256,192,215849,1,0,0:0:0:0:
256,192,215934,1,8,0:0:0:0:
256,192,216018,1,8,0:0:0:0:
256,192,216102,1,0,0:0:0:0:
256,192,216271,1,12,0:0:0:0:
256,192,216440,1,0,0:0:0:0:
256,192,216525,1,0,0:0:0:0:
256,192,216609,1,8,0:0:0:0:
256,192,216693,1,8,0:0:0:0:
256,192,216777,1,8,0:0:0:0:
256,192,216946,1,4,0:0:0:0:
256,192,217115,1,8,0:0:0:0:
256,192,217199,1,0,0:0:0:0:
256,192,217283,1,8,0:0:0:0:
256,192,217367,1,8,0:0:0:0:
256,192,217452,1,0,0:0:0:0:
256,192,217620,1,8,0:0:0:0:
256,192,217704,1,0,0:0:0:0:
256,192,217789,1,0,0:0:0:0:
256,192,217873,1,0,0:0:0:0:
256,192,217957,1,8,0:0:0:0:
256,192,218041,1,8,0:0:0:0:
256,192,218126,1,0,0:0:0:0:
256,192,218210,1,0,0:0:0:0:
256,192,218294,1,8,0:0:0:0:
256,192,218463,1,0,0:0:0:0:
256,192,218631,1,8,0:0:0:0:
256,192,218968,1,4,0:0:0:0:
256,192,219305,1,12,0:0:0:0:
256,192,219474,1,8,0:0:0:0:
256,192,219558,1,8,0:0:0:0:
256,192,219643,1,0,0:0:0:0:
256,192,219811,1,0,0:0:0:0:
196,202,219895,1,0,0:0:0:0:
256,192,219980,1,8,0:0:0:0:
256,192,220064,1,0,0:0:0:0:
256,192,220148,1,8,0:0:0:0:
256,192,220233,1,8,0:0:0:0:
256,192,220317,1,0,0:0:0:0:
256,192,220485,1,0,0:0:0:0:
256,192,220570,1,0,0:0:0:0:
256,192,220654,1,8,0:0:0:0:
256,192,220822,1,0,0:0:0:0:
256,192,220991,1,8,0:0:0:0:
256,192,221075,1,0,0:0:0:0:
256,192,221159,1,8,0:0:0:0:
256,192,221244,1,0,0:0:0:0:
256,192,221328,1,8,0:0:0:0:
256,192,221412,1,8,0:0:0:0:
256,192,221497,1,0,0:0:0:0:
256,192,221665,1,8,0:0:0:0:
256,192,221834,1,0,0:0:0:0:
256,192,221918,1,0,0:0:0:0:
256,192,222002,1,8,0:0:0:0:
256,192,222171,1,8,0:0:0:0:
256,192,222255,1,8,0:0:0:0:
256,192,222339,1,0,0:0:0:0:
256,192,222508,1,0,0:0:0:0:
256,192,222592,1,0,0:0:0:0:
256,192,222676,1,8,0:0:0:0:
256,192,222761,1,8,0:0:0:0:
256,192,222845,1,8,0:0:0:0:
256,192,222929,1,8,0:0:0:0:
256,192,223013,1,0,0:0:0:0:
256,192,223182,1,8,0:0:0:0:
256,192,223266,1,8,0:0:0:0:
256,192,223350,1,0,0:0:0:0:
256,192,223435,1,8,0:0:0:0:
256,192,223519,1,0,0:0:0:0:
256,192,223603,1,0,0:0:0:0:
256,192,223688,1,8,0:0:0:0:
256,192,223856,1,0,0:0:0:0:
256,192,223940,1,0,0:0:0:0:
256,192,224025,1,8,0:0:0:0:
240,192,224193,1,8,0:0:0:0:
256,192,224277,1,0,0:0:0:0:
256,192,224362,1,8,0:0:0:0:
256,192,224446,1,8,0:0:0:0:
256,192,224530,1,8,0:0:0:0:
256,192,224615,1,8,0:0:0:0:
256,192,224699,1,0,0:0:0:0:
256,192,224867,1,8,0:0:0:0:
256,192,224952,1,0,0:0:0:0:
256,192,225036,1,0,0:0:0:0:
256,192,225204,1,0,0:0:0:0:
256,192,225289,1,0,0:0:0:0:
256,192,225373,1,8,0:0:0:0:
272,192,225457,1,8,0:0:0:0:
272,192,225541,1,0,0:0:0:0:
272,192,225626,1,8,0:0:0:0:
272,192,225710,1,0,0:0:0:0:
272,192,225879,1,8,0:0:0:0:
272,192,225963,1,8,0:0:0:0:
272,192,226047,1,8,0:0:0:0:
272,192,226216,1,0,0:0:0:0:
272,192,226384,1,0,0:0:0:0:
272,192,226553,1,8,0:0:0:0:
272,192,226637,1,0,0:0:0:0:
272,192,226721,1,8,0:0:0:0:
272,192,226890,1,0,0:0:0:0:
272,192,227058,1,8,0:0:0:0:
213,174,227143,1,8,0:0:0:0:
272,192,227227,1,0,0:0:0:0:
272,192,227311,1,0,0:0:0:0:
272,192,227395,1,8,0:0:0:0:
288,192,227564,1,8,0:0:0:0:
272,192,227648,1,8,0:0:0:0:
272,192,227733,1,0,0:0:0:0:
272,192,227901,1,0,0:0:0:0:
272,192,227985,1,0,0:0:0:0:
272,192,228070,1,8,0:0:0:0:
272,192,228154,1,0,0:0:0:0:
272,192,228238,1,8,0:0:0:0:
272,192,228322,1,8,0:0:0:0:
272,192,228407,1,0,0:0:0:0:
272,192,228575,1,0,0:0:0:0:
288,192,228659,1,0,0:0:0:0:
256,176,228744,1,8,0:0:0:0:
256,176,228912,1,0,0:0:0:0:
256,176,228997,1,0,0:0:0:0:
256,176,229081,1,8,0:0:0:0:
256,176,229165,1,0,0:0:0:0:
256,176,229249,1,0,0:0:0:0:
256,176,229334,1,0,0:0:0:0:
256,176,229418,1,8,0:0:0:0:
256,176,229502,1,8,0:0:0:0:
256,176,229586,1,0,0:0:0:0:
256,176,229755,1,4,0:0:0:0:
256,176,230008,1,0,0:0:0:0:
256,192,230092,1,8,0:0:0:0:
256,176,230261,1,8,0:0:0:0:
256,176,230345,1,8,0:0:0:0:
256,176,230429,1,0,0:0:0:0:
256,176,230598,1,0,0:0:0:0:
256,176,230682,1,0,0:0:0:0:
256,176,230766,1,8,0:0:0:0:
256,176,230850,1,0,0:0:0:0:
256,176,230935,1,8,0:0:0:0:
256,176,231019,1,8,0:0:0:0:
256,176,231103,1,0,0:0:0:0:
256,176,231272,1,0,0:0:0:0:
256,176,231356,1,0,0:0:0:0:
256,176,231440,1,8,0:0:0:0:
256,176,231609,1,0,0:0:0:0:
256,176,231777,1,8,0:0:0:0:
256,176,231862,1,8,0:0:0:0:
256,176,231946,1,8,0:0:0:0:
256,176,232030,1,0,0:0:0:0:
256,176,232115,1,8,0:0:0:0:
195,176,232199,1,8,0:0:0:0:
256,176,232283,1,0,0:0:0:0:
256,176,232452,1,8,0:0:0:0:
256,192,232536,1,8,0:0:0:0:
256,176,232620,1,0,0:0:0:0:
256,176,232704,1,0,0:0:0:0:
256,176,232789,1,8,0:0:0:0:
256,192,232957,1,8,0:0:0:0:
256,192,233041,1,8,0:0:0:0:
256,192,233126,1,0,0:0:0:0:
256,192,233294,1,0,0:0:0:0:
256,192,233379,1,0,0:0:0:0:
256,192,233463,1,8,0:0:0:0:
256,192,233547,1,0,0:0:0:0:
256,192,233631,1,8,0:0:0:0:
256,192,233716,1,8,0:0:0:0:
256,192,233800,1,0,0:0:0:0:
256,192,233968,1,8,0:0:0:0:
256,192,234053,1,8,0:0:0:0:
256,192,234137,1,8,0:0:0:0:
256,192,234221,1,8,0:0:0:0:
256,192,234306,1,0,0:0:0:0:
256,192,234474,1,8,0:0:0:0:
256,192,234558,1,0,0:0:0:0:
256,192,234643,1,8,0:0:0:0:
256,192,234727,1,8,0:0:0:0:
256,192,234811,1,0,0:0:0:0:
256,192,234895,1,8,0:0:0:0:
256,192,234980,1,0,0:0:0:0:
256,192,235148,1,0,0:0:0:0:
256,192,235232,1,0,0:0:0:0:
256,192,235317,1,8,0:0:0:0:
256,192,235401,1,0,0:0:0:0:
256,192,235485,1,8,0:0:0:0:
256,192,235654,1,0,0:0:0:0:
240,192,235822,1,8,0:0:0:0:
240,192,235906,1,0,0:0:0:0:
240,192,235991,1,8,0:0:0:0:
256,192,236075,1,0,0:0:0:0:
240,192,236159,1,0,0:0:0:0:
256,176,236328,1,8,0:0:0:0:
256,176,236412,1,0,0:0:0:0:
240,192,236497,1,8,0:0:0:0:
240,192,236665,1,0,0:0:0:0:
240,192,236749,1,8,0:0:0:0:
240,192,236834,1,0,0:0:0:0:
256,176,236918,1,0,0:0:0:0:
256,176,237002,1,8,0:0:0:0:
240,192,237086,1,8,0:0:0:0:
256,192,237171,1,0,0:0:0:0:
256,192,237339,1,8,0:0:0:0:
256,192,237424,1,8,0:0:0:0:
256,176,237508,1,0,0:0:0:0:
256,176,237592,1,0,0:0:0:0:
256,176,237676,1,8,0:0:0:0:
256,192,237845,1,8,0:0:0:0:
256,176,237929,1,8,0:0:0:0:
240,192,238013,1,0,0:0:0:0:
256,192,238098,1,8,0:0:0:0:
256,192,238182,1,0,0:0:0:0:
256,192,238266,1,0,0:0:0:0:
256,192,238350,1,8,0:0:0:0:
256,176,238435,1,0,0:0:0:0:
256,176,238519,1,8,0:0:0:0:
256,176,238603,1,8,0:0:0:0:
256,192,238687,1,8,0:0:0:0:
256,192,238772,1,8,0:0:0:0:
256,176,238856,1,0,0:0:0:0:
240,192,238940,1,0,0:0:0:0:
256,192,239025,1,8,0:0:0:0:
256,192,239109,1,0,0:0:0:0:
256,192,239193,1,8,0:0:0:0:
256,192,239277,1,8,0:0:0:0:
256,176,239362,1,8,0:0:0:0:
256,176,239446,1,0,0:0:0:0:
256,176,239530,1,8,0:0:0:0:
256,192,239615,1,8,0:0:0:0:
256,192,239699,1,0,0:0:0:0:
256,176,239783,1,0,0:0:0:0:
240,192,239867,1,8,0:0:0:0:
240,192,239952,1,0,0:0:0:0:
240,192,240120,1,0,0:0:0:0:
256,192,240204,1,8,0:0:0:0:
256,192,240541,1,12,0:0:0:0:
256,192,240794,1,0,0:0:0:0:
256,192,240879,1,8,0:0:0:0:
256,192,241047,1,8,0:0:0:0:
256,192,241131,1,8,0:0:0:0:
256,192,241216,1,0,0:0:0:0:
256,192,241384,1,0,0:0:0:0:
196,202,241468,1,0,0:0:0:0:
256,192,241553,1,8,0:0:0:0:
256,192,241637,1,0,0:0:0:0:
256,192,241721,1,8,0:0:0:0:
256,192,241806,1,8,0:0:0:0:
256,192,241890,1,0,0:0:0:0:
256,192,242058,1,0,0:0:0:0:
256,192,242143,1,0,0:0:0:0:
256,192,242227,1,8,0:0:0:0:
256,192,242395,1,0,0:0:0:0:
256,192,242564,1,8,0:0:0:0:
256,192,242648,1,8,0:0:0:0:
256,192,242732,1,8,0:0:0:0:
256,192,242817,1,0,0:0:0:0:
256,192,242901,1,8,0:0:0:0:
256,192,243070,1,0,0:0:0:0:
256,192,243238,1,8,0:0:0:0:
256,192,243407,1,0,0:0:0:0:
256,192,243491,1,0,0:0:0:0:
256,192,243575,1,8,0:0:0:0:
256,192,243659,1,0,0:0:0:0:
256,192,243744,1,8,0:0:0:0:
256,192,243828,1,8,0:0:0:0:
256,192,243912,1,0,0:0:0:0:
256,192,244081,1,0,0:0:0:0:
256,192,244165,1,0,0:0:0:0:
256,192,244249,1,8,0:0:0:0:
256,192,244334,1,8,0:0:0:0:
256,192,244418,1,8,0:0:0:0:
256,192,244502,1,8,0:0:0:0:
256,192,244586,1,0,0:0:0:0:
256,192,244755,1,8,0:0:0:0:
256,192,244839,1,8,0:0:0:0:
256,192,244923,1,0,0:0:0:0:
256,192,245008,1,8,0:0:0:0:
256,192,245092,1,0,0:0:0:0:
256,192,245176,1,0,0:0:0:0:
256,192,245261,1,8,0:0:0:0:
256,192,245429,1,0,0:0:0:0:
256,192,245513,1,0,0:0:0:0:
256,192,245598,1,8,0:0:0:0:
256,192,245766,1,8,0:0:0:0:
256,192,245850,1,0,0:0:0:0:
256,192,245935,1,8,0:0:0:0:
256,192,246019,1,8,0:0:0:0:
256,192,246103,1,8,0:0:0:0:
256,192,246188,1,8,0:0:0:0:
256,192,246272,1,0,0:0:0:0:
256,192,246440,1,8,0:0:0:0:
256,192,246525,1,0,0:0:0:0:
256,192,246609,1,0,0:0:0:0:
256,192,246777,1,0,0:0:0:0:
256,192,246862,1,0,0:0:0:0:
256,192,246946,1,8,0:0:0:0:
272,192,247030,1,8,0:0:0:0:
272,192,247114,1,0,0:0:0:0:
272,192,247199,1,8,0:0:0:0:
272,192,247283,1,0,0:0:0:0:
272,192,247452,1,8,0:0:0:0:
272,192,247536,1,8,0:0:0:0:
272,192,247620,1,8,0:0:0:0:
272,192,247789,1,0,0:0:0:0:
272,192,247957,1,0,0:0:0:0:
272,192,248041,1,0,0:0:0:0:
272,192,248126,1,8,0:0:0:0:
272,192,248210,1,0,0:0:0:0:
272,192,248294,1,8,0:0:0:0:
272,192,248379,1,8,0:0:0:0:
272,192,248463,1,0,0:0:0:0:
272,192,248631,1,0,0:0:0:0:
213,174,248716,1,0,0:0:0:0:
272,192,248800,1,0,0:0:0:0:
272,192,248884,1,0,0:0:0:0:
272,192,248968,1,8,0:0:0:0:
256,176,249053,1,8,0:0:0:0:
288,192,249137,1,0,0:0:0:0:
272,192,249221,1,8,0:0:0:0:
272,192,249306,1,0,0:0:0:0:
272,192,249474,1,0,0:0:0:0:
272,192,249558,1,0,0:0:0:0:
272,192,249643,1,8,0:0:0:0:
272,192,249727,1,0,0:0:0:0:
272,192,249811,1,8,0:0:0:0:
272,192,249895,1,8,0:0:0:0:
272,192,249980,1,0,0:0:0:0:
272,192,250148,1,0,0:0:0:0:
288,192,250232,1,0,0:0:0:0:
256,176,250317,1,8,0:0:0:0:
256,176,250485,1,0,0:0:0:0:
256,176,250570,1,0,0:0:0:0:
256,176,250654,1,8,0:0:0:0:
256,176,250738,1,0,0:0:0:0:
256,176,250822,1,0,0:0:0:0:
256,176,250907,1,0,0:0:0:0:
256,176,250991,1,8,0:0:0:0:
256,176,251075,1,8,0:0:0:0:
256,176,251159,1,0,0:0:0:0:
256,176,251328,1,4,0:0:0:0:
256,192,251665,1,12,0:0:0:0:
256,176,251834,1,0,0:0:0:0:
256,176,251918,1,0,0:0:0:0:
256,176,252002,1,8,0:0:0:0:
256,176,252171,1,0,0:0:0:0:
256,176,252255,1,0,0:0:0:0:
256,176,252339,1,8,0:0:0:0:
256,176,252423,1,0,0:0:0:0:
256,176,252508,1,8,0:0:0:0:
256,176,252592,1,8,0:0:0:0:
256,176,252676,1,0,0:0:0:0:
256,176,252845,1,0,0:0:0:0:
256,176,252929,1,0,0:0:0:0:
256,176,253013,1,8,0:0:0:0:
256,176,253182,1,0,0:0:0:0:
256,176,253350,1,8,0:0:0:0:
256,176,253435,1,8,0:0:0:0:
256,176,253519,1,0,0:0:0:0:
256,176,253603,1,0,0:0:0:0:
256,176,253688,1,8,0:0:0:0:
256,176,253772,1,0,0:0:0:0:
256,176,253856,1,0,0:0:0:0:
256,176,254025,1,8,0:0:0:0:
256,192,254109,1,8,0:0:0:0:
256,176,254193,1,0,0:0:0:0:
256,176,254277,1,0,0:0:0:0:
256,176,254362,1,8,0:0:0:0:
256,176,254446,1,0,0:0:0:0:
256,192,254530,1,8,0:0:0:0:
256,192,254614,1,8,0:0:0:0:
256,192,254699,1,0,0:0:0:0:
256,192,254867,1,0,0:0:0:0:
256,192,254952,1,0,0:0:0:0:
256,192,255036,1,8,0:0:0:0:
256,192,255120,1,0,0:0:0:0:
256,192,255204,1,8,0:0:0:0:
256,192,255289,1,8,0:0:0:0:
256,192,255373,1,0,0:0:0:0:
256,192,255541,1,8,0:0:0:0:
256,192,255626,1,8,0:0:0:0:
256,192,255710,1,8,0:0:0:0:
256,192,255794,1,8,0:0:0:0:
256,192,255879,1,0,0:0:0:0:
256,192,256047,1,8,0:0:0:0:
256,192,256131,1,0,0:0:0:0:
256,192,256216,1,8,0:0:0:0:
256,192,256300,1,8,0:0:0:0:
256,192,256384,1,0,0:0:0:0:
256,192,256468,1,8,0:0:0:0:
256,192,256553,1,0,0:0:0:0:
256,192,256721,1,12,0:0:0:0:
256,192,256890,1,0,0:0:0:0:
256,192,256974,1,0,0:0:0:0:
256,192,257058,1,8,0:0:0:0:
256,192,257227,1,0,0:0:0:0:
240,192,257395,1,8,0:0:0:0:
240,192,257480,1,0,0:0:0:0:
240,192,257564,1,8,0:0:0:0:
256,192,257648,1,8,0:0:0:0:
240,192,257732,1,0,0:0:0:0:
256,176,257901,1,0,0:0:0:0:
240,192,258070,1,12,0:0:0:0:
240,192,258238,1,0,0:0:0:0:
240,192,258322,1,8,0:0:0:0:
240,192,258407,1,0,0:0:0:0:
256,176,258491,1,0,0:0:0:0:
256,176,258575,1,8,0:0:0:0:
256,192,258744,1,0,0:0:0:0:
256,176,258828,1,0,0:0:0:0:
256,192,258912,1,8,0:0:0:0:
256,192,258997,1,8,0:0:0:0:
256,176,259081,1,0,0:0:0:0:
240,192,259165,1,0,0:0:0:0:
240,192,259249,1,8,0:0:0:0:
256,192,259418,1,4,0:0:0:0:
256,192,259586,1,0,0:0:0:0:
256,192,259671,1,8,0:0:0:0:
256,192,259755,1,0,0:0:0:0:
256,192,259839,1,0,0:0:0:0:
256,192,259923,1,8,0:0:0:0:
256,192,260092,1,12,0:0:0:0:
256,192,260261,1,8,0:0:0:0:
256,192,260345,1,8,0:0:0:0:
256,192,260429,1,0,0:0:0:0:
256,192,260513,1,0,0:0:0:0:
256,192,260598,1,8,0:0:0:0:
256,192,260766,1,4,0:0:0:0:
256,192,260935,1,0,0:0:0:0:
256,192,261019,1,0,0:0:0:0:
256,192,261103,1,8,0:0:0:0:
256,192,261188,1,8,0:0:0:0:
256,192,261272,1,0,0:0:0:0:
256,192,261440,1,12,0:0:0:0:
256,192,261609,1,0,0:0:0:0:
256,192,261777,1,8,0:0:0:0:
256,192,262114,1,4,0:0:0:0:
256,192,262368,1,0,0:0:0:0:
256,192,262452,1,8,0:0:0:0:
256,192,262620,1,0,0:0:0:0:
256,192,262789,1,0,0:0:0:0:
256,192,262958,1,8,0:0:0:0:
256,192,263042,1,8,0:0:0:0:
256,192,263126,1,0,0:0:0:0:
256,192,263295,1,0,0:0:0:0:
256,192,263463,1,8,0:0:0:0:
256,192,263716,1,0,0:0:0:0:
256,192,263800,1,0,0:0:0:0:
272,192,263969,1,8,0:0:0:0:
256,192,264137,1,0,0:0:0:0:
256,192,264306,1,8,0:0:0:0:
256,192,264390,1,8,0:0:0:0:
256,192,264474,1,8,0:0:0:0:
256,192,264643,1,8,0:0:0:0:
256,192,264811,1,0,0:0:0:0:
256,192,265064,1,0,0:0:0:0:
256,192,265149,1,8,0:0:0:0:
256,192,265317,1,0,0:0:0:0:
256,192,265486,1,0,0:0:0:0:
256,192,265654,1,8,0:0:0:0:
256,192,265738,1,8,0:0:0:0:
256,192,265823,1,0,0:0:0:0:
256,192,265991,1,0,0:0:0:0:
256,192,266159,1,8,0:0:0:0:
256,192,266328,1,0,0:0:0:0:
256,192,266412,1,8,0:0:0:0:
256,192,266497,1,0,0:0:0:0:
256,192,266665,1,8,0:0:0:0:
256,192,266834,1,0,0:0:0:0:
256,192,266918,1,0,0:0:0:0:
256,192,267002,1,0,0:0:0:0:
256,192,267086,1,0,0:0:0:0:
256,192,267171,1,8,0:0:0:0:
256,192,267339,1,0,0:0:0:0:
256,192,267508,1,12,0:0:0:0:
256,192,267676,1,0,0:0:0:0:
256,192,267761,1,0,0:0:0:0:
256,192,267845,1,8,0:0:0:0:
256,192,267929,1,0,0:0:0:0:
256,192,268013,1,0,0:0:0:0:
256,192,268098,1,0,0:0:0:0:
256,192,268182,1,8,0:0:0:0:
256,192,268266,1,8,0:0:0:0:
256,192,268350,1,8,0:0:0:0:
256,192,268435,1,0,0:0:0:0:
256,192,268519,1,8,0:0:0:0:
256,192,268603,1,8,0:0:0:0:
256,192,268688,1,8,0:0:0:0:
256,192,268772,1,8,0:0:0:0:
256,192,268856,1,0,0:0:0:0:
256,192,268940,1,0,0:0:0:0:
256,192,269025,1,0,0:0:0:0:
256,192,269109,1,0,0:0:0:0:
305,227,269193,1,8,0:0:0:0:
256,192,269277,1,0,0:0:0:0:
256,192,269362,1,0,0:0:0:0:
256,192,269446,1,0,0:0:0:0:
256,192,269530,1,8,0:0:0:0:
256,192,269615,1,8,0:0:0:0:
256,192,269699,1,0,0:0:0:0:
256,192,269783,1,0,0:0:0:0:
256,192,269867,1,8,0:0:0:0:
256,192,269952,1,0,0:0:0:0:
256,192,270036,1,0,0:0:0:0:
256,192,270204,1,12,0:0:0:0:
256,192,270373,1,0,0:0:0:0:
256,192,270457,1,8,0:0:0:0:
256,192,270541,1,0,0:0:0:0:
256,192,270626,1,0,0:0:0:0:
256,192,270710,1,8,0:0:0:0:
256,192,270879,1,12,0:0:0:0:
256,192,271047,1,8,0:0:0:0:
256,192,271131,1,8,0:0:0:0:
256,192,271216,1,0,0:0:0:0:
256,192,271300,1,8,0:0:0:0:
256,192,271384,1,0,0:0:0:0:
131,171,271553,1,12,0:0:0:0:
256,180,271721,1,0,0:0:0:0:
256,180,271806,1,0,0:0:0:0:
256,180,271890,1,8,0:0:0:0:
256,192,272058,1,8,0:0:0:0:
256,192,272227,1,4,0:0:0:0:
256,192,272564,1,8,0:0:0:0:
256,192,272901,1,0,0:0:0:0:
256,192,274249,1,4,0:0:0:0:
256,192,274755,1,0,0:0:0:0:
256,192,275261,1,8,0:0:0:0:
256,192,276272,1,8,0:0:0:0:
256,192,276946,1,0,0:0:0:0:
256,192,277452,1,8,0:0:0:0:
256,192,277957,1,0,0:0:0:0:
256,192,278463,1,0,0:0:0:0:
256,192,278968,1,8,0:0:0:0:
256,192,279643,1,0,0:0:0:0:
256,192,280148,1,0,0:0:0:0:
256,192,280654,1,8,0:0:0:0:
256,192,281665,1,8,0:0:0:0:
256,192,282339,1,8,0:0:0:0:
256,192,282845,1,0,0:0:0:0:
256,192,283350,1,8,0:0:0:0:
256,192,283856,1,8,0:0:0:0:
256,192,284362,1,0,0:0:0:0:
256,192,285036,1,0,0:0:0:0:
256,192,285542,1,0,0:0:0:0:
256,192,286048,1,8,0:0:0:0:
256,192,287059,1,8,0:0:0:0:
256,192,287733,1,0,0:0:0:0:
256,192,288239,1,8,0:0:0:0:
256,192,288744,1,0,0:0:0:0:
256,192,289250,1,0,0:0:0:0:
256,192,289755,1,8,0:0:0:0:
256,192,290430,1,0,0:0:0:0:
256,192,290935,1,0,0:0:0:0:
256,192,291441,1,8,0:0:0:0:
256,192,292452,1,8,0:0:0:0:
256,192,293126,1,8,0:0:0:0:
256,192,293632,1,0,0:0:0:0:
256,192,294137,1,8,0:0:0:0:
256,192,294643,1,8,0:0:0:0:
256,192,295149,1,0,0:0:0:0:
256,192,295823,1,4,0:0:0:0:
256,192,296159,1,0,0:0:0:0:
256,192,296244,1,0,0:0:0:0:
256,208,296328,1,8,0:0:0:0:
256,192,296497,1,8,0:0:0:0:
256,192,296581,1,0,0:0:0:0:
256,192,296749,1,0,0:0:0:0:
256,192,296834,1,8,0:0:0:0:
256,192,297002,1,0,0:0:0:0:
256,192,297171,1,8,0:0:0:0:
256,192,297339,1,0,0:0:0:0:
256,192,297424,1,8,0:0:0:0:
256,192,297508,1,0,0:0:0:0:
256,192,297676,1,8,0:0:0:0:
256,192,297845,1,0,0:0:0:0:
256,192,297929,1,8,0:0:0:0:
256,192,298098,1,0,0:0:0:0:
256,192,298182,1,8,0:0:0:0:
256,192,298350,1,0,0:0:0:0:
256,192,298519,1,8,0:0:0:0:
256,192,298688,1,0,0:0:0:0:
256,192,298856,1,0,0:0:0:0:
256,192,298940,1,0,0:0:0:0:
256,192,299025,1,8,0:0:0:0:
256,192,299193,1,8,0:0:0:0:
256,192,299277,1,0,0:0:0:0:
256,192,299446,1,0,0:0:0:0:
256,192,299530,1,8,0:0:0:0:
256,192,299699,1,0,0:0:0:0:
256,192,299783,1,8,0:0:0:0:
256,192,299867,1,8,0:0:0:0:
272,192,300036,1,0,0:0:0:0:
272,192,300120,1,8,0:0:0:0:
256,192,300204,1,0,0:0:0:0:
256,192,300289,1,0,0:0:0:0:
256,192,300373,1,8,0:0:0:0:
272,208,300541,1,8,0:0:0:0:
256,192,300626,1,0,0:0:0:0:
256,192,300710,1,8,0:0:0:0:
272,192,300794,1,8,0:0:0:0:
256,192,300879,1,0,0:0:0:0:
256,192,301047,1,0,0:0:0:0:
256,192,301131,1,0,0:0:0:0:
256,192,301216,1,8,0:0:0:0:
256,192,301384,1,8,0:0:0:0:
256,192,301468,1,8,0:0:0:0:
256,192,301553,1,0,0:0:0:0:
256,192,301637,1,0,0:0:0:0:
256,192,301721,1,8,0:0:0:0:
256,192,301806,1,8,0:0:0:0:
256,192,301890,1,0,0:0:0:0:
240,192,301974,1,8,0:0:0:0:
256,192,302058,1,8,0:0:0:0:
240,192,302143,1,0,0:0:0:0:
240,192,302227,1,8,0:0:0:0:
256,192,302395,1,0,0:0:0:0:
256,192,302480,1,0,0:0:0:0:
256,192,302564,1,8,0:0:0:0:
256,192,302733,1,0,0:0:0:0:
256,192,302817,1,8,0:0:0:0:
256,192,302901,1,0,0:0:0:0:
256,192,302985,1,0,0:0:0:0:
256,192,303070,1,8,0:0:0:0:
272,208,303154,1,8,0:0:0:0:
256,192,303238,1,0,0:0:0:0:
256,192,303322,1,0,0:0:0:0:
256,192,303407,1,8,0:0:0:0:
256,192,303491,1,8,0:0:0:0:
256,192,303575,1,0,0:0:0:0:
256,192,303744,1,8,0:0:0:0:
256,192,303912,1,4,0:0:0:0:
256,192,304249,1,8,0:0:0:0:
256,192,304418,1,8,0:0:0:0:
256,192,304586,1,0,0:0:0:0:
256,192,304755,1,0,0:0:0:0:
240,192,304839,1,0,0:0:0:0:
256,192,304924,1,8,0:0:0:0:
272,192,305092,1,0,0:0:0:0:
272,192,305261,1,8,0:0:0:0:
272,192,305345,1,8,0:0:0:0:
256,192,305429,1,8,0:0:0:0:
272,192,305513,1,8,0:0:0:0:
272,192,305598,1,0,0:0:0:0:
272,192,305682,1,0,0:0:0:0:
256,192,305766,1,8,0:0:0:0:
256,192,305935,1,8,0:0:0:0:
256,192,306103,1,8,0:0:0:0:
256,192,306272,1,8,0:0:0:0:
256,192,306440,1,8,0:0:0:0:
256,192,306609,1,4,0:0:0:0:
256,192,306777,1,0,0:0:0:0:
256,192,306862,1,0,0:0:0:0:
256,192,306946,1,8,0:0:0:0:
256,192,307114,1,0,0:0:0:0:
272,192,307199,1,0,0:0:0:0:
256,192,307283,1,8,0:0:0:0:
256,192,307367,1,0,0:0:0:0:
256,192,307452,1,8,0:0:0:0:
256,192,307536,1,8,0:0:0:0:
256,192,307620,1,0,0:0:0:0:
256,192,307789,1,0,0:0:0:0:
256,192,307957,1,8,0:0:0:0:
256,192,308041,1,8,0:0:0:0:
256,192,308126,1,0,0:0:0:0:
256,192,308210,1,8,0:0:0:0:
256,192,308294,1,0,0:0:0:0:
272,192,308463,1,8,0:0:0:0:
256,192,308547,1,8,0:0:0:0:
256,192,308631,1,8,0:0:0:0:
256,192,308800,1,0,0:0:0:0:
256,192,308884,1,0,0:0:0:0:
256,192,308968,1,8,0:0:0:0:
256,192,309053,1,8,0:0:0:0:
256,192,309137,1,0,0:0:0:0:
256,192,309305,1,0,0:0:0:0:
256,192,309390,1,0,0:0:0:0:
256,192,309474,1,8,0:0:0:0:
256,192,309558,1,0,0:0:0:0:
256,192,309643,1,8,0:0:0:0:
256,192,309727,1,8,0:0:0:0:
256,192,309811,1,0,0:0:0:0:
256,192,309980,1,0,0:0:0:0:
256,192,310064,1,0,0:0:0:0:
256,192,310148,1,8,0:0:0:0:
256,192,310232,1,8,0:0:0:0:
256,192,310317,1,0,0:0:0:0:
256,192,310485,1,0,0:0:0:0:
256,192,310654,1,8,0:0:0:0:
256,192,310738,1,0,0:0:0:0:
256,192,310822,1,0,0:0:0:0:
256,192,310907,1,0,0:0:0:0:
256,192,310991,1,8,0:0:0:0:
256,192,311159,1,8,0:0:0:0:
256,192,311244,1,8,0:0:0:0:
256,192,311328,1,8,0:0:0:0:
256,192,311496,1,8,0:0:0:0:
256,192,311581,1,0,0:0:0:0:
256,192,311665,1,8,0:0:0:0:
256,192,311749,1,8,0:0:0:0:
256,192,311834,1,0,0:0:0:0:
256,192,312002,1,0,0:0:0:0:
240,192,312086,1,0,0:0:0:0:
256,192,312171,1,0,0:0:0:0:
256,192,312255,1,0,0:0:0:0:
256,192,312339,1,8,0:0:0:0:
256,192,312508,1,0,0:0:0:0:
240,192,312592,1,0,0:0:0:0:
256,192,312676,1,8,0:0:0:0:
256,192,312761,1,0,0:0:0:0:
256,192,312845,1,8,0:0:0:0:
256,192,312929,1,8,0:0:0:0:
256,192,313013,1,0,0:0:0:0:
256,192,313182,1,0,0:0:0:0:
256,192,313350,1,8,0:0:0:0:
240,192,313435,1,8,0:0:0:0:
256,192,313519,1,0,0:0:0:0:
256,192,313603,1,8,0:0:0:0:
256,192,313687,1,0,0:0:0:0:
256,192,313856,1,8,0:0:0:0:
256,192,313940,1,0,0:0:0:0:
256,192,314025,1,0,0:0:0:0:
256,192,314193,1,8,0:0:0:0:
256,192,314277,1,8,0:0:0:0:
256,192,314362,1,0,0:0:0:0:
256,192,314446,1,8,0:0:0:0:
256,192,314530,1,0,0:0:0:0:
256,192,314699,1,0,0:0:0:0:
240,192,314783,1,0,0:0:0:0:
256,192,314867,1,8,0:0:0:0:
256,192,314952,1,0,0:0:0:0:
256,192,315036,1,8,0:0:0:0:
240,192,315120,1,8,0:0:0:0:
256,192,315204,1,0,0:0:0:0:
256,192,315373,1,8,0:0:0:0:
256,192,315457,1,8,0:0:0:0:
256,192,315541,1,8,0:0:0:0:
240,192,315626,1,0,0:0:0:0:
240,192,315710,1,8,0:0:0:0:
256,192,315879,1,8,0:0:0:0:
256,192,315963,1,0,0:0:0:0:
256,192,316047,1,8,0:0:0:0:
256,192,316131,1,8,0:0:0:0:
256,192,316216,1,0,0:0:0:0:
240,192,316300,1,0,0:0:0:0:
240,192,316384,1,8,0:0:0:0:
240,192,316468,1,8,0:0:0:0:
256,192,316553,1,8,0:0:0:0:
299,163,316637,1,8,0:0:0:0:
256,192,316721,1,0,0:0:0:0:
240,176,316890,1,8,0:0:0:0:
256,192,316974,1,0,0:0:0:0:
256,192,317058,1,8,0:0:0:0:
256,192,317227,1,8,0:0:0:0:
256,192,317395,1,4,0:0:0:0:
256,192,317563,1,0,0:0:0:0:
256,192,317648,1,0,0:0:0:0:
256,192,317732,1,8,0:0:0:0:
256,192,317900,1,0,0:0:0:0:
272,192,317985,1,0,0:0:0:0:
256,192,318069,1,8,0:0:0:0:
256,192,318153,1,0,0:0:0:0:
256,192,318238,1,8,0:0:0:0:
256,192,318322,1,8,0:0:0:0:
256,192,318406,1,0,0:0:0:0:
256,192,318575,1,0,0:0:0:0:
256,192,318743,1,8,0:0:0:0:
256,192,318827,1,8,0:0:0:0:
256,192,318912,1,0,0:0:0:0:
256,192,318996,1,8,0:0:0:0:
256,192,319080,1,0,0:0:0:0:
272,192,319249,1,8,0:0:0:0:
256,192,319333,1,8,0:0:0:0:
256,192,319417,1,8,0:0:0:0:
256,192,319586,1,0,0:0:0:0:
256,192,319670,1,0,0:0:0:0:
256,192,319754,1,8,0:0:0:0:
256,192,319839,1,8,0:0:0:0:
256,192,319923,1,8,0:0:0:0:
256,192,320091,1,0,0:0:0:0:
256,192,320176,1,0,0:0:0:0:
256,192,320260,1,8,0:0:0:0:
256,192,320344,1,0,0:0:0:0:
256,192,320429,1,8,0:0:0:0:
256,192,320513,1,8,0:0:0:0:
256,192,320597,1,0,0:0:0:0:
256,192,320766,1,0,0:0:0:0:
256,192,320850,1,0,0:0:0:0:
256,192,320934,1,8,0:0:0:0:
256,192,321018,1,8,0:0:0:0:
256,192,321103,1,0,0:0:0:0:
256,192,321271,1,0,0:0:0:0:
256,192,321440,1,8,0:0:0:0:
256,192,321524,1,8,0:0:0:0:
256,192,321608,1,0,0:0:0:0:
256,192,321693,1,0,0:0:0:0:
256,192,321777,1,8,0:0:0:0:
256,192,321945,1,8,0:0:0:0:
256,192,322030,1,0,0:0:0:0:
256,192,322114,1,8,0:0:0:0:
256,192,322282,1,8,0:0:0:0:
256,192,322367,1,8,0:0:0:0:
256,192,322451,1,0,0:0:0:0:
256,192,322535,1,8,0:0:0:0:
256,192,322620,1,0,0:0:0:0:
256,192,322788,1,0,0:0:0:0:
240,192,322872,1,0,0:0:0:0:
256,192,322957,1,0,0:0:0:0:
256,192,323041,1,0,0:0:0:0:
256,192,323125,1,8,0:0:0:0:
256,192,323294,1,0,0:0:0:0:
240,192,323378,1,0,0:0:0:0:
256,192,323462,1,8,0:0:0:0:
256,192,323547,1,0,0:0:0:0:
256,192,323631,1,8,0:0:0:0:
256,192,323715,1,8,0:0:0:0:
256,192,323799,1,0,0:0:0:0:
256,192,323968,1,0,0:0:0:0:
256,192,324136,1,8,0:0:0:0:
240,192,324221,1,8,0:0:0:0:
256,192,324305,1,0,0:0:0:0:
256,192,324389,1,8,0:0:0:0:
256,192,324473,1,0,0:0:0:0:
256,192,324642,1,8,0:0:0:0:
256,192,324726,1,0,0:0:0:0:
256,192,324811,1,0,0:0:0:0:
256,192,324979,1,8,0:0:0:0:
256,192,325063,1,8,0:0:0:0:
256,192,325148,1,0,0:0:0:0:
256,192,325232,1,8,0:0:0:0:
256,192,325316,1,0,0:0:0:0:
256,192,325485,1,0,0:0:0:0:
240,192,325569,1,0,0:0:0:0:
256,192,325653,1,8,0:0:0:0:
256,192,325738,1,0,0:0:0:0:
256,192,325822,1,8,0:0:0:0:
240,192,325906,1,8,0:0:0:0:
256,192,325990,1,0,0:0:0:0:
256,192,326159,1,8,0:0:0:0:
256,192,326243,1,8,0:0:0:0:
256,192,326327,1,8,0:0:0:0:
240,192,326412,1,0,0:0:0:0:
240,192,326496,1,8,0:0:0:0:
256,192,326665,1,8,0:0:0:0:
256,192,326749,1,0,0:0:0:0:
256,192,326833,1,8,0:0:0:0:
256,192,326917,1,8,0:0:0:0:
256,192,327002,1,0,0:0:0:0:
240,192,327086,1,0,0:0:0:0:
240,192,327170,1,8,0:0:0:0:
240,192,327254,1,8,0:0:0:0:
256,192,327339,1,8,0:0:0:0:
299,163,327423,1,8,0:0:0:0:
256,192,327507,1,0,0:0:0:0:
256,192,327592,1,0,0:0:0:0:
240,176,327676,1,8,0:0:0:0:
256,192,327760,1,0,0:0:0:0:
256,192,327844,1,8,0:0:0:0:
256,192,328013,1,0,0:0:0:0:
256,192,328181,1,12,0:0:0:0:
256,192,328519,1,0,0:0:0:0:
256,192,328688,1,8,0:0:0:0:
256,192,329025,1,0,0:0:0:0:
256,192,329193,1,8,0:0:0:0:
256,192,329530,1,0,0:0:0:0:
256,192,329699,1,8,0:0:0:0:
256,192,330036,1,0,0:0:0:0:
256,192,330204,1,8,0:0:0:0:
272,208,330373,1,0,0:0:0:0:
256,192,330541,1,0,0:0:0:0:
256,192,330879,1,8,0:0:0:0:
256,192,331047,1,0,0:0:0:0:
256,192,331216,1,0,0:0:0:0:
256,192,331384,1,8,0:0:0:0:
256,192,331721,1,0,0:0:0:0:
256,192,331890,1,8,0:0:0:0:
256,192,332058,1,0,0:0:0:0:
256,192,332227,1,0,0:0:0:0:
256,192,332395,1,8,0:0:0:0:
256,192,332733,1,0,0:0:0:0:
256,192,332901,1,8,0:0:0:0:
256,192,333070,1,0,0:0:0:0:
256,192,333238,1,0,0:0:0:0:
256,192,333575,1,8,0:0:0:0:
256,192,333743,1,0,0:0:0:0:
256,192,333912,1,0,0:0:0:0:
256,192,334080,1,8,0:0:0:0:
256,192,334417,1,0,0:0:0:0:
256,192,334586,1,8,0:0:0:0:
256,192,334754,1,0,0:0:0:0:
256,192,334923,1,0,0:0:0:0:
256,192,335091,1,8,0:0:0:0:
256,192,335429,1,0,0:0:0:0:
256,192,335597,1,8,0:0:0:0:
256,192,335766,1,0,0:0:0:0:
256,192,335934,1,0,0:0:0:0:
256,192,336272,1,8,0:0:0:0:
256,192,336440,1,0,0:0:0:0:
256,192,336609,1,0,0:0:0:0:
256,192,336777,1,8,0:0:0:0:
256,192,337114,1,0,0:0:0:0:
256,192,337283,1,8,0:0:0:0:
256,192,337451,1,0,0:0:0:0:
256,192,337620,1,0,0:0:0:0:
256,192,337788,1,8,0:0:0:0:
256,192,338126,1,0,0:0:0:0:
256,192,338294,1,8,0:0:0:0:
256,192,338463,1,0,0:0:0:0:
256,192,338631,1,8,0:0:0:0:
256,192,338800,1,8,0:0:0:0:
