osu file format v14

[General]
AudioFilename: Be My Gameboy.mp3
AudioLeadIn: 0
PreviewTime: 56015
Countdown: 1
SampleSet: Soft
StackLeniency: 0.7
Mode: 0
LetterboxInBreaks: 1
WidescreenStoryboard: 0

[Editor]
Bookmarks: 53432
DistanceSpacing: 1.1
BeatDivisor: 4
GridSize: 4
TimelineZoom: 1

[Metadata]
Title:Be My Game Boy (ft. S3RL)
TitleUnicode:Be My Game Boy (ft. S3RL)
Artist:Yurino
ArtistUnicode:Yurino
Creator:Gabe
Version:Insane
Source:
Tags:Techno Dance House gameboy advance nintendo
BeatmapID:339846
BeatmapSetID:135708

[Difficulty]
HPDrainRate:7
CircleSize:5
OverallDifficulty:7
ApproachRate:8
SliderMultiplier:1.9
SliderTickRate:1

[Events]
//Background and Video events
0,0,"Be My Gabeboy.jpg",0,0
//Break Periods
2,14349,26571
//Storyboard Layer 0 (Background)
//Storyboard Layer 1 (Fail)
//Storyboard Layer 2 (Pass)
//Storyboard Layer 3 (Foreground)
//Storyboard Sound Samples

[TimingPoints]
7210,444.444444444444,4,2,0,40,1,0
54321,-133.333333333333,4,2,0,20,0,0
56987,-100,4,1,0,40,0,1
70765,-100,4,1,0,40,0,0
71209,-100,4,1,0,40,0,1
71321,-100,4,1,0,40,0,0
113876,-100,4,1,0,40,0,1
127654,-100,4,1,0,40,0,0
128098,-100,4,1,0,40,0,1
128209,-100,4,1,0,40,0,0
170765,-100,4,1,0,40,0,1
184543,-100,4,1,0,40,0,0
184987,-100,4,1,0,40,0,1
185098,-100,4,1,0,40,0,0

[Colours]
Combo1 : 255,223,125
Combo2 : 111,255,111
Combo3 : 125,184,255
Combo4 : 248,135,152

[HitObjects]
80,244,7210,6,0,P|108:320|208:324,1,190,0|8,0:0|0:0,0:0:0:0:
432,140,8098,2,0,P|404:64|304:60,1,190,0|8,0:0|0:0,0:0:0:0:
305,325,8987,2,0,P|395:326|432:244,1,190,0|8,0:0|0:0,0:0:0:0:
206,58,9876,2,0,P|116:57|80:140,1,190,0|8,0:0|0:0,0:0:0:0:
352,256,10765,6,0,L|376:148,1,95,0|0,0:0|0:0,0:0:0:0:
316,80,11209,2,0,L|292:188,1,95,8|0,0:0|0:0,0:0:0:0:
240,252,11654,2,0,L|216:144,1,95
232,120,11987,2,0,L|84:148,1,142.5,8|0,0:0|0:0,0:0:0:0:
91,146,12432,1,0,0:0:0:0:
91,146,12543,1,0,0:0:0:0:
88,248,12765,1,2,0:0:0:0:
256,336,13209,1,2,0:0:0:0:
424,248,13654,5,0,3:0:0:0:
424,248,13876,2,0,L|488:160,1,95,0|0,1:0|0:0,0:0:0:0:
64,44,28543,53,4,0:0:0:0:
146,66,28765,1,0,0:0:0:0:
124,148,28987,1,0,1:0:0:0:
41,126,29209,1,0,0:0:0:0:
168,48,29432,2,0,L|272:64,1,95,0|0,0:0|0:0,0:0:0:0:
344,76,29876,1,0,1:0:0:0:
428,88,30098,1,0,0:0:0:0:
332,164,30321,2,0,L|140:132,1,190,0|0,0:0|1:0,0:0:0:0:
64,204,30987,5,0,0:0:0:0:
64,204,31209,2,0,P|48:248|64:292,1,95,0|0,0:0|0:0,0:0:0:0:
140,336,31654,2,0,P|183:320|227:336,1,95,0|0,1:0|0:0,0:0:0:0:
304,376,32098,2,0,B|360:332|332:264|332:264|395:275,1,190,0|0,0:0|1:0,0:0:0:0:
395,108,32987,6,0,B|332:120|332:120|360:52|304:8,1,190,0|0,0:0|1:0,0:0:0:0:
256,80,33654,1,0,0:0:0:0:
268,164,33876,2,0,B|288:196|332:196|332:196|452:172,1,190,0|0,0:0|1:0,0:0:0:0:
500,240,34543,2,0,L|404:260,1,95,2|2,0:0|0:0,0:0:0:0:
260,304,34987,2,0,L|356:324,1,95,0|2,0:0|1:2,0:0:0:0:
436,336,35432,1,0,0:0:0:0:
240,328,35654,6,0,B|148:308|148:308|113:342|59:330,1,190,4|0,0:0|1:0,0:0:0:0:
88,248,36321,1,0,0:0:0:0:
224,248,36543,2,0,L|332:272,1,95
156,192,36987,2,0,L|124:80,1,95,0|0,1:0|0:0,0:0:0:0:
56,56,37432,2,0,B|116:112|192:64|268:16|328:72,1,285
360,148,38321,5,0,0:0:0:0:
444,160,38543,1,0,0:0:0:0:
276,140,38765,1,0,1:0:0:0:
396,232,38987,1,0,0:0:0:0:
414,69,39209,2,0,L|298:241,1,190,0|0,0:0|1:0,0:0:0:0:
160,316,40098,5,0,0:0:0:0:
148,168,40321,1,0,0:0:0:0:
72,288,40543,1,0,1:0:0:0:
204,236,40765,1,0,0:0:0:0:
64,200,40987,2,0,P|8:228|20:360,1,190,0|0,0:0|1:0,0:0:0:0:
160,316,41654,2,0,L|348:344,1,190
504,320,42321,2,0,L|408:308,1,95,2|2,1:2|0:0,0:0:0:0:
252,256,42765,6,0,P|312:263|376:216,1,142.5,2|2,1:2|0:0,0:0:0:0:
356,180,43209,2,0,L|450:191,1,95,2|2,1:2|0:0,0:0:0:0:
512,248,43654,1,0,0:0:0:0:
512,132,43876,2,0,B|504:129|496:132|496:132|488:132|480:128|480:128|472:124|464:128|464:128|456:128|448:124|448:124|440:120|432:124|432:124|424:124|417:120,1,95,2|2,1:2|1:2,0:0:0:0:
336,96,44321,1,0,0:0:0:0:
196,56,44543,6,0,L|44:56,1,142.5,2|0,1:2|0:0,0:0:0:0:
20,80,44987,2,0,P|8:124|24:172,1,95,2|0,1:2|0:0,0:0:0:0:
78,247,45432,2,0,P|111:186|92:120,1,142.5,0|0,0:0|0:0,0:0:0:0:
91,119,45876,1,2,1:2:0:0:
20,80,46098,1,0,0:0:0:0:
168,88,46321,6,0,L|264:112,1,95,2|0,0:0|0:0,0:0:0:0:
380,164,46765,2,0,L|284:188,1,95,2|0,1:2|0:0,0:0:0:0:
124,188,47209,2,0,L|220:212,1,95,2|0,0:0|0:0,0:0:0:0:
348,264,47654,1,2,1:2:0:0:
256,288,47876,1,0,0:0:0:0:
160,308,48098,5,2,0:0:0:0:
268,196,48321,1,2,0:0:0:0:
320,340,48543,1,2,1:2:0:0:
160,308,48765,1,0,0:0:0:0:
96,224,48987,1,0,1:0:0:0:
152,132,49209,2,0,L|216:128,2,47.5,0|0|0,0:0|0:0|1:2,0:0:0:0:
84,56,49654,5,0,0:0:0:0:
84,56,49765,1,0,0:0:0:0:
84,56,49876,2,0,L|32:44,2,47.5,2|0|0,0:0|0:0|0:0,0:0:0:0:
164,24,50321,2,0,L|268:24,1,95,0|0,1:0|0:0,0:0:0:0:
336,60,50765,1,0,0:0:0:0:
336,60,51209,5,0,0:0:0:0:
368,140,51432,1,0,0:0:0:0:
452,160,51654,2,0,P|472:252|420:328,1,190
336,316,52321,5,0,0:0:0:0:
276,376,52543,2,0,L|176:376,1,95
96,376,52987,1,0,0:0:0:0:
96,376,53209,1,0,0:0:0:0:
24,332,53432,2,0,B|-24:264|28:192|80:120|32:60,1,285
88,4,54321,5,0,0:0:0:0:
128,136,54543,1,0,0:0:0:0:
256,192,54765,1,0,0:0:0:0:
384,136,54987,1,0,0:0:0:0:
424,4,55209,1,0,0:0:0:0:
424,4,55432,2,0,P|480:32|496:64,1,71.2500027179719
492,228,55876,2,0,P|436:200|420:168,1,71.2500027179719
384,136,56209,2,0,P|392:252|392:256,1,106.875004076958
364,320,56765,5,0,0:0:0:0:
168,340,56987,2,0,P|258:341|295:259,2,190
208,260,58098,1,0,0:0:0:0:
208,260,58209,1,0,0:0:0:0:
208,260,58321,1,0,0:0:0:0:
248,180,58543,1,0,0:0:0:0:
112,160,58765,6,0,P|144:92|208:92,1,142.5
252,116,59209,2,0,P|319:109|344:45,1,142.5
280,56,59654,1,0,0:0:0:0:
416,20,59876,1,0,0:0:0:0:
388,160,60098,1,0,0:0:0:0:
280,56,60321,1,0,0:0:0:0:
256,140,60543,6,0,B|276:196|240:240|240:240|312:316,1,190
360,356,61209,1,0,0:0:0:0:
428,304,61432,2,0,L|472:208,1,95
400,164,61876,2,0,L|416:64,1,95
328,204,62321,6,0,P|240:224|156:148,1,190
148,84,62987,1,0,0:0:0:0:
64,100,63209,2,0,L|12:288,1,190
