osu file format v14

[General]
AudioFilename: audio.mp3
AudioLeadIn: 0
PreviewTime: -1
Countdown: 1
SampleSet: None
StackLeniency: 0.7
Mode: 0
LetterboxInBreaks: 0
WidescreenStoryboard: 0

[Editor]
DistanceSpacing: 0.5
BeatDivisor: 4
GridSize: 32
TimelineZoom: 2.4

[Metadata]
Title:Hikari no Kizuna
TitleUnicode:光の絆
Artist:Yura Mari
ArtistUnicode:結良まり
Creator:Lama Poluna
Version:
Source:
Tags:
BeatmapID:1944548
BeatmapSetID:931240

[Difficulty]
HPDrainRate:5
CircleSize:4.1
OverallDifficulty:8.5
ApproachRate:9.7
SliderMultiplier:1.87
SliderTickRate:1

[Events]
//Background and Video events
0,0,"Konachan.com - 272947 flowers hanako151 long_hair night signed skirt sky stars vocaloid vocaloid_china xin_hua.jpg",0,0
//Break Periods
//Storyboard Layer 0 (Background)
//Storyboard Layer 1 (Fail)
//Storyboard Layer 2 (Pass)
//Storyboard Layer 3 (Foreground)
//Storyboard Sound Samples

[TimingPoints]
25878,357.142857142857,4,2,0,61,1,0
103020,-86.9565217391304,4,2,0,61,0,0

[Colours]
Combo1 : 255,255,213
Combo2 : 255,113,113
Combo3 : 255,221,221
Combo4 : 0,87,174
Combo5 : 192,192,192

[HitObjects]
145,285,101592,5,0,0:0:0:0:
210,359,101770,1,0,0:0:0:0:
228,343,101859,1,0,0:0:0:0:
239,323,101949,2,0,P|246:277|236:243,1,46.75,2|0,0:0|0:0,0:0:0:0:
62,225,102127,1,0,0:0:0:0:
51,245,102217,2,0,P|44:291|54:325,1,46.75,2|0,0:0|0:0,0:0:0:0:
214,185,102395,1,2,0:0:0:0:
210,158,102484,1,0,0:0:0:0:
206,130,102573,1,0,0:0:0:0:
201,103,102663,2,0,L|191:45,3,46.75,2|0|0|2,0:0|0:0|0:0|0:0,0:0:0:0:
311,59,103020,6,0,B|406:40|362:126|505:86,1,161.287503076315,14|0,0:0|0:0,0:0:0:0:
480,75,103377,2,0,P|502:129|477:183,1,107.525002050877,10|2,0:0|0:0,0:0:0:0:
307,345,103735,1,0,3:0:0:0:
271,331,103824,1,8,0:0:0:0:
245,305,103913,1,0,3:0:0:0:
232,270,104002,1,0,0:0:0:0:
234,233,104092,1,10,0:0:0:0:
331,251,104270,1,0,0:0:0:0:
163,364,104449,6,0,P|108:351|52:346,1,107.525002050877,6|0,2:0|3:0,0:0:0:0:
56,199,104806,2,0,P|133:205|230:235,1,161.287503076315,8|2,0:0|0:0,0:0:0:0:
298,164,105163,5,0,3:0:0:0:
300,127,105253,1,8,0:0:0:0:
287,92,105342,1,0,3:0:0:0:
261,66,105431,1,2,0:0:0:0:
225,52,105520,1,8,3:0:0:0:
389,76,105699,1,0,0:0:0:0:
224,229,105877,6,0,L|424:207,1,161.287503076315,6|0,0:1|0:0,0:0:0:0:
399,188,106235,2,0,P|427:229|409:292,1,107.525002050877,10|2,0:0|0:0,0:0:0:0:
122,193,106592,1,0,3:0:0:0:
93,169,106681,1,8,0:0:0:0:
78,135,106770,1,0,3:0:0:0:
79,97,106859,1,2,0:0:0:0:
97,65,106949,2,0,L|222:76,1,107.525002050877,8|2,3:0|0:0,0:0:0:0:
375,166,107306,6,0,B|288:176|335:232|234:249,1,161.287503076315,6|0,0:1|0:0,0:0:0:0:
224,229,107663,1,10,0:0:0:0:
500,262,107842,1,2,0:0:0:0:
350,369,108020,1,0,3:0:0:0:
347,343,108109,1,8,0:0:0:0:
343,316,108198,1,0,3:0:0:0:
318,89,108377,2,0,P|393:68|470:132,1,161.287503076315,12|0,3:2|0:0,0:0:0:0:
459,110,108735,6,0,P|429:149|371:165,1,107.525002050877,14|0,0:0|3:0,0:0:0:0:
127,72,109092,2,0,P|175:78|218:120,1,107.525002050877,8|2,0:0|0:0,0:0:0:0:
270,357,109449,2,0,P|251:311|266:253,1,107.525002050877,2|0,0:3|3:0,0:0:0:0:
374,165,109806,1,10,0:0:0:0:
453,347,109985,1,2,0:0:0:0:
511,252,110163,6,0,B|420:221|448:291|336:255,1,161.287503076315,4|0,3:1|0:0,0:0:0:0:
279,172,110520,2,0,P|298:102|349:72,1,107.525002050877,8|0,3:0|0:0,0:0:0:0:
474,143,110877,1,0,0:0:0:0:
477,180,110966,1,0,0:0:0:0:
467,216,111055,1,0,0:0:0:0:
444,245,111144,1,0,0:0:0:0:
412,264,111234,1,0,0:0:0:0:
340,74,111413,1,0,0:0:0:0:
230,248,111592,6,0,P|180:304|75:278,1,161.287503076315
75,286,111949,1,0,0:0:0:0:
214,141,112127,2,0,P|278:147|319:207,1,107.525002050877
323,197,112395,1,0,0:0:0:0:
328,223,112485,2,0,L|318:295,1,53.7625010254383
309,376,112663,1,0,0:0:0:0:
146,223,112842,1,0,0:0:0:0:
393,102,113020,6,0,B|446:135|446:135|473:266,1,161.287503076315
473,257,113377,1,0,0:0:0:0:
194,332,113556,6,0,B|247:299|247:299|274:168,1,161.287503076315
134,169,113913,2,0,L|155:267,1,53.7625010254383
92,364,114092,1,0,0:0:0:0:
74,343,114181,1,0,0:0:0:0:
52,328,114270,1,0,0:0:0:0:
27,319,114359,1,0,0:0:0:0:
0,318,114449,6,0,L|184:297,1,161.287503076315
187,299,114806,1,0,0:0:0:0:
253,93,114985,1,0,0:0:0:0:
290,96,115074,1,0,0:0:0:0:
327,100,115163,1,0,0:0:0:0:
365,104,115252,1,0,0:0:0:0:
402,108,115342,1,0,0:0:0:0:
506,266,115520,2,0,L|384:278,1,107.525002050877
174,158,115877,6,0,P|150:81|212:4,1,161.287503076315
189,16,116235,2,0,P|232:41|252:95,1,107.525002050877
190,274,116592,1,0,0:0:0:0:
152,277,116681,1,0,0:0:0:0:
117,265,116770,1,0,0:0:0:0:
88,241,116859,1,0,0:0:0:0:
72,207,116949,1,0,0:0:0:0:
174,158,117127,1,0,0:0:0:0:
290,368,117306,6,0,P|297:293|313:208,1,161.287503076315
306,45,120163,6,4,P|360:24|444:81,1,161.287503076315,4|0,0:0|0:0,0:0:0:0:
393,250,120520,2,0,P|336:257|281:212,1,107.525002050877,10|0,0:0|0:0,0:0:0:0:
68,150,120877,6,0,L|255:131,1,161.287503076315,2|0,0:3|0:0,0:0:0:0:
346,118,121235,2,0,L|453:108,1,107.525002050877,8|2,0:0|0:0,0:0:0:0:
165,48,121592,5,2,3:2:0:0:
252,239,121770,1,0,3:0:0:0:
278,47,121949,5,10,0:0:0:0:
146,197,122127,1,2,0:0:0:0:
136,221,122216,1,0,0:0:0:0:
134,248,122306,2,0,P|139:286|158:322,1,53.7625010254383,2|8,0:0|0:0,0:0:0:0:
345,166,122485,2,0,P|315:141|276:127,1,53.7625010254383,2|0,3:2|0:0,0:0:0:0:
237,329,122663,2,0,P|286:367|361:364,1,107.525002050877,8|2,0:0|0:0,0:0:0:0:
499,200,123020,6,0,B|410:200|454:263|353:271,1,161.287503076315,4|0,0:0|0:0,0:0:0:0:
235,149,123377,2,0,P|259:91|311:63,1,107.525002050877,10|2,0:0|0:0,0:0:0:0:
345,166,123735,1,2,3:2:0:0:
345,166,123913,1,0,3:0:0:0:
151,224,124092,6,0,P|121:168|133:110,1,107.525002050877,10|0,0:0|3:0,0:0:0:0:
389,287,124449,2,0,P|355:339|299:358,1,107.525002050877,8|0,0:0|3:0,0:0:0:0:
320,56,124806,2,0,P|382:58|426:98,1,107.525002050877,10|0,0:0|3:0,0:0:0:0:
288,160,125074,5,2,0:0:0:0:
262,154,125163,1,10,0:0:0:0:
235,149,125252,1,0,0:0:0:0:
208,145,125342,5,0,3:0:0:0:
204,129,125431,1,0,3:0:0:0:
201,113,125520,6,0,L|191:46,1,53.7625010254383,8|10,3:0|3:0,0:0:0:0:
414,180,125699,2,0,L|403:247,1,53.7625010254383,10|10,0:0|0:0,0:0:0:0:
185,347,125877,6,0,P|235:288|331:299,1,161.287503076315,14|0,0:0|0:0,0:0:0:0:
425,290,129849,5,0,0:0:0:0:
