osu file format v14

[General]
AudioFilename: 5.V. Yuki no Hana.mp3
AudioLeadIn: 2500
PreviewTime: 214
Countdown: 0
SampleSet: Soft
StackLeniency: 0.7
Mode: 0
LetterboxInBreaks: 0
EpilepsyWarning: 1
WidescreenStoryboard: 1

[Editor]
Bookmarks: 214,6552,14157,16692,36974,47115,49650,57256,59791,67397
DistanceSpacing: 1.6
BeatDivisor: 2
GridSize: 4
TimelineZoom: 1.4

[Metadata]
Title:Yuki no Hana
TitleUnicode:雪の華
Artist:Yura Hatsuki
ArtistUnicode:葉月ゆら
Creator:Lan wings
Version:yanlu's Normal
Source:
Tags:Drop 竜と炎の物語 ryuu to honou no monogatari Dragon and Flame 清風明月 seifuu meigetsu c85 Sharlo yanlu spboxer3 Beren
BeatmapID:981364
BeatmapSetID:437097

[Difficulty]
HPDrainRate:3
CircleSize:3
OverallDifficulty:4
ApproachRate:5
SliderMultiplier:1
SliderTickRate:1

[Events]
//Background and Video events
0,0,"bg.jpg",0,0
//Break Periods
//Storyboard Layer 0 (Background)
//Storyboard Layer 1 (Fail)
//Storyboard Layer 2 (Pass)
//Storyboard Layer 3 (Foreground)
//Storyboard Sound Samples

[TimingPoints]
214,422.535211267606,3,2,1,50,1,0
44791,-100,3,2,1,30,0,0
45002,-100,3,2,1,50,0,0
46059,-100,3,2,1,30,0,0
46270,-100,3,2,1,50,0,0
49650,-100,3,2,1,50,0,0
80073,-100,3,2,1,20,0,0
80178,-100,3,2,1,30,0,0
85143,-100,3,2,1,20,0,0
86833,-100,3,2,1,10,0,0
87678,-100,3,2,1,5,0,0

[Colours]
Combo1 : 255,128,128
Combo2 : 255,255,255
Combo3 : 134,194,255
SliderBorder : 255,255,255

[HitObjects]
24,72,214,6,0,P|64:88|120:84,1,100
272,40,1059,2,0,P|300:36|324:40,1,50
392,76,1481,1,2,0:0:0:0:
376,264,2749,6,0,P|304:260|228:280,1,150,4|0,0:0|0:0,0:0:0:0:
164,324,3594,2,0,P|116:340|68:340,1,100,0|2,0:0|0:0,0:0:0:0:
256,156,5073,2,0,L|256:104,1,50,2|6,0:0|0:0,0:0:0:0:
444,36,6129,5,2,0:0:0:0:
492,188,6552,2,0,P|472:232|428:260,1,100,12|0,0:0|0:0,0:0:0:0:
352,240,7185,1,0,0:0:0:0:
316,312,7397,2,0,P|276:340|224:342,1,100,0|8,0:0|0:0,0:0:0:0:
76,288,8242,1,2,0:3:0:0:
36,132,8664,1,2,0:0:0:0:
88,72,8875,1,0,0:0:0:0:
160,32,9087,6,0,P|235:32|280:88,1,150,8|0,0:0|0:0,0:0:0:0:
284,164,9932,1,0,0:0:0:0:
412,260,10354,2,0,P|460:261|492:225,1,100,8|2,0:0|0:3,0:0:0:0:
444,72,11199,1,2,0:0:0:0:
288,36,11622,6,0,B|248:52|240:88|232:120|176:132,1,150,4|0,0:0|0:0,0:0:0:0:
100,108,12467,1,0,0:0:0:0:
40,256,12890,1,0,0:0:0:0:
180,332,13312,2,0,P|252:336|332:288,1,150,2|0,0:3|0:0,0:0:0:0:
364,236,14157,5,12,0:0:0:0:
220,172,14580,1,0,0:0:0:0:
108,284,15002,1,0,0:0:0:0:
252,348,15425,1,2,0:3:0:0:
412,72,16692,6,0,P|368:49|318:53,1,100,12|0,0:0|0:0,0:3:0:0:
248,92,17326,1,0,0:0:0:0:
180,48,17537,2,0,P|131:43|85:67,1,100,0|2,0:3|0:2,0:3:0:0:
0,200,18383,1,0,0:0:0:0:
140,280,18805,1,2,0:0:0:0:
196,220,19016,1,0,0:0:0:0:
263,180,19228,6,0,P|337:168|408:189,1,150,8|0,0:0|0:0,0:0:0:0:
472,240,20073,1,0,0:0:0:0:
440,80,20495,2,0,P|364:88|292:56,1,150,2|0,0:3|0:0,0:0:0:0:
240,8,21340,1,2,0:0:0:0:
112,104,21763,6,0,P|62:99|16:79,2,100,4|0|0,0:0|0:0|0:0,0:0:0:0:
268,144,23030,2,0,P|316:136|372:148,1,100,2|0,0:0|0:0,0:0:0:0:
312,296,23875,1,2,0:0:0:0:
236,316,24087,1,0,0:0:0:0:
160,296,24298,6,0,P|108:296|60:308,1,100,2|0,0:0|0:0,0:0:0:0:
156,176,25143,1,0,0:0:0:0:
308,120,25566,2,0,P|317:148|319:173,1,50,2|0,0:2|0:0,0:0:0:0:
296,244,25988,1,2,0:3:0:0:
420,140,26411,1,2,0:0:0:0:
288,44,26833,6,0,P|176:64|176:68,1,150,4|0,0:0|0:0,0:0:0:0:
132,124,27678,2,0,P|88:140|36:128,1,100,2|2,0:0|0:0,0:0:0:0:
172,220,28523,2,0,P|216:201|262:219,1,100,2|0,0:3|0:0,0:0:0:0:
316,280,29157,1,0,0:0:0:0:
388,320,29368,6,0,P|434:328|484:319,2,100,4|0|2,0:0|0:0|0:0,0:0:0:0:
408,160,30636,2,0,P|408:108|436:68,1,100,2|2,0:0|0:3,0:0:0:0:
280,32,31481,1,2,0:0:0:0:
292,112,31692,1,0,0:0:0:0:
252,184,31904,6,0,P|208:204|156:201,2,100,8|0|2,0:0|0:0|0:0,0:0:0:0:
280,32,33171,1,2,0:0:0:0:
392,144,33594,1,2,0:3:0:0:
504,256,34016,1,2,0:0:0:0:
364,332,34439,6,0,P|320:360|271:360,1,100,12|0,0:0|0:0,0:0:0:0:
196,220,35284,1,2,0:0:0:0:
128,260,35495,1,0,0:0:0:0:
48,244,35706,2,0,B|0:216|0:161,1,100,2|2,0:0|0:3,0:0:0:0:
67,16,36552,1,2,0:0:0:0:
188,119,36974,6,0,P|238:123|284:106,1,100,12|2,0:0|0:3,0:0:0:0:
414,14,37819,1,0,0:3:0:0:
492,152,38242,2,0,P|486:226|412:268,1,150,2|2,0:0|0:3,0:0:0:0:
348,264,39087,2,0,P|320:260|288:260,1,50,2|0,0:0|0:0,0:0:0:0:
223,288,39509,6,0,P|131:298|100:208,1,200,8|0,0:0|0:0,0:0:0:0:
175,71,40777,2,0,P|236:112|316:88,1,150,2|0,0:3|0:0,0:0:0:0:
368,40,41622,1,2,0:0:0:0:
304,192,42044,6,0,P|352:272|284:336,1,200,4|0,0:0|0:0,0:0:0:0:
444,348,43312,2,0,P|464:302|468:248,1,100,2|0,0:3|0:3,0:0:0:0:
312,264,44157,1,2,0:0:0:0:
160,216,44580,6,0,B|186:197|220:133|293:44|242:-56|110:-24|32:89|110:171|220:133|291:123|317:105,1,500
460,32,47115,1,4,0:0:0:0:
160,48,49228,5,2,0:0:0:0:
320,36,49650,2,0,P|360:68|380:112,1,100,12|0,0:0|0:0,0:0:0:0:
384,192,50284,1,0,0:0:0:0:
344,260,50495,2,0,P|339:309|358:355,1,100,0|8,0:0|0:0,0:0:0:0:
500,284,51340,1,2,0:3:0:0:
512,128,51763,1,2,0:0:0:0:
476,56,51974,1,0,0:0:0:0:
396,52,52185,6,0,P|331:87|256:63,1,150,12|0,0:0|0:0,0:0:0:0:
200,16,53030,1,0,0:0:0:0:
48,64,53453,2,0,P|7:100|0:147,1,100,8|2,0:0|0:3,0:0:0:0:
60,296,54298,1,2,0:0:0:0:
216,256,54721,6,0,P|288:236|368:304,1,150,8|0,0:0|0:0,0:0:0:0:
392,340,55566,1,0,0:0:0:0:
444,188,55988,1,0,0:0:0:0:
367,47,56411,2,0,P|297:25|228:51,1,150,2|0,0:3|0:0,0:0:0:0:
168,104,57256,5,4,0:0:0:0:
311,177,57678,1,0,0:0:0:0:
452,104,58101,1,2,0:2:0:0:
312,28,58523,1,0,0:0:0:0:
8,284,59791,6,0,P|56:288|104:312,1,100,4|0,0:0|0:0,0:0:0:0:
168,356,60425,1,0,0:0:0:0:
248,364,60636,2,0,P|300:356|340:328,1,100,0|2,0:0|0:3,0:0:0:0:
440,204,61481,1,2,0:3:0:0:
416,44,61904,1,2,0:0:0:0:
344,80,62115,1,0,0:0:0:0:
268,59,62326,6,0,P|223:39|176:52,1,100,12|0,0:0|0:0,0:0:0:0:
112,100,62960,1,0,0:0:0:0:
95,180,63171,2,0,P|54:206|4:206,1,100,0|8,0:0|0:0,0:0:0:0:
16,48,64016,1,2,0:3:0:0:
176,51,64439,1,2,0:0:0:0:
296,160,64861,6,0,P|308:208|300:260,1,100,8|0,0:0|0:0,0:0:0:0:
268,332,65495,1,0,0:0:0:0:
196,372,65706,1,0,0:0:0:0:
48,312,66129,6,0,P|36:264|44:212,1,100,8|2,0:3|0:3,0:0:0:0:
76,140,66763,1,0,0:0:0:0:
148,100,66974,1,0,0:0:0:0:
304,68,67397,5,4,0:0:0:0:
452,116,67819,1,2,0:3:0:0:
302,163,68242,1,0,0:0:0:0:
395,37,68664,1,2,0:0:0:0:
395,192,69087,1,0,0:0:0:0:
248,252,69509,1,0,0:1:0:0:
126,157,69932,5,4,0:0:0:0:
168,303,70354,1,2,0:3:0:0:
221,158,70777,1,0,0:0:0:0:
90,245,71199,1,2,0:0:0:0:
85,83,71622,1,0,0:0:0:0:
223,1,72044,1,0,0:0:0:0:
361,78,72467,5,4,0:0:0:0:
365,238,72889,1,0,0:0:0:0:
227,321,73311,1,0,0:0:0:0:
90,245,73735,1,2,0:0:0:0:
228,162,74157,1,0,0:2:0:0:
365,238,74580,1,0,0:1:0:0:
504,156,75002,5,4,0:0:0:0:
343,154,75425,1,2,0:3:0:0:
463,84,75847,1,0,0:0:0:0:
384,224,76270,1,2,0:0:0:0:
383,84,76693,1,0,0:0:0:0:
463,224,77115,1,0,0:0:0:0:
332,316,77537,5,4,0:0:0:0:
188,244,77960,1,2,0:3:0:0:
324,164,78383,1,2,0:3:0:0:
247,304,78805,2,0,P|155:321|104:242,1,200,8|0,0:0|0:0,0:0:0:0:
207,127,80073,6,0,P|214:177|198:223,1,100,10|2,0:3|0:0,0:0:0:0:
48,164,80918,1,0,0:3:0:0:
160,52,81340,1,2,0:0:0:0:
256,192,82608,12,0,87678,0:0:0:0:
