osu file format v14

[General]
AudioFilename: 5.V. Yuki no Hana.mp3
AudioLeadIn: 2500
PreviewTime: 214
Countdown: 0
SampleSet: Soft
StackLeniency: 0.7
Mode: 0
LetterboxInBreaks: 0
EpilepsyWarning: 1
WidescreenStoryboard: 1

[Editor]
DistanceSpacing: 2.8
BeatDivisor: 4
GridSize: 4
TimelineZoom: 2

[Metadata]
Title:Yuki no Hana
TitleUnicode:雪の華
Artist:Yura Hatsuki
ArtistUnicode:葉月ゆら
Creator:Lan wings
Version:Sharlo's Insane
Source:
Tags:Drop 竜と炎の物語 ryuu to honou no monogatari Dragon and Flame 清風明月 seifuu meigetsu c85 Sharlo yanlu spboxer3 Beren
BeatmapID:968350
BeatmapSetID:437097

[Difficulty]
HPDrainRate:6
CircleSize:4
OverallDifficulty:7
ApproachRate:8.3
SliderMultiplier:1.6
SliderTickRate:1

[Events]
//Background and Video events
0,0,"bg.jpg",0,0
//Break Periods
//Storyboard Layer 0 (Background)
//Storyboard Layer 1 (Fail)
//Storyboard Layer 2 (Pass)
//Storyboard Layer 3 (Foreground)
//Storyboard Sound Samples

[TimingPoints]
214,422.535211267606,3,2,1,50,1,0
5284,-90.9090909090909,3,2,1,50,0,0
6023,-90.9090909090909,3,2,1,5,0,0
6129,-125,3,2,1,50,0,0
6446,-125,3,2,1,5,0,0
6552,-100,3,2,1,50,0,0
11199,-100,3,2,1,50,0,0
11622,-100,3,2,1,50,0,0
67397,-100,3,2,1,50,0,0
80073,-200,3,2,1,50,0,0
82608,-166.666666666667,3,3,3,20,0,0
87678,-166.666666666667,3,2,1,10,0,0

[Colours]
Combo1 : 255,128,128
Combo2 : 255,255,255
Combo3 : 134,194,255
SliderBorder : 255,255,255

[HitObjects]
107,133,214,5,6,0:0:0:0:
70,273,425,1,0,0:0:0:0:
211,236,636,1,0,0:0:0:0:
48,192,847,1,2,0:0:0:0:
152,296,1059,1,2,0:0:0:0:
188,155,1270,1,0,0:0:0:0:
300,236,1481,5,2,0:0:0:0:
300,236,2537,1,2,0:0:0:0:
300,236,2643,1,0,0:0:0:0:
300,236,2749,5,6,0:2:0:0:
404,133,2960,1,0,0:0:0:0:
441,273,3171,1,0,0:0:0:0:
323,155,3383,1,2,0:0:0:0:
360,296,3594,1,2,0:0:0:0:
463,192,3805,1,0,0:0:0:0:
256,96,4016,5,2,0:0:0:0:
256,96,5073,1,2,0:0:0:0:
256,96,5178,1,2,0:0:0:0:
256,96,5284,6,0,B|252:308|100:236|176:124|304:240,1,308.000009399414,6|0,0:0|0:0,0:0:0:0:
304,240,6129,6,0,P|348:256|408:244,1,96
488,204,6552,6,0,P|436:264|460:360,1,160,0|2,3:0|0:3,0:0:0:0:
448,116,7185,1,0,0:0:0:0:
360,152,7397,2,0,B|200:164,1,160,0|8,0:0|0:0,0:0:0:0:
128,228,8030,5,0,0:0:0:0:
108,132,8242,1,2,0:3:0:0:
39,197,8453,1,0,0:0:0:0:
140,328,8664,2,0,L|228:316,1,80,2|0,0:3|0:0,0:0:0:0:
438,293,9087,6,0,P|376:248|300:264,2,160,8|2|0,0:0|0:3|0:0,0:0:0:0:
300,264,10354,5,2,0:3:0:0:
212,220,10566,1,0,0:0:0:0:
219,317,10777,1,2,0:0:0:0:
296,164,10988,1,0,0:0:0:0:
120,178,11199,6,0,P|76:214|24:192,1,120,2|0,0:0|0:0,0:0:0:0:
24,192,11622,5,10,0:0:0:0:
212,220,11833,1,0,0:0:0:0:
84,268,12044,1,2,0:3:0:0:
156,92,12256,1,0,0:0:0:0:
240,136,12467,2,0,P|280:144|328:140,1,80,2|0,0:3|0:0,0:0:0:0:
505,208,12890,6,0,P|430:187|364:228,1,160,8|2,0:0|0:0,0:0:0:0:
364,227,14157,5,8,0:3:0:0:
284,172,14368,1,0,0:0:0:0:
356,320,14580,1,0,0:0:0:0:
452,188,14791,1,2,0:3:0:0:
276,268,15002,5,0,0:0:0:0:
188,164,15214,1,2,0:3:0:0:
180,260,15425,1,2,0:0:0:0:
284,172,15636,1,0,0:0:0:0:
276,268,15847,5,0,3:0:0:0:
284,172,16059,1,0,0:0:0:0:
188,164,16270,1,0,0:0:0:0:
119,333,16692,6,0,L|112:240,1,80,14|2,0:0|0:3,0:0:0:0:
169,100,17115,1,2,0:3:0:0:
344,92,17326,1,0,0:0:0:0:
263,202,17537,2,0,P|223:203|184:196,1,80,2|0,0:0|0:0,0:0:0:0:
76,84,17960,5,2,0:0:0:0:
184,196,18171,1,2,0:3:0:0:
240,36,18383,1,2,0:3:0:0:
112,253,18594,1,2,0:3:0:0:
263,202,18805,1,0,0:0:0:0:
169,100,19016,1,0,0:0:0:0:
336,264,19228,6,0,B|400:284|432:248|500:268,1,160,14|0,0:0|0:0,0:0:0:0:
456,356,19861,1,2,0:3:0:0:
360,172,20073,2,0,L|356:88,1,80,2|0,0:0|0:0,0:0:0:0:
224,180,20495,5,2,0:0:0:0:
284,28,20706,1,0,0:0:0:0:
360,172,20918,2,0,P|430:204|502:175,1,160,2|2,0:3|0:0,0:0:0:0:
356,92,21552,1,0,0:0:0:0:
356,92,21657,1,0,0:0:0:0:
356,92,21763,5,14,0:0:0:0:
296,244,21974,1,0,0:0:0:0:
224,180,22185,2,0,P|216:144|224:100,1,80,2|2,0:3|0:0,0:0:0:0:
168,260,22608,2,0,P|132:268|88:260,1,80,2|0,0:3|0:0,0:0:0:0:
72,252,22925,1,0,0:0:0:0:
56,240,23030,6,0,L|68:328,1,80,6|0,0:0|0:0,0:0:0:0:
264,280,23453,1,2,0:3:0:0:
204,352,23664,1,2,0:3:0:0:
232,188,23875,2,0,P|272:184|320:200,1,80,0|0,3:0|0:0,0:0:0:0:
336,212,24192,1,0,0:0:0:0:
336,212,24298,5,6,0:0:0:0:
428,86,24509,1,0,0:0:0:0:
428,242,24721,1,2,0:3:0:0:
488,164,24932,1,0,0:0:0:0:
252,72,25143,2,0,L|168:80,1,80,2|0,0:3|0:0,0:0:0:0:
148,100,25460,1,0,0:0:0:0:
148,100,25566,5,6,0:0:0:0:
168,268,25777,1,2,0:0:0:0:
112,188,25988,1,2,0:3:0:0:
264,260,26199,1,0,0:0:0:0:
72,276,26411,1,8,0:0:0:0:
208,180,26622,1,0,0:0:0:0:
224,348,26833,6,0,L|144:360,1,80,8|0,0:0|0:0,0:0:0:0:
360,252,27256,2,0,L|456:240,1,80,0|0,0:0|0:0,0:0:0:0:
252,72,27678,1,2,0:0:0:0:
224,348,27890,1,2,0:0:0:0:
252,72,28101,6,0,L|172:64,1,80,6|0,3:2|0:0,0:0:0:0:
296,228,28523,2,0,P|307:191|303:151,1,80
411,20,28946,2,0,P|375:34|348:63,1,80,0|0,3:0|0:0,0:0:0:0:
448,280,29368,5,8,0:0:0:0:
499,114,29580,1,0,0:0:0:0:
296,229,29791,1,0,0:0:0:0:
448,280,30002,1,0,0:0:0:0:
336,360,30214,1,2,0:0:0:0:
399,145,30425,1,2,0:0:0:0:
336,360,30636,5,6,0:0:0:0:
296,229,30847,1,0,0:0:0:0:
252,316,31059,1,2,0:3:0:0:
212,185,31270,1,0,3:0:0:0:
88,264,31481,2,0,P|128:272|168:272,1,80,0|0,0:0|3:0,0:0:0:0:
296,229,31904,6,0,P|300:152|247:95,1,160,8|0,0:0|0:0,0:0:0:0:
124,136,32537,1,0,0:0:0:0:
384,188,32749,1,2,0:0:0:0:
167,272,32960,1,2,0:0:0:0:
383,188,33171,6,0,P|376:226|381:266,1,80,6|0,0:0|0:0,0:0:0:0:
422,99,33594,2,0,P|382:92|344:99,1,80,2|0,0:3|0:0,0:0:0:0:
248,95,34016,2,0,P|253:134|275:168,1,80,2|0,0:3|3:0,0:0:0:0:
383,188,34439,5,8,0:0:0:0:
247,96,34650,1,0,0:0:0:0:
316,268,34861,1,0,0:0:0:0:
422,99,35073,1,0,0:0:0:0:
168,284,35284,1,2,0:0:0:0:
422,99,35495,1,2,0:0:0:0:
167,284,35706,6,0,P|163:323|172:362,2,80,6|0|2,0:0|0:0|0:3,0:0:0:0:
269,88,36340,1,8,0:0:0:0:
180,176,36552,2,0,L|100:182,1,80,0|0,3:0|0:0,0:0:0:0:
264,276,36974,6,0,L|343:269,1,80,8|0,0:0|0:0,0:0:0:0:
350,82,37397,2,0,L|270:88,1,80,2|0,0:3|0:0,0:0:0:0:
252,80,37714,1,0,0:0:0:0:
236,72,37819,2,0,P|160:60|88:104,1,160,2|8,0:0|0:0,0:0:0:0:
180,176,38453,5,0,0:0:0:0:
272,256,38664,1,2,0:0:0:0:
128,284,38875,1,0,0:0:0:0:
324,148,39087,2,0,P|368:140|412:152,1,80,0|0,0:0|0:0,0:0:0:0:
428,312,39509,5,8,0:0:0:0:
367,240,39721,1,0,0:0:0:0:
272,256,39932,1,2,0:0:0:0:
460,223,40143,1,0,0:0:0:0:
494,132,40354,2,0,P|481:94|449:64,1,80
325,88,40777,6,0,B|313:103|292:108|292:108|341:159|401:147,1,160,2|2,0:3|0:0,0:0:0:0:
381,17,41411,1,2,0:3:0:0:
220,52,41622,2,0,P|204:80|204:132,1,80,0|0,0:0|3:0,0:0:0:0:
278,314,42044,6,0,P|314:245|287:172,1,160,10|0,0:0|0:0,0:0:0:0:
216,236,42678,1,0,0:0:0:0:
278,314,42890,2,0,P|320:320|358:314,1,80,2|0,0:0|0:0,0:0:0:0:
128,196,43312,6,0,B|72:216|8:184|8:184|48:164,1,160,2|0,3:2|3:0,0:0:0:0:
124,48,43946,1,0,0:0:0:0:
215,158,44157,2,0,P|224:197|216:236,1,80,2|0,3:3|0:0,0:0:0:0:
176,324,44580,5,2,0:0:0:0:
308,228,44791,1,2,3:0:0:0:
296,60,45002,5,0,0:0:0:0:
308,228,45214,1,2,3:0:0:0:
460,304,45425,5,0,0:0:0:0:
308,228,45636,1,2,0:3:0:0:
252,144,45847,5,2,0:0:0:0:
364,308,46059,1,0,0:0:0:0:
348,140,46270,1,2,0:0:0:0:
272,316,46481,1,2,0:0:0:0:
400,220,46692,5,0,0:0:0:0:
216,235,46904,1,2,0:0:0:0:
104,88,47115,1,4,0:2:0:0:
104,88,49650,6,0,P|96:176|108:252,1,160,0|2,3:0|0:3,0:0:0:0:
164,360,50284,1,0,0:0:0:0:
287,323,50495,2,0,P|328:316|368:320,1,80,0|0,0:0|0:0,0:0:0:0:
228,212,50918,5,8,0:0:0:0:
164,360,51129,1,0,0:0:0:0:
106,246,51340,1,2,0:3:0:0:
288,324,51552,1,0,0:0:0:0:
392,252,51763,2,0,L|372:164,1,80,2|0,0:3|0:0,0:0:0:0:
392,48,52185,6,0,P|328:88|244:64,1,160,8|2,0:0|0:3,0:0:0:0:
138,31,52819,1,0,0:0:0:0:
36,92,53030,2,0,L|29:171,1,80
105,230,53453,5,2,0:3:0:0:
138,31,53664,1,0,0:0:0:0:
203,202,53875,1,2,0:0:0:0:
29,171,54087,1,0,0:0:0:0:
249,68,54298,1,2,0:0:0:0:
249,68,54721,5,8,0:0:0:0:
359,259,54932,1,0,0:0:0:0:
359,131,55143,1,2,0:3:0:0:
248,323,55354,1,0,0:0:0:0:
359,259,55566,1,2,0:3:0:0:
138,259,55777,1,0,0:0:0:0:
248,323,55988,6,0,P|320:328|360:256,1,160,2|2,0:3|0:0,0:0:0:0:
136,128,56622,1,0,0:0:0:0:
28,196,56833,2,0,L|48:356,1,160,0|8,0:0|0:3,0:0:0:0:
138,259,57467,5,0,0:0:0:0:
248,192,57678,1,0,0:0:0:0:
136,128,57890,1,0,0:0:0:0:
252,320,58101,5,0,0:0:0:0:
248,192,58312,1,0,0:0:0:0:
360,252,58523,5,2,0:3:0:0:
252,320,58735,1,0,0:0:0:0:
138,259,58946,5,0,3:0:0:0:
248,60,59157,1,0,0:0:0:0:
360,252,59368,1,2,0:3:0:0:
360,252,59791,6,0,P|368:204|360:144,1,80,14|2,0:0|0:3,0:0:0:0:
452,80,60214,2,0,P|444:40|445:0,1,80,2|0,0:0|0:0,0:0:0:0:
488,204,60636,1,2,3:3:0:0:
328,52,60847,1,0,0:0:0:0:
248,152,61059,6,0,L|156:144,1,80,2|2,0:0|0:3,0:0:0:0:
56,274,61481,2,0,L|136:268,1,80,2|2,0:3|0:3,0:0:0:0:
292,308,61904,1,2,0:0:0:0:
248,152,62115,1,0,0:0:0:0:
113,61,62326,6,0,P|109:101|120:140,1,80,14|0,0:0|0:0,0:0:0:0:
224,244,62749,1,0,0:0:0:0:
364,204,62960,1,2,0:0:0:0:
462,342,63171,2,0,P|422:343|384:332,1,80,2|0,0:3|0:0,0:0:0:0:
224,244,63594,5,2,3:3:0:0:
260,368,63805,1,0,0:0:0:0:
276,160,64016,2,0,P|176:156|132:212,1,160,2|2,0:3|0:0,0:0:0:0:
132,340,64650,1,0,0:0:0:0:
348,276,64861,5,14,0:0:0:0:
224,244,65073,1,0,0:0:0:0:
260,368,65284,1,0,0:0:0:0:
132,340,65495,1,2,0:0:0:0:
56,224,65706,2,0,L|63:145,1,80,2|0,0:3|0:0,0:0:0:0:
199,52,66129,6,0,B|184:147|184:147|207:62|294:78|325:129|294:191,1,320,8|0,0:3|0:0,0:0:0:0:
294,191,67397,5,6,0:0:0:0:
198,90,67608,1,2,0:0:0:0:
157,247,67819,1,0,0:0:0:0:
356,132,68030,1,2,0:0:0:0:
313,289,68242,1,0,0:0:0:0:
217,191,68453,1,2,0:0:0:0:
372,190,68664,5,6,0:0:0:0:
222,171,68875,1,2,0:0:0:0:
256,304,69087,1,0,0:0:0:0:
256,74,69298,1,2,0:0:0:0:
289,210,69509,1,0,0:0:0:0:
142,190,69721,1,2,0:0:0:0:
275,224,69932,5,14,0:0:0:0:
315,90,70143,1,2,0:0:0:0:
158,133,70354,1,2,0:3:0:0:
357,248,70566,1,2,0:0:0:0:
200,289,70777,1,2,0:3:0:0:
237,157,70988,1,2,0:0:0:0:
313,289,71199,5,6,0:0:0:0:
257,153,71411,1,2,0:0:0:0:
157,247,71622,1,0,0:0:0:0:
356,132,71833,1,2,0:0:0:0:
257,230,72044,1,0,0:0:0:0:
198,90,72256,1,2,0:0:0:0:
237,225,72467,5,14,0:0:0:0:
372,190,72678,1,2,0:0:0:0:
256,74,72890,1,2,0:3:0:0:
256,304,73101,1,2,0:0:0:0:
142,190,73312,1,2,0:3:0:0:
276,158,73523,1,2,0:0:0:0:
200,289,73735,5,6,0:0:0:0:
290,173,73946,1,2,0:0:0:0:
158,133,74157,1,0,0:0:0:0:
357,248,74368,1,2,0:0:0:0:
223,211,74580,1,0,0:0:0:0:
315,90,74791,1,2,0:0:0:0:
218,192,75002,5,14,0:0:0:0:
313,289,75214,1,2,0:0:0:0:
356,132,75425,1,2,0:3:0:0:
157,247,75636,1,2,0:0:0:0:
198,90,75847,1,2,0:3:0:0:
295,193,76059,1,2,0:0:0:0:
143,192,76270,5,6,0:0:0:0:
289,212,76481,1,2,0:0:0:0:
256,74,76692,1,0,0:0:0:0:
256,304,76904,1,2,0:0:0:0:
222,173,77115,1,0,0:0:0:0:
372,190,77326,1,2,0:0:0:0:
169,39,77537,5,14,0:0:0:0:
256,304,77749,1,2,0:0:0:0:
430,189,77960,1,2,0:3:0:0:
158,133,78171,1,2,0:0:0:0:
172,337,78383,1,2,0:3:0:0:
356,132,78594,1,2,0:0:0:0:
86,189,78805,5,14,0:0:0:0:
357,248,79016,1,2,0:0:0:0:
344,39,79228,1,0,0:0:0:0:
157,247,79439,1,2,0:0:0:0:
343,345,79650,1,0,0:0:0:0:
256,74,79861,1,0,0:0:0:0:
216,191,80073,6,0,P|255:199|295:193,2,80,12|2|2,0:0|0:0|0:2,0:0:0:0:
230,112,81340,6,0,P|145:154|192:268,1,240,2|14,0:0|0:0,0:0:0:0:
256,192,82819,12,0,87678,0:0:0:0:
