osu file format v14

[General]
AudioFilename: 5.V. Yuki no Hana.mp3
AudioLeadIn: 2500
PreviewTime: 214
Countdown: 0
SampleSet: Soft
StackLeniency: 0.7
Mode: 0
LetterboxInBreaks: 0
EpilepsyWarning: 1
WidescreenStoryboard: 1

[Editor]
Bookmarks: 214,6552,14157,16692,26833,36974,47115,49650,57256,59791,67397
DistanceSpacing: 2.5
BeatDivisor: 4
GridSize: 4
TimelineZoom: 3.199999

[Metadata]
Title:Yuki no Hana
TitleUnicode:雪の華
Artist:Yura Hatsuki
ArtistUnicode:葉月ゆら
Creator:Lan wings
Version:Hard
Source:
Tags:Drop 竜と炎の物語 ryuu to honou no monogatari Dragon and Flame 清風明月 seifuu meigetsu c85 Sharlo yanlu spboxer3 Beren
BeatmapID:941267
BeatmapSetID:437097

[Difficulty]
HPDrainRate:5
CircleSize:3.5
OverallDifficulty:6
ApproachRate:7
SliderMultiplier:1.4
SliderTickRate:1

[Events]
//Background and Video events
0,0,"bg.jpg",0,0
//Break Periods
//Storyboard Layer 0 (Background)
//Storyboard Layer 1 (Fail)
//Storyboard Layer 2 (Pass)
//Storyboard Layer 3 (Foreground)
//Storyboard Sound Samples

[TimingPoints]
214,422.535211267606,3,2,1,50,1,0
5284,-133.333333333333,3,2,1,50,0,0
6129,-100,3,2,1,50,0,0
6552,-133.333333333333,3,2,1,50,0,0
82608,-133.333333333333,3,3,3,50,0,0
83030,-133.333333333333,3,3,3,40,0,0
83453,-133.333333333333,3,3,3,30,0,0
84298,-133.333333333333,3,3,3,25,0,0
85143,-133.333333333333,3,3,3,20,0,0
85988,-133.333333333333,3,3,3,15,0,0
86833,-133.333333333333,3,3,3,10,0,0
87678,-133.333333333333,3,3,3,5,0,0

[Colours]
Combo1 : 255,128,128
Combo2 : 255,255,255
Combo3 : 134,194,255
SliderBorder : 255,255,255

[HitObjects]
432,72,214,5,6,0:0:0:0:
340,108,425,2,0,P|276:116|256:112,2,70,0|0|2,0:0|0:0|0:0,0:0:0:0:
420,168,1059,2,0,P|423:202|438:234,1,70,0|2,0:0|0:0,0:0:0:0:
500,316,1481,1,2,0:0:0:0:
292,68,2537,5,2,0:0:0:0:
292,68,2643,1,2,0:0:0:0:
292,68,2749,1,6,0:2:0:0:
236,152,2960,2,0,P|230:187|237:221,2,70,0|0|2,0:0|0:0|0:0,0:0:0:0:
188,64,3594,1,2,0:0:0:0:
128,144,3805,2,0,P|92:140|61:125,1,70,0|2,0:0|0:0,0:0:0:0:
376,304,5073,5,2,0:0:0:0:
384,292,5178,1,2,0:0:0:0:
392,280,5284,1,6,0:0:0:0:
392,280,6129,5,0,0:0:0:0:
440,164,6552,2,0,P|368:164|292:200,1,157.500006008148,0|0,3:0|0:0,0:0:0:0:
256,292,7397,1,0,0:0:0:0:
200,156,7819,2,0,P|128:156|52:120,1,157.500006008148,8|0,0:0|0:0,0:0:0:0:
108,232,8664,6,0,P|103:264|92:288,1,52.5000020027161,2|0,0:3|0:0,0:0:0:0:
0,348,9087,2,0,P|74:325|152:338,1,157.500006008148,8|0,0:0|0:0,0:0:0:0:
220,380,9932,1,0,0:0:0:0:
352,284,10354,6,0,P|360:308|363:334,1,52.5000020027161,2|0,0:3|0:0,0:0:0:0:
292,232,10777,2,0,P|283:207|280:181,1,52.5000020027161,2|0,0:0|0:0,0:0:0:0:
316,108,11199,1,2,0:0:0:0:
120,80,11622,6,0,P|128:128|84:240,1,157.500006008148,8|0,0:0|0:0,0:0:0:0:
28,272,12467,2,0,L|40:332,1,52.5000020027161,2|0,0:3|0:0,0:0:0:0:
22,195,12890,6,0,P|39:149|133:74,1,157.500006008148,8|0,0:0|0:0,0:0:0:0:
196,64,13735,2,0,L|260:68,1,52.5000020027161
328,80,14157,5,8,0:3:0:0:
388,128,14368,1,0,0:0:0:0:
412,204,14580,1,0,0:0:0:0:
388,280,14791,1,2,0:3:0:0:
472,268,15002,5,0,0:0:0:0:
388,280,15214,1,2,0:3:0:0:
327,330,15425,2,0,P|224:352|120:324,1,210.000008010865,2|0,0:0|0:0,0:0:0:0:
124,326,16692,6,0,P|140:252|112:160,1,157.500006008148,14|0,0:0|0:0,0:0:0:0:
24,104,17537,1,2,0:0:0:0:
208,172,17960,2,0,P|231:99|301:34,1,157.500006008148,2|2,0:0|0:3,0:0:0:0:
160,60,18805,2,0,P|132:56|92:68,1,52.5000020027161
287,42,19228,6,0,P|355:54|459:38,1,157.500006008148,14|2,0:0|0:3,0:0:0:0:
512,120,20073,1,2,0:0:0:0:
356,192,20495,2,0,L|424:212,1,52.5000020027161,2|0,0:0|0:0,0:0:0:0:
404,280,20918,2,0,L|336:300,1,52.5000020027161,2|0,0:3|0:0,0:0:0:0:
472,248,21340,1,2,0:0:0:0:
256,364,21763,6,0,P|160:364|96:324,1,157.500006008148,14|2,0:0|0:0,0:0:0:0:
60,276,22608,1,2,0:3:0:0:
148,160,23030,6,0,P|218:193|296:188,1,157.500006008148,6|2,0:0|0:3,0:0:0:0:
368,168,23875,2,0,L|428:148,1,52.5000020027161,0|0,3:0|0:0,0:0:0:0:
464,212,24298,2,0,P|420:160|412:56,1,157.500006008148,6|0,0:0|0:0,0:0:0:0:
432,4,25143,1,2,0:3:0:0:
307,84,25566,6,0,P|281:84|257:75,1,52.5000020027161,6|2,0:0|0:0,0:0:0:0:
300,196,25988,2,0,P|312:173|332:156,1,52.5000020027161,2|0,0:3|0:0,0:0:0:0:
207,133,26411,2,0,P|220:155|225:181,1,52.5000020027161,8|0,0:0|0:0,0:0:0:0:
248,256,26833,6,0,P|196:300|170:238,1,157.500006008148,8|0,0:0|0:0,0:0:0:0:
225,181,27678,2,0,P|220:155|207:133,1,52.5000020027161,2|2,0:0|0:0,0:0:0:0:
156,80,28101,2,0,P|68:84|40:72,2,105.000004005432,6|2|0,3:2|0:2|3:0,0:0:0:0:
295,44,29368,6,0,P|373:33|450:47,1,157.500006008148,8|0,0:0|0:0,0:0:0:0:
464,120,30214,2,0,L|476:184,1,52.5000020027161,2|2,0:0|0:0,0:0:0:0:
488,264,30636,2,0,P|420:272|480:316,1,157.500006008148,6|0,0:0|3:0,0:0:0:0:
473,171,31481,2,0,L|464:120,1,52.5000020027161,0|0,0:0|3:0,0:0:0:0:
356,96,31904,6,0,P|292:112|176:100,1,157.500006008148,8|0,0:0|0:0,0:0:0:0:
64,72,32749,1,2,0:0:0:0:
64,72,32960,1,2,0:0:0:0:
64,72,33171,2,0,P|68:136|44:208,2,105.000004005432,6|0|2,3:2|3:2|0:3,0:0:0:0:
201,107,34439,6,0,P|279:113|356:96,1,157.500006008148,8|0,0:0|0:0,0:0:0:0:
464,40,35284,1,2,0:0:0:0:
464,40,35495,1,2,0:0:0:0:
464,40,35706,2,0,L|520:64,1,52.5000020027161,6|0,0:0|3:0,0:0:0:0:
508,136,36129,2,0,L|459:156,1,52.5000020027161,2|8,0:2|0:0,0:0:0:0:
479,227,36552,2,0,P|484:252|481:278,1,52.5000020027161,0|0,3:0|0:0,0:0:0:0:
432,332,36974,6,0,L|304:312,2,105.000004005432,8|2|2,0:0|0:3|0:0,0:0:0:0:
404,212,38242,2,0,L|276:192,1,105.000004005432,8|2,0:0|0:0,0:0:0:0:
224,184,38875,1,0,0:0:0:0:
148,176,39087,2,0,L|120:236,1,52.5000020027161,0|0,0:0|0:0,0:0:0:0:
192,116,39509,2,0,L|147:20,2,105.000004005432,8|2|0,0:0|0:0|0:0,0:0:0:0:
336,168,40777,6,0,P|348:240|320:320,1,157.500006008148,2|2,0:3|0:2,0:0:0:0:
268,368,41622,1,2,3:2:0:0:
450,314,42044,2,0,P|424:241|436:164,1,157.500006008148,10|0,0:0|0:0,0:0:0:0:
468,96,42890,2,0,L|532:72,1,52.5000020027161,2|0,0:0|0:0,0:0:0:0:
392,56,43312,2,0,P|344:80|276:84,1,105.000004005432,2|0,3:2|0:0,0:0:0:0:
164,56,43946,1,0,0:0:0:0:
293,85,44157,5,2,3:3:0:0:
245,209,44368,1,0,0:0:0:0:
377,189,44580,1,8,0:2:0:0:
256,192,44685,12,0,47115,0:0:0:0:
120,280,49228,5,0,0:0:0:0:
72,164,49650,2,0,P|144:164|220:200,1,157.500006008148,0|0,3:0|0:0,0:0:0:0:
256,292,50495,1,0,0:0:0:0:
312,156,50918,2,0,P|384:156|460:120,1,157.500006008148,8|0,0:0|0:0,0:0:0:0:
396,284,51763,6,0,L|412:348,1,52.5000020027161,2|0,0:3|0:0,0:0:0:0:
480,356,52185,2,0,P|405:333|327:346,1,157.500006008148,8|0,0:0|0:0,0:0:0:0:
256,368,53030,1,0,0:0:0:0:
176,296,53453,6,0,P|167:320|164:346,1,52.5000020027161,2|0,0:3|0:0,0:0:0:0:
220,232,53875,2,0,P|228:207|231:181,1,52.5000020027161,2|0,0:0|0:0,0:0:0:0:
200,112,54298,1,2,0:0:0:0:
392,80,54721,6,0,P|384:128|428:240,1,157.500006008148,8|0,0:0|0:0,0:0:0:0:
484,272,55566,2,0,L|472:332,1,52.5000020027161,2|0,0:3|0:0,0:0:0:0:
490,195,55988,6,0,P|472:149|378:74,1,157.500006008148,2|0,0:3|0:0,0:0:0:0:
316,68,56833,2,0,L|248:68,1,52.5000020027161
184,80,57256,5,8,0:3:0:0:
124,128,57467,1,0,0:0:0:0:
112,204,57678,1,0,0:0:0:0:
136,277,57890,1,0,0:0:0:0:
60,264,58101,5,0,0:0:0:0:
136,277,58312,1,0,0:0:0:0:
184,340,58523,2,0,P|287:362|391:334,1,210.000008010865,2|2,0:3|0:3,0:0:0:0:
387,336,59791,6,0,P|371:262|399:170,1,157.500006008148,14|0,0:0|0:0,0:0:0:0:
444,128,60636,1,2,3:3:0:0:
304,172,61059,2,0,P|280:99|210:34,1,157.500006008148,2|2,0:0|0:3,0:0:0:0:
360,68,61904,2,0,P|388:64|428:76,1,52.5000020027161,2|0,0:0|0:0,0:0:0:0:
225,42,62326,6,0,P|157:54|53:38,1,157.500006008148,14|2,0:0|0:0,0:0:0:0:
24,104,63171,1,2,0:3:0:0:
156,192,63594,2,0,L|88:212,1,52.5000020027161,2|0,3:3|0:0,0:0:0:0:
108,280,64016,2,0,L|176:300,1,52.5000020027161,2|0,0:3|0:0,0:0:0:0:
40,248,64439,1,2,0:0:0:0:
256,364,64861,6,0,P|352:364|416:324,1,157.500006008148,14|2,0:0|0:0,0:0:0:0:
452,276,65706,1,2,0:3:0:0:
364,160,66129,6,0,P|293:193|215:188,1,157.500006008148,8|0,0:3|0:0,0:0:0:0:
144,168,66974,2,0,L|84:148,1,52.5000020027161,0|0,0:0|0:0,0:0:0:0:
72,276,67397,6,0,L|52:356,1,52.5000020027161,6|2,0:0|0:0,0:0:0:0:
164,364,67819,2,0,L|164:312,1,52.5000020027161,0|2,0:0|0:0,0:0:0:0:
260,280,68242,2,0,L|272:330,1,52.5000020027161,0|2,0:0|0:0,0:0:0:0:
200,104,68664,6,0,P|226:104|250:95,1,52.5000020027161,6|2,0:0|0:0,0:0:0:0:
207,215,69087,2,0,P|194:192|174:175,1,52.5000020027161,0|2,0:0|0:0,0:0:0:0:
300,152,69509,2,0,P|286:174|281:200,1,52.5000020027161,0|2,0:0|0:0,0:0:0:0:
420,116,69932,6,0,L|476:108,1,52.5000020027161,14|2,0:0|0:0,0:0:0:0:
448,192,70354,2,0,L|520:192,1,52.5000020027161,2|2,0:3|0:0,0:0:0:0:
420,268,70777,2,0,L|476:276,1,52.5000020027161,2|2,0:3|0:0,0:0:0:0:
252,303,71199,6,0,P|226:311|200:312,1,52.5000020027161,6|2,0:0|0:0,0:0:0:0:
292,236,71622,2,0,P|310:254|325:276,1,52.5000020027161,0|2,0:0|0:0,0:0:0:0:
214,235,72044,2,0,P|220:209|232:186,1,52.5000020027161,0|2,0:0|0:0,0:0:0:0:
136,76,72467,5,14,0:0:0:0:
146,67,72678,1,2,0:0:0:0:
48,112,72890,1,2,0:3:0:0:
36,112,73101,1,2,0:0:0:0:
124,168,73312,1,2,0:3:0:0:
131,182,73523,1,2,0:0:0:0:
288,120,73735,6,0,L|340:96,1,52.5000020027161,6|2,0:0|0:0,0:0:0:0:
432,56,74157,1,0,0:0:0:0:
479,161,74368,6,0,L|427:137,1,52.5000020027161,2|0,0:0|0:0,0:0:0:0:
335,97,74790,1,2,0:0:0:0:
344,264,75002,5,14,0:0:0:0:
359,264,75214,1,2,0:0:0:0:
270,207,75425,1,2,0:3:0:0:
267,193,75636,1,2,0:0:0:0:
257,301,75847,1,2,0:3:0:0:
251,311,76059,1,2,0:0:0:0:
192,151,76270,6,0,L|136:127,1,52.5000020027161,6|2,0:0|0:0,0:0:0:0:
48,87,76692,1,0,0:0:0:0:
0,195,76904,6,0,L|56:171,1,52.5000020027161,2|0,0:0|0:0,0:0:0:0:
144,131,77326,1,2,0:0:0:0:
188,280,77537,6,0,L|208:336,2,52.5000020027161,14|2|2,0:0|0:0|0:3,0:0:0:0:
324,144,78171,5,2,0:0:0:0:
243,221,78383,1,2,0:3:0:0:
351,253,78594,1,2,0:0:0:0:
460,160,78805,6,0,P|486:162|512:160,1,52.5000020027161,14|2,0:0|0:0,0:0:0:0:
412,80,79228,2,0,P|363:79|335:87,1,52.5000020027161,0|2,0:0|0:0,0:0:0:0:
232,144,79650,2,0,P|258:146|284:144,1,52.5000020027161,0|2,0:0|0:0,0:0:0:0:
152,200,80073,1,12,0:0:0:0:
52,72,80495,5,2,0:0:0:0:
88,60,80918,1,2,0:2:0:0:
120,48,81340,1,2,0:0:0:0:
256,192,82608,5,14,0:3:0:0:
256,192,82714,12,0,87678,2:0:0:0:
