osu file format v14

[General]
AudioFilename: 5.V. Yuki no Hana.mp3
AudioLeadIn: 2500
PreviewTime: 214
Countdown: 0
SampleSet: Soft
StackLeniency: 0.7
Mode: 0
LetterboxInBreaks: 0
EpilepsyWarning: 1
WidescreenStoryboard: 1

[Editor]
Bookmarks: 214,6552,14157,16692,26833,36974,47115,49650,57256,59791,67397
DistanceSpacing: 1.5
BeatDivisor: 1
GridSize: 4
TimelineZoom: 2.2

[Metadata]
Title:Yuki no Hana
TitleUnicode:雪の華
Artist:Yura Hatsuki
ArtistUnicode:葉月ゆら
Creator:Lan wings
Version:Easy
Source:
Tags:Drop 竜と炎の物語 ryuu to honou no monogatari Dragon and Flame 清風明月 seifuu meigetsu c85 Sharlo yanlu spboxer3 Beren
BeatmapID:941266
BeatmapSetID:437097

[Difficulty]
HPDrainRate:2
CircleSize:2
OverallDifficulty:2
ApproachRate:3
SliderMultiplier:0.6
SliderTickRate:1

[Events]
//Background and Video events
0,0,"bg.jpg",0,0
//Break Periods
//Storyboard Layer 0 (Background)
//Storyboard Layer 1 (Fail)
//Storyboard Layer 2 (Pass)
//Storyboard Layer 3 (Foreground)
//Storyboard Sound Samples

[TimingPoints]
214,422.535211267606,3,2,1,50,1,0
15425,-100,3,2,1,20,0,0
16692,-100,3,2,1,50,0,0
82608,-100,3,2,1,35,0,0
83453,-100,3,2,1,30,0,0
84298,-100,3,2,1,25,0,0
85143,-100,3,2,1,20,0,0
85988,-100,3,2,1,15,0,0
86833,-100,3,2,1,10,0,0
87678,-100,3,2,1,5,0,0

[Colours]
Combo1 : 255,128,128
Combo2 : 255,255,255
Combo3 : 134,194,255
SliderBorder : 255,255,255

[HitObjects]
52,268,214,6,0,L|192:288,1,120,6|2,0:0|0:0,0:0:0:0:
260,300,1481,1,2,0:0:0:0:
460,120,2749,6,0,L|320:100,1,120,6|2,0:2|0:0,0:0:0:0:
252,88,4016,1,2,0:0:0:0:
252,88,5284,1,6,0:0:0:0:
68,284,6552,6,0,P|127:298|192:272,1,120,0|0,3:0|0:0,0:0:0:0:
240,212,7819,2,0,P|299:197|364:224,1,120,8|2,0:0|0:3,0:0:0:0:
412,284,9087,6,0,P|392:196|420:112,1,180,8|2,0:0|0:3,0:0:0:0:
336,80,10777,2,0,P|316:60|276:40,1,60,2|0,0:0|0:0,0:0:0:0:
251,128,11622,6,0,P|171:159|88:112,1,180,10|8,0:0|0:0,0:0:0:0:
56,36,13312,1,2,0:0:0:0:
256,192,14157,12,0,15425,0:0:0:0:
344,264,16692,6,0,P|400:288|468:268,1,120,14|0,0:0|0:0,0:0:0:0:
408,200,17960,2,0,P|352:176|284:196,1,120,2|0,0:0|0:0,0:0:0:0:
248,268,19228,6,0,P|167:301|88:263,1,180,14|2,0:0|0:0,0:0:0:0:
0,240,20918,2,0,L|32:168,1,60,2|2,0:3|0:0,0:0:0:0:
112,172,21763,6,0,L|156:60,1,120,14|2,0:0|0:3,0:0:0:0:
244,76,23030,2,0,L|200:188,1,120,6|0,0:0|3:0,0:0:0:0:
288,208,24298,2,0,L|332:96,1,120,6|2,0:0|0:3,0:0:0:0:
420,104,25566,2,0,L|468:56,2,60,6|2|8,0:0|0:3|0:0,0:0:0:0:
484,164,26833,6,0,L|504:296,1,120,8|2,0:0|0:0,0:0:0:0:
412,264,28101,2,0,L|420:323,1,60,6|0,3:2|3:2,0:0:0:0:
338,363,28946,1,0,3:0:0:0:
308,280,29368,6,0,L|274:164,1,120,8|2,0:0|0:0,0:0:0:0:
196,212,30636,2,0,L|177:155,1,60,6|0,0:0|3:2,0:0:0:0:
84,144,31481,1,0,0:0:0:0:
140,68,31904,6,0,B|184:16|248:34,1,120,8|2,0:0|0:0,0:0:0:0:
296,112,33171,2,0,L|364:128,1,60,6|0,3:2|3:2,0:0:0:0:
440,152,34016,1,2,0:3:0:0:
376,216,34439,6,0,L|268:316,1,120,8|2,0:0|0:0,0:0:0:0:
204,256,35706,2,0,L|252:212,1,60,6|0,0:0|3:2,0:0:0:0:
244,124,36552,1,0,3:0:0:0:
168,172,36974,6,0,L|48:172,1,120,8|2,0:0|0:0,0:0:0:0:
28,84,38242,2,0,L|148:84,1,120,8|0,0:0|0:0,0:0:0:0:
215,23,39509,6,0,P|288:68|376:40,1,180,8|2,0:0|0:3,0:0:0:0:
400,128,41199,2,0,P|404:160|416:192,1,60,0|2,3:0|3:2,0:0:0:0:
340,240,42044,6,0,P|288:272|222:266,1,120,10|2,0:0|0:0,0:0:0:0:
180,344,43312,2,0,P|182:284|150:234,1,120,2|2,3:2|3:2,0:0:0:0:
56,228,44580,6,0,P|196:208|220:64,1,300,2|0,3:0|0:0,0:0:0:0:
144,28,47115,1,4,0:2:0:0:
420,288,49650,6,0,L|300:277,1,120,0|0,3:0|0:0,0:0:0:0:
220,320,50918,2,0,L|100:309,1,120,8|2,0:0|0:3,0:0:0:0:
44,240,52185,5,8,0:0:0:0:
132,220,52608,2,0,L|252:231,1,120,2|2,0:3|0:3,0:0:0:0:
332,188,53875,2,0,L|391:194,1,60,2|0,0:0|0:0,0:0:0:0:
480,204,54721,6,0,L|409:106,1,120,8|2,0:0|0:3,0:0:0:0:
356,36,55988,1,2,0:3:0:0:
320,120,56411,2,0,L|201:139,1,120,2|8,0:0|0:3,0:0:0:0:
140,208,57678,6,0,L|68:172,1,60,0|0,0:0|0:0,0:0:0:0:
4,144,58523,2,0,L|40:264,1,120,2|0,0:3|0:3,0:0:0:0:
72,344,59791,6,0,L|132:220,1,120,14|2,0:0|3:3,0:0:0:0:
208,200,61059,2,0,L|231:144,2,60,2|2|2,0:0|0:3|0:0,0:0:0:0:
280,256,62326,6,0,L|326:145,1,120,14|2,0:0|0:3,0:0:0:0:
412,112,63594,2,0,L|433:55,2,60,2|2|2,3:3|0:3|0:0,0:0:0:0:
336,60,64861,6,0,B|256:101|256:101|176:60,2,180,10|8|2,0:0|0:3|0:0,0:0:0:0:
392,128,67819,2,0,L|312:172,1,60,2|0,3:3|0:0,0:0:0:0:
256,200,68664,6,0,L|84:112,1,180,6|8,0:0|0:0,0:0:0:0:
80,208,70354,2,0,L|72:276,1,60,2|2,0:3|0:3,0:0:0:0:
68,356,71199,6,0,L|207:242,1,180,6|8,0:0|0:0,0:0:0:0:
296,272,72890,2,0,L|343:235,1,60,2|2,0:3|0:3,0:0:0:0:
380,320,73735,6,0,L|396:124,1,180,6|8,0:0|0:0,0:0:0:0:
312,108,75425,2,0,L|305:167,1,60,0|0,3:3|0:3,0:0:0:0:
216,147,76270,6,0,P|129:166|68:96,1,180,6|8,0:0|0:0,0:0:0:0:
156,80,77960,2,0,P|180:63|210:57,1,60,2|0,0:3|3:2,0:0:0:0:
291,99,78805,6,0,P|374:124|440:67,2,180,14|8|2,0:0|0:0|0:0,0:0:0:0:
256,192,82608,12,0,87678,0:0:0:0:
