osu file format v14

[General]
AudioFilename: 5.V. Yuki no Hana.mp3
AudioLeadIn: 2500
PreviewTime: 214
Countdown: 0
SampleSet: Soft
StackLeniency: 0.7
Mode: 0
LetterboxInBreaks: 0
EpilepsyWarning: 1
WidescreenStoryboard: 1

[Editor]
Bookmarks: 214,6552,14157,16692,26833,36974,47115,49650,57256,59791,67397
DistanceSpacing: 1.7
BeatDivisor: 2
GridSize: 4
TimelineZoom: 0.6999997

[Metadata]
Title:Yuki no Hana
TitleUnicode:雪の華
Artist:Yura Hatsuki
ArtistUnicode:葉月ゆら
Creator:Lan wings
Version:Snow
Source:
Tags:Drop 竜と炎の物語 ryuu to honou no monogatari Dragon and Flame 清風明月 seifuu meigetsu c85 Sharlo yanlu spboxer3 Beren
BeatmapID:941270
BeatmapSetID:437097

[Difficulty]
HPDrainRate:7
CircleSize:4
OverallDifficulty:8
ApproachRate:9
SliderMultiplier:1.6
SliderTickRate:1

[Events]
//Background and Video events
0,0,"bg.jpg",0,0
//Break Periods
//Storyboard Layer 0 (Background)
//Storyboard Layer 1 (Fail)
//Storyboard Layer 2 (Pass)
//Storyboard Layer 3 (Foreground)
//Storyboard Sound Samples

[TimingPoints]
214,422.535211267606,3,2,1,50,1,0
15847,-100,3,2,1,40,0,0
16270,-100,3,2,1,30,0,0
16692,-100,3,2,1,50,0,0
21763,-80,3,2,1,50,0,0
21974,-100,3,2,1,50,0,0
23030,-80,3,2,1,50,0,0
23242,-100,3,2,1,50,0,0
24298,-80,3,2,1,50,0,0
24509,-100,3,2,1,50,0,0
25566,-80,3,2,1,50,0,0
25777,-100,3,2,1,50,0,0
36763,-100,3,2,1,25,0,0
36974,-100,3,2,1,50,0,0
41199,-100,3,2,1,35,0,0
41305,-100,3,2,1,50,0,0
58946,-100,3,2,1,40,0,0
59368,-100,3,2,1,30,0,0
59791,-100,3,2,1,50,0,0
80284,-100,3,2,1,40,0,0
80706,-100,3,2,1,30,0,0
81129,-100,3,2,1,50,0,0
82608,-100,3,3,3,20,0,0
82714,-100,3,3,3,5,0,0

[Colours]
Combo1 : 255,128,128
Combo2 : 255,255,255
Combo3 : 134,194,255
SliderBorder : 255,255,255

[HitObjects]
110,73,214,5,6,0:0:0:0:
180,79,425,1,0,0:0:0:0:
100,193,636,1,0,0:0:0:0:
70,130,847,1,2,0:0:0:0:
209,142,1059,1,2,0:0:0:0:
170,200,1270,1,0,0:0:0:0:
140,136,1481,1,2,0:0:0:0:
372,136,2537,5,2,0:0:0:0:
372,136,2643,1,0,0:0:0:0:
372,136,2749,1,6,0:2:0:0:
342,200,2960,1,0,0:0:0:0:
303,142,3171,1,0,0:0:0:0:
442,130,3383,1,2,0:0:0:0:
412,193,3594,1,2,0:0:0:0:
332,79,3805,1,0,0:0:0:0:
402,73,4016,1,2,0:0:0:0:
256,272,5073,5,2,0:0:0:0:
256,272,5178,1,0,0:0:0:0:
256,272,5284,1,6,0:0:0:0:
176,112,6552,6,0,P|135:106|92:84,1,80,0|0,3:0|0:0,0:0:0:0:
252,168,6974,2,0,P|277:135|318:109,1,80,2|0,0:3|0:0,0:0:0:0:
164,204,7397,2,0,P|179:242|181:290,1,80
64,272,7819,6,0,P|48:233|46:185,1,80,8|0,0:0|0:0,0:0:0:0:
176,112,8242,1,2,0:3:0:0:
240,260,8453,1,0,0:0:0:0:
48,284,8664,2,0,P|32:245|30:197,1,80,2|0,0:3|0:0,0:0:0:0:
157,35,9087,6,0,P|172:72|176:112,1,80,8|0,0:0|0:0,0:0:0:0:
264,84,9509,2,0,P|356:120|440:24,1,240,2|0,0:3|0:0,0:0:0:0:
288,204,10354,2,0,L|274:282,1,80,2|0,0:3|0:0,0:0:0:0:
260,356,10777,5,2,0:0:0:0:
112,232,10988,1,0,0:0:0:0:
336,332,11199,2,0,L|432:304,1,80,2|0,0:0|0:0,0:0:0:0:
89,302,11622,5,8,0:0:0:0:
282,285,11833,1,0,0:0:0:0:
212,372,12044,5,2,0:3:0:0:
335,224,12256,1,0,0:0:0:0:
344,344,12467,5,2,0:3:0:0:
328,144,12678,1,0,0:0:0:0:
89,302,12890,6,0,L|5:322,1,80,8|0,0:0|0:0,0:0:0:0:
84,184,13312,2,0,P|192:232|240:144,1,240,2|0,0:0|0:0,0:0:0:0:
184,80,14157,5,8,0:3:0:0:
326,152,14368,1,0,0:0:0:0:
440,40,14580,1,0,0:0:0:0:
214,166,14791,5,2,0:3:0:0:
372,185,15002,1,0,0:0:0:0:
440,40,15214,1,2,0:3:0:0:
244,252,15425,6,0,L|164:284,1,80,2|0,0:0|0:0,0:0:0:0:
260,172,15847,2,0,L|271:92,1,80,0|0,3:0|0:0,0:0:0:0:
324,224,16270,2,0,L|386:273,1,80
94,310,16692,5,14,0:0:0:0:
244,252,16904,1,2,0:3:0:0:
42,170,17115,1,2,0:3:0:0:
169,281,17326,5,0,0:0:0:0:
276,92,17537,1,2,0:0:0:0:
68,240,17749,1,0,0:0:0:0:
248,272,17960,5,2,0:0:0:0:
336,144,18171,1,2,0:3:0:0:
184,200,18383,1,2,0:3:0:0:
376,168,18594,1,2,0:3:0:0:
147,238,18805,2,0,L|68:240,1,80
12,104,19228,5,14,0:0:0:0:
240,236,19439,1,0,0:0:0:0:
180,80,19650,1,0,0:0:0:0:
84,144,19861,1,2,0:3:0:0:
312,276,20073,2,0,L|416:256,1,80,2|0,0:0|0:0,0:0:0:0:
252,120,20495,5,2,0:0:0:0:
188,300,20706,1,0,0:0:0:0:
464,248,20918,1,2,0:3:0:0:
220,208,21129,1,0,0:0:0:0:
404,336,21340,6,0,L|482:320,1,80,2|0,0:0|0:0,0:0:0:0:
312,276,21657,1,0,0:0:0:0:
296,296,21763,2,0,L|176:320,1,100,14|0,0:0|0:0,0:0:0:0:
60,248,22185,1,2,0:3:0:0:
124,108,22397,1,2,0:0:0:0:
308,192,22608,6,0,L|386:176,1,80,2|0,0:3|0:0,0:0:0:0:
196,84,22925,1,0,0:0:0:0:
196,84,23030,2,0,L|292:124,1,100,6|0,0:0|0:0,0:0:0:0:
464,160,23453,1,2,0:3:0:0:
324,56,23664,1,2,0:3:0:0:
178,182,23875,6,0,L|151:257,1,80,0|0,3:0|0:0,0:0:0:0:
72,264,24192,1,0,0:0:0:0:
72,264,24298,2,0,L|36:364,1,100,6|0,0:0|0:0,0:0:0:0:
20,200,24721,1,2,0:3:0:0:
136,344,24932,1,0,0:0:0:0:
300,248,25143,6,0,L|400:236,1,80,2|0,0:3|0:0,0:0:0:0:
119,187,25460,1,0,0:0:0:0:
119,187,25566,2,0,L|-9:203,1,100,6|2,0:0|0:0,0:0:0:0:
344,88,25988,2,0,L|368:168,1,80,2|0,0:3|0:0,0:0:0:0:
240,336,26411,2,0,L|217:259,1,80,8|0,0:0|0:0,0:0:0:0:
104,232,26833,5,8,0:0:0:0:
330,286,27044,1,0,0:0:0:0:
217,259,27256,5,0,3:0:0:0:
439,192,27467,1,0,0:0:0:0:
332,224,27678,5,2,0:0:0:0:
490,54,27890,1,2,0:0:0:0:
443,313,28101,5,6,3:2:0:0:
272,272,28312,1,0,0:0:0:0:
364,52,28523,5,2,0:2:0:0:
413,220,28735,1,0,0:0:0:0:
172,248,28946,5,0,3:0:0:0:
292,121,29157,1,0,0:0:0:0:
405,241,29368,5,8,0:0:0:0:
325,107,29580,1,0,0:0:0:0:
254,242,29791,5,0,3:0:0:0:
398,346,30002,1,0,0:0:0:0:
413,74,30214,5,2,0:0:0:0:
166,192,30425,1,2,0:0:0:0:
460,272,30636,2,0,L|492:360,1,80,6|0,0:0|0:0,0:0:0:0:
328,296,31059,5,2,3:2:0:0:
408,156,31270,1,0,3:0:0:0:
180,200,31481,2,0,L|84:224,1,80,0|0,0:0|3:0,0:0:0:0:
316,63,31904,5,8,0:0:0:0:
408,156,32115,1,0,0:0:0:0:
443,30,32326,5,0,3:0:0:0:
356,208,32537,1,0,0:0:0:0:
189,96,32749,5,2,0:0:0:0:
375,282,32960,1,2,0:0:0:0:
443,30,33171,5,6,3:2:0:0:
512,164,33383,1,0,0:0:0:0:
328,88,33594,5,0,3:2:0:0:
479,96,33805,1,0,3:0:0:0:
324,220,34016,5,2,0:3:0:0:
406,93,34228,1,0,3:0:0:0:
436,292,34439,5,8,0:0:0:0:
367,157,34650,1,0,0:0:0:0:
479,229,34861,5,0,3:0:0:0:
324,220,35073,1,0,0:0:0:0:
406,93,35284,5,2,0:0:0:0:
281,283,35495,1,2,0:0:0:0:
80,180,35706,2,0,L|-16:164,1,80,6|0,0:0|3:0,0:0:0:0:
181,139,36129,5,2,0:2:0:0:
291,232,36340,1,8,0:0:0:0:
248,114,36552,1,0,3:0:0:0:
223,257,36763,1,8,3:3:0:0:
35,261,36974,5,8,0:0:0:0:
181,139,37185,1,0,0:0:0:0:
112,200,37397,5,2,0:3:0:0:
299,167,37608,1,0,0:0:0:0:
208,184,37819,5,0,3:0:0:0:
273,5,38030,1,0,0:0:0:0:
390,150,38242,5,8,0:0:0:0:
325,329,38453,1,0,0:0:0:0:
440,208,38664,1,2,0:0:0:0:
340,92,38875,5,0,0:0:0:0:
373,279,39087,1,0,3:0:0:0:
412,117,39298,1,0,0:0:0:0:
268,67,39509,5,8,0:0:0:0:
390,212,39721,1,0,0:0:0:0:
342,52,39932,5,2,0:0:0:0:
188,200,40143,1,0,0:0:0:0:
320,124,40354,5,0,0:0:0:0:
448,264,40566,1,0,0:0:0:0:
120,248,40777,6,0,L|40:248,1,80,2|0,0:3|0:0,0:0:0:0:
256,160,41199,1,0,3:0:0:0:
140,264,41411,1,2,0:2:0:0:
368,264,41622,2,0,L|448:264,1,80,2|0,3:2|0:0,0:0:0:0:
255,264,42044,6,0,L|215:333,1,80,8|0,0:0|0:0,0:0:0:0:
188,200,42467,1,0,0:0:0:0:
200,340,42678,1,0,0:0:0:0:
408,192,42890,2,0,L|448:122,1,80,2|0,0:0|0:0,0:0:0:0:
144,272,43312,6,0,L|104:341,1,80,2|0,3:2|0:0,0:0:0:0:
187,199,43735,1,2,0:3:0:0:
0,288,43946,1,0,0:0:0:0:
148,130,44157,2,0,L|188:200,1,80,2|0,3:0|0:0,0:0:0:0:
396,276,44580,6,0,L|356:206,1,80,2|2,0:0|3:0,0:0:0:0:
200,244,45002,1,0,0:0:0:0:
312,140,45214,1,2,3:0:0:0:
188,129,45425,5,0,0:0:0:0:
323,254,45636,1,2,0:3:0:0:
175,266,45847,5,2,0:0:0:0:
336,117,46059,1,0,0:0:0:0:
159,102,46270,5,2,0:0:0:0:
352,281,46481,1,2,0:0:0:0:
139,299,46692,5,0,0:0:0:0:
372,84,46904,1,2,0:0:0:0:
115,63,47115,5,4,0:2:0:0:
188,228,49650,6,0,P|215:259|249:279,1,80,0|0,3:0|0:0,0:0:0:0:
192,136,50073,2,0,P|151:144|116:163,1,80,2|0,0:3|0:0,0:0:0:0:
276,188,50495,2,0,P|289:148|289:109,1,80
108,236,50918,6,0,P|95:276|95:315,1,80,8|0,0:0|0:0,0:0:0:0:
176,372,51340,1,2,0:3:0:0:
84,216,51552,1,0,0:0:0:0:
248,278,51763,2,0,P|287:283|327:281,1,80,2|0,0:3|0:0,0:0:0:0:
464,156,52185,6,0,P|424:150|384:152,1,80,8|0,0:0|0:0,0:0:0:0:
263,76,52608,2,0,P|168:116|158:13,1,240,2|0,0:3|0:0,0:0:0:0:
192,224,53453,6,0,L|165:299,1,80,2|0,0:3|0:0,0:0:0:0:
40,288,53875,1,2,0:0:0:0:
200,204,54087,1,0,0:0:0:0:
364,296,54298,2,0,L|456:336,1,80,2|0,0:0|0:0,0:0:0:0:
512,228,54721,5,8,0:0:0:0:
324,280,54932,1,0,0:0:0:0:
380,112,55143,1,2,0:3:0:0:
459,351,55354,5,0,0:0:0:0:
270,302,55566,1,2,0:3:0:0:
403,184,55777,1,0,0:0:0:0:
228,332,55988,6,0,L|149:314,1,80,2|0,0:3|0:0,0:0:0:0:
14,233,56411,2,0,B|90:249|90:249|155:240|183:164|144:128,1,240,2|0,0:0|0:0,0:0:0:0:
36,124,57256,5,8,0:3:0:0:
236,176,57467,1,0,0:0:0:0:
92,76,57678,5,0,0:0:0:0:
244,248,57890,1,0,0:3:0:0:
384,96,58101,5,0,0:3:0:0:
176,220,58312,1,0,0:0:0:0:
420,272,58523,6,0,P|472:208|464:124,1,160,2|0,0:3|3:0,0:3:0:0:
360,176,59157,1,0,0:0:0:0:
320,284,59368,2,0,P|334:321|360:350,1,80,2|0,0:3|0:0,0:0:0:0:
420,272,59791,5,14,0:0:0:0:
262,188,60002,1,2,0:3:0:0:
110,283,60214,1,2,0:0:0:0:
344,232,60425,5,0,0:0:0:0:
186,148,60636,1,2,3:3:0:0:
34,243,60847,1,0,0:0:0:0:
420,104,61059,5,2,0:0:0:0:
262,188,61270,1,2,0:3:0:0:
110,93,61481,1,2,0:3:0:0:
344,144,61692,5,2,0:3:0:0:
186,228,61904,1,2,0:0:0:0:
34,133,62115,1,0,0:0:0:0:
192,49,62326,5,14,0:0:0:0:
416,184,62537,1,0,0:0:0:0:
262,188,62749,1,0,0:0:0:0:
448,255,62960,5,2,0:0:0:0:
224,120,63171,1,2,0:3:0:0:
294,259,63383,1,0,0:0:0:0:
332,49,63594,5,2,3:3:0:0:
108,184,63805,1,0,0:0:0:0:
262,188,64016,1,2,0:3:0:0:
76,255,64228,5,0,0:0:0:0:
300,120,64439,1,2,0:0:0:0:
230,259,64650,1,0,0:0:0:0:
222,107,64861,5,14,0:0:0:0:
355,185,65073,1,0,0:0:0:0:
221,265,65284,1,0,0:0:0:0:
312,108,65495,5,2,0:0:0:0:
312,264,65706,1,2,0:3:0:0:
177,186,65918,1,0,0:0:0:0:
488,44,66129,6,0,B|496:76|496:76|484:76|484:76|532:140|492:240|408:204,1,240,8|0,0:3|0:0,0:0:0:0:
272,32,66974,2,0,P|312:24|360:36,1,80
304,268,67397,5,6,0:0:0:0:
97,106,67608,21,2,0:0:0:0:
345,188,67819,5,0,0:0:0:0:
104,287,68030,21,2,0:0:0:0:
299,113,68242,5,0,0:0:0:0:
264,373,68453,21,2,0:0:0:0:
209,115,68664,5,6,0:0:0:0:
414,276,68875,21,2,0:0:0:0:
167,195,69087,5,0,0:0:0:0:
406,97,69298,21,2,0:0:0:0:
215,272,69509,5,0,0:0:0:0:
250,12,69721,21,2,0:0:0:0:
436,185,69932,5,14,0:0:0:0:
175,150,70143,5,2,0:0:0:0:
351,341,70354,21,2,0:3:0:0:
252,102,70566,5,2,0:0:0:0:
171,349,70777,21,2,0:3:0:0:
333,144,70988,5,2,0:0:0:0:
74,199,71199,21,6,0:0:0:0:
335,234,71411,5,2,0:0:0:0:
160,39,71622,21,0,0:0:0:0:
260,280,71833,5,2,0:0:0:0:
342,32,72044,21,0,0:0:0:0:
179,239,72256,5,2,0:0:0:0:
414,276,72467,5,14,0:0:0:0:
299,113,72678,1,2,0:0:0:0:
104,287,72890,5,2,0:3:0:0:
304,268,73101,1,2,0:0:0:0:
250,12,73312,5,2,0:3:0:0:
167,195,73523,1,2,0:0:0:0:
264,373,73735,5,6,0:0:0:0:
345,188,73946,1,2,0:0:0:0:
97,106,74157,5,0,0:0:0:0:
215,272,74368,1,2,0:0:0:0:
406,97,74580,5,0,0:0:0:0:
209,115,74791,1,2,0:0:0:0:
171,349,75002,5,14,0:0:0:0:
333,144,75214,1,2,0:0:0:0:
160,39,75425,5,2,0:3:0:0:
260,280,75636,1,2,0:0:0:0:
436,185,75847,5,2,0:3:0:0:
175,150,76059,1,2,0:0:0:0:
351,341,76270,5,6,0:0:0:0:
252,102,76481,1,2,0:0:0:0:
74,199,76692,5,0,0:0:0:0:
335,234,76904,1,2,0:0:0:0:
342,32,77115,5,0,0:0:0:0:
179,239,77326,1,2,0:0:0:0:
304,268,77537,5,14,0:0:0:0:
209,115,77749,1,2,0:0:0:0:
345,188,77960,1,2,0:3:0:0:
167,195,78171,1,2,0:0:0:0:
299,113,78383,1,2,0:3:0:0:
215,272,78594,1,2,0:0:0:0:
250,12,78805,5,14,0:0:0:0:
104,287,79016,1,2,0:0:0:0:
414,276,79228,1,0,0:0:0:0:
97,106,79439,5,2,0:0:0:0:
264,373,79650,1,0,0:0:0:0:
406,97,79861,1,2,0:0:0:0:
256,192,80073,5,12,0:0:0:0:
250,12,80495,5,2,0:0:0:0:
104,287,80918,1,2,0:2:0:0:
414,276,81340,1,2,0:0:0:0:
256,192,82608,6,0,L|256:152,1,40,14|0,0:0|0:0,0:0:0:0:
