osu file format v14

[General]
AudioFilename: audio.mp3
AudioLeadIn: 0
PreviewTime: 147
Countdown: 0
SampleSet: Soft
StackLeniency: 0.7
Mode: 2
LetterboxInBreaks: 0
WidescreenStoryboard: 0

[Editor]
DistanceSpacing: 1.3
BeatDivisor: 4
GridSize: 8
TimelineZoom: 1

[Metadata]
Title:TRICK or TREAT
TitleUnicode:TRICK or TREAT
Artist:Yura Hatsuki
ArtistUnicode:葉月ゆら
Creator:MBomb
Version:Spooky Salad
Source:
Tags:MBomb Halloween wicked drop m3-34 cursedcookies
BeatmapID:1104796
BeatmapSetID:520088

[Difficulty]
HPDrainRate:4
CircleSize:3
OverallDifficulty:7
ApproachRate:7
SliderMultiplier:2.4
SliderTickRate:1

[Events]
//Background and Video events
0,0,"trick or treat.jpg",0,0
//Break Periods
//Storyboard Layer 0 (Background)
//Storyboard Layer 1 (Fail)
//Storyboard Layer 2 (Pass)
//Storyboard Layer 3 (Foreground)
//Storyboard Sound Samples

[TimingPoints]
147,566.037735849057,4,2,1,70,1,0
32128,-100,4,2,1,50,0,0
32411,-100,4,2,1,45,0,0
32694,-100,4,2,1,40,0,0
32977,-100,4,2,1,35,0,0
33260,-100,4,2,1,30,0,0
33543,-100,4,2,1,25,0,0
33826,-100,4,2,1,20,0,0
34109,-100,4,2,1,15,0,0

[Colours]
Combo1 : 198,0,0
Combo2 : 0,64,128
Combo3 : 255,128,0
Combo4 : 164,82,0

[HitObjects]
160,192,147,5,4,0:0:0:0:
312,192,430,1,0,0:0:0:0:
144,192,713,2,0,L|72:192,2,60,2|0|2,0:0|0:0|0:0,0:0:0:0:
272,192,1279,5,0,0:0:0:0:
416,192,1562,1,0,0:0:0:0:
256,192,1845,1,2,0:0:0:0:
320,192,1986,1,0,0:0:0:0:
384,192,2128,1,2,0:0:0:0:
224,192,2411,6,0,L|152:192,2,60,0|0|2,0:0|0:0|0:0,0:0:0:0:
360,192,2977,2,0,L|224:192,1,120,0|2,0:0|0:0,0:0:0:0:
400,192,3543,6,0,P|472:128|448:96,1,120,8|0,0:0|0:0,0:0:0:0:
176,192,4109,1,4,0:0:0:0:
432,192,4675,5,0,0:0:0:0:
280,192,4958,1,0,0:0:0:0:
448,192,5241,1,2,0:0:0:0:
384,192,5382,1,0,0:0:0:0:
320,192,5524,1,2,0:0:0:0:
184,192,5807,5,0,0:0:0:0:
336,192,6090,1,0,0:0:0:0:
168,192,6373,1,2,0:0:0:0:
96,192,6514,1,0,0:0:0:0:
168,192,6656,1,2,0:0:0:0:
336,192,6939,6,0,L|408:192,2,60,0|0|2,0:0|0:0|0:0,0:0:0:0:
192,192,7505,2,0,L|320:192,1,120,0|2,0:0|0:0,0:0:0:0:
160,192,8071,5,8,0:0:0:0:
312,192,8354,1,8,0:0:0:0:
32,192,8637,1,4,0:0:0:0:
288,192,9203,5,2,0:0:0:0:
347,190,9344,1,0,0:0:0:0:
404,172,9486,1,2,0:0:0:0:
453,138,9627,1,0,0:0:0:0:
368,192,9769,2,0,P|272:120|272:112,1,120,2|0,0:0|0:0,0:0:0:0:
352,192,10194,1,0,0:0:0:0:
440,192,10335,5,8,0:0:0:0:
288,192,10618,1,8,0:0:0:0:
16,192,10901,1,4,0:0:0:0:
160,192,11184,2,0,L|240:192,1,60,0|0,0:0|0:0,0:0:0:0:
136,192,11467,5,2,0:0:0:0:
81,176,11608,1,0,0:0:0:0:
78,120,11750,1,2,0:0:0:0:
130,98,11891,1,0,0:0:0:0:
220,192,12034,2,0,L|68:192,1,120,2|0,0:0|0:0,0:0:0:0:
176,192,12458,1,0,0:0:0:0:
264,192,12599,5,8,0:0:0:0:
112,192,12882,1,8,0:0:0:0:
384,192,13165,1,4,0:0:0:0:
248,192,13448,2,0,L|176:192,1,60,2|0,0:0|0:0,0:0:0:0:
360,192,13731,6,0,P|443:175|464:144,1,120,8|0,0:0|0:0,0:0:0:0:
328,192,14297,2,0,L|448:192,1,120,8|0,0:0|0:0,0:0:0:0:
304,192,14863,5,2,0:0:0:0:
244,187,15004,1,0,0:0:0:0:
197,152,15146,1,2,0:0:0:0:
344,192,15430,1,2,0:0:0:0:
200,192,15713,1,2,0:0:0:0:
472,192,15996,6,0,L|344:192,1,120,8|0,0:0|0:0,0:0:0:0:
208,192,16562,2,0,P|176:136|216:120,1,120,8|0,0:0|0:0,0:0:0:0:
280,192,16986,1,0,0:0:0:0:
448,192,17128,5,12,0:0:0:0:
312,192,17411,1,8,0:0:0:0:
176,192,17694,1,8,0:0:0:0:
40,192,17977,1,8,0:0:0:0:
328,192,18260,5,4,0:0:0:0:
200,192,18543,1,0,0:0:0:0:
352,192,18826,2,0,L|424:192,2,60,2|0|2,0:0|0:0|0:0,0:0:0:0:
208,192,19392,5,0,0:0:0:0:
64,192,19675,1,0,0:0:0:0:
216,192,19958,2,0,L|288:192,2,60,2|0|2,0:0|0:0|0:0,0:0:0:0:
352,192,20524,5,0,0:0:0:0:
416,192,20665,1,0,0:0:0:0:
352,192,20807,1,2,0:0:0:0:
216,192,21090,2,0,L|88:192,1,120,0|2,0:0|0:0,0:0:0:0:
240,192,21656,6,0,P|304:144|288:104,1,120,8|0,0:0|0:0,0:0:0:0:
16,192,22222,1,4,0:0:0:0:
256,192,22788,5,0,0:0:0:0:
400,192,23071,1,0,0:0:0:0:
248,192,23354,1,2,0:0:0:0:
312,192,23496,1,0,0:0:0:0:
376,192,23637,1,2,0:0:0:0:
232,192,23920,5,0,0:0:0:0:
376,192,24203,1,0,0:0:0:0:
232,192,24486,2,0,L|152:192,2,60,2|0|2,0:0|0:0|0:0,0:0:0:0:
376,192,25052,6,0,L|440:192,2,60,0|0|2,0:0|0:0|0:0,0:0:0:0:
240,192,25618,1,0,0:0:0:0:
112,192,25901,1,2,0:0:0:0:
264,192,26184,5,8,0:0:0:0:
112,192,26467,1,8,0:0:0:0:
400,192,26750,1,4,0:0:0:0:
144,192,27316,5,2,0:0:0:0:
86,196,27457,1,0,0:0:0:0:
48,153,27599,1,0,0:0:0:0:
59,96,27740,1,0,0:0:0:0:
144,192,27882,2,0,L|264:192,1,120,2|0,0:0|0:0,0:0:0:0:
112,192,28448,6,0,L|232:192,1,120,2|2,0:0|0:0,0:0:0:0:
496,192,29014,1,2,0:0:0:0:
240,192,29580,5,2,0:0:0:0:
96,192,29863,1,0,0:0:0:0:
224,192,30147,1,2,0:0:0:0:
112,192,30430,1,0,0:0:0:0:
400,192,30713,5,2,0:0:0:0:
160,192,31279,1,2,0:0:0:0:
400,192,31845,5,4,0:0:0:0:
256,192,32128,12,0,34109,0:0:0:0:
