osu file format v14

[General]
AudioFilename: audio.mp3
AudioLeadIn: 0
PreviewTime: 147
Countdown: 0
SampleSet: Soft
StackLeniency: 0.7
Mode: 2
LetterboxInBreaks: 0
WidescreenStoryboard: 0

[Editor]
DistanceSpacing: 1.3
BeatDivisor: 4
GridSize: 8
TimelineZoom: 1

[Metadata]
Title:TRICK or TREAT
TitleUnicode:TRICK or TREAT
Artist:Yura Hatsuki
ArtistUnicode:葉月ゆら
Creator:MBomb
Version:Pumpkin Platter
Source:
Tags:MBomb Halloween wicked drop m3-34 cursedcookies
BeatmapID:1104780
BeatmapSetID:520088

[Difficulty]
HPDrainRate:5
CircleSize:3.5
OverallDifficulty:8
ApproachRate:8
SliderMultiplier:2.6
SliderTickRate:1

[Events]
//Background and Video events
0,0,"trick or treat.jpg",0,0
//Break Periods
//Storyboard Layer 0 (Background)
//Storyboard Layer 1 (Fail)
//Storyboard Layer 2 (Pass)
//Storyboard Layer 3 (Foreground)
//Storyboard Sound Samples

[TimingPoints]
147,566.037735849057,4,2,1,70,1,0
32128,-100,4,2,1,50,0,0
32411,-100,4,2,1,45,0,0
32694,-100,4,2,1,40,0,0
32977,-100,4,2,1,35,0,0
33260,-100,4,2,1,30,0,0
33543,-100,4,2,1,25,0,0
33826,-100,4,2,1,20,0,0
34109,-100,4,2,1,15,0,0

[Colours]
Combo1 : 198,0,0
Combo2 : 0,64,128
Combo3 : 255,128,0
Combo4 : 164,82,0

[HitObjects]
192,192,147,5,4,0:0:0:0:
336,192,430,2,0,L|408:192,1,65
224,192,713,2,0,L|152:192,2,65,2|0|2,0:0|0:0|0:0,0:0:0:0:
368,192,1279,5,0,0:0:0:0:
240,192,1562,2,0,L|304:192,1,65
136,192,1845,2,0,L|72:192,2,65,2|0|2,0:0|0:0|0:0,0:0:0:0:
432,192,2411,6,0,L|504:192,2,65,0|0|2,0:0|0:0|0:0,0:0:0:0:
152,192,2977,1,0,0:0:0:0:
304,192,3260,1,2,0:0:0:0:
24,192,3543,5,8,0:0:0:0:
25,159,3613,1,0,0:0:0:0:
36,129,3684,1,0,0:0:0:0:
55,103,3755,1,0,0:0:0:0:
82,84,3826,1,0,0:0:0:0:
112,73,3896,1,0,0:0:0:0:
144,72,3967,1,0,0:0:0:0:
384,192,4109,1,4,0:0:0:0:
96,192,4675,5,0,0:0:0:0:
344,192,4958,2,0,L|264:192,1,65
112,192,5241,2,0,L|32:192,2,65,2|0|2,0:0|0:0|0:0,0:0:0:0:
360,192,5807,5,0,0:0:0:0:
104,192,6090,2,0,L|192:192,1,65
336,192,6373,1,2,0:0:0:0:
264,192,6514,1,0,0:0:0:0:
192,192,6656,1,2,0:0:0:0:
456,192,6939,6,0,L|504:144,2,65,0|0|2,0:0|0:0|0:0,0:0:0:0:
208,192,7505,1,0,0:0:0:0:
344,192,7788,1,2,0:0:0:0:
88,192,8071,5,8,0:0:0:0:
344,192,8354,2,0,L|376:192,2,32.5,8|0|0,0:0|0:0|0:0,0:0:0:0:
72,192,8637,1,4,0:0:0:0:
368,192,9203,5,2,0:0:0:0:
427,177,9344,1,0,0:0:0:0:
435,117,9486,1,2,0:0:0:0:
382,87,9627,1,0,0:0:0:0:
208,192,9769,2,0,P|136:128|144:112,1,130,2|0,0:0|0:0,0:0:0:0:
232,192,10194,1,0,0:0:0:0:
376,192,10335,5,8,0:0:0:0:
104,192,10618,1,8,0:0:0:0:
496,192,10901,1,4,0:0:0:0:
352,192,11184,2,0,L|264:192,1,65
424,192,11467,5,2,0:0:0:0:
475,159,11608,1,0,0:0:0:0:
464,99,11750,1,2,0:0:0:0:
404,88,11891,1,0,0:0:0:0:
240,192,12033,2,0,L|392:192,1,130,2|0,0:0|0:0,0:0:0:0:
304,192,12458,1,0,0:0:0:0:
160,192,12599,5,8,0:0:0:0:
432,192,12882,1,8,0:0:0:0:
40,192,13165,1,4,0:0:0:0:
256,192,13448,2,0,L|336:192,1,65,2|0,0:0|0:0,0:0:0:0:
96,192,13731,6,0,P|24:128|56:88,1,130,8|0,0:0|0:0,0:0:0:0:
288,192,14297,2,0,P|368:128|328:88,1,130,8|0,0:0|0:0,0:0:0:0:
104,192,14863,6,0,L|24:192,2,65,2|0|2,0:0|0:0|0:0,0:0:0:0:
288,192,15430,1,2,0:0:0:0:
24,192,15713,1,2,0:0:0:0:
272,192,15996,5,8,0:0:0:0:
303,198,16066,1,0,0:0:0:0:
335,191,16137,1,0,0:0:0:0:
360,172,16208,1,0,0:0:0:0:
376,143,16279,1,0,0:0:0:0:
378,111,16349,1,0,0:0:0:0:
367,81,16420,1,0,0:0:0:0:
232,192,16562,5,8,0:0:0:0:
199,192,16632,1,0,0:0:0:0:
172,175,16703,1,0,0:0:0:0:
159,146,16774,1,0,0:0:0:0:
164,114,16845,1,0,0:0:0:0:
272,192,16986,1,0,0:0:0:0:
32,192,17128,5,12,0:0:0:0:
168,192,17411,1,8,0:0:0:0:
304,192,17694,1,8,0:0:0:0:
440,192,17977,1,8,0:0:0:0:
56,192,18260,5,4,0:0:0:0:
280,192,18543,2,0,L|344:192,1,65
168,192,18826,2,0,L|104:192,2,65,2|0|2,0:0|0:0|0:0,0:0:0:0:
432,192,19392,5,0,0:0:0:0:
184,192,19675,2,0,L|112:192,1,65
296,192,19958,2,0,L|360:192,2,65,2|0|2,0:0|0:0|0:0,0:0:0:0:
32,192,20524,5,0,0:0:0:0:
112,192,20665,1,0,0:0:0:0:
184,192,20807,1,2,0:0:0:0:
472,192,21090,1,0,0:0:0:0:
320,192,21373,1,2,0:0:0:0:
72,192,21656,5,8,0:0:0:0:
41,183,21726,1,0,0:0:0:0:
19,159,21797,1,0,0:0:0:0:
12,128,21868,1,0,0:0:0:0:
23,97,21939,1,0,0:0:0:0:
47,77,22009,1,0,0:0:0:0:
79,71,22080,1,0,0:0:0:0:
360,192,22222,1,4,0:0:0:0:
64,192,22788,5,0,0:0:0:0:
304,192,23071,2,0,L|216:160,1,65
424,192,23354,2,0,L|528:192,2,65,2|0|2,0:0|0:0|0:0,0:0:0:0:
152,192,23920,5,0,0:0:0:0:
392,192,24203,2,0,L|312:192,1,65,0|0,0:0|0:0,0:0:0:0:
152,192,24486,2,0,L|56:192,2,65,2|0|2,0:0|0:0|0:0,0:0:0:0:
432,192,25052,6,0,L|504:192,2,65,0|0|2,0:0|0:0|0:0,0:0:0:0:
168,192,25618,1,0,0:0:0:0:
32,192,25901,1,2,0:0:0:0:
328,192,26184,5,8,0:0:0:0:
80,192,26467,2,0,L|32:192,2,32.5,8|0|0,0:0|0:0|0:0,0:0:0:0:
360,192,26750,1,4,0:0:0:0:
128,192,27316,5,2,0:0:0:0:
67,186,27457,1,0,0:0:0:0:
50,128,27599,1,0,0:0:0:0:
98,91,27740,1,0,0:0:0:0:
248,192,27882,1,2,0:0:0:0:
400,192,28165,1,0,0:0:0:0:
160,192,28448,5,2,0:0:0:0:
400,192,28731,1,2,0:0:0:0:
16,192,29014,1,2,0:0:0:0:
384,192,29580,5,2,0:0:0:0:
136,192,29863,1,0,0:0:0:0:
360,192,30147,2,0,L|504:192,1,130,2|0,0:0|0:0,0:0:0:0:
48,192,30713,5,2,0:0:0:0:
416,192,31279,1,2,0:0:0:0:
48,192,31845,5,4,0:0:0:0:
256,192,32128,12,0,34109,0:0:0:0:
