osu file format v14

[General]
AudioFilename: audio.mp3
AudioLeadIn: 0
PreviewTime: 147
Countdown: 0
SampleSet: Soft
StackLeniency: 0.7
Mode: 2
LetterboxInBreaks: 0
WidescreenStoryboard: 0

[Editor]
DistanceSpacing: 1.3
BeatDivisor: 12
GridSize: 8
TimelineZoom: 1

[Metadata]
Title:TRICK or TREAT
TitleUnicode:TRICK or TREAT
Artist:Yura Hatsuki
ArtistUnicode:葉月ゆら
Creator:MBomb
Version:Haunted Hallowrain
Source:
Tags:MBomb Halloween wicked drop m3-34 cursedcookies
BeatmapID:1104773
BeatmapSetID:520088

[Difficulty]
HPDrainRate:6
CircleSize:4
OverallDifficulty:9
ApproachRate:9
SliderMultiplier:2.8
SliderTickRate:1

[Events]
//Background and Video events
0,0,"trick or treat.jpg",0,0
//Break Periods
//Storyboard Layer 0 (Background)
//Storyboard Layer 1 (Fail)
//Storyboard Layer 2 (Pass)
//Storyboard Layer 3 (Foreground)
//Storyboard Sound Samples

[TimingPoints]
147,566.037735849057,4,2,1,70,1,0
31137,-100,4,2,1,20,0,0
31279,-100,4,2,1,70,0,0
31703,-100,4,2,1,20,0,0
31845,-100,4,2,1,70,0,0
32128,-100,4,2,1,50,0,0
32411,-100,4,2,1,45,0,0
32694,-100,4,2,1,40,0,0
32977,-100,4,2,1,35,0,0
33260,-100,4,2,1,30,0,0
33543,-100,4,2,1,25,0,0
33826,-100,4,2,1,20,0,0
34109,-100,4,2,1,15,0,0

[Colours]
Combo1 : 198,0,0
Combo2 : 0,64,128
Combo3 : 255,128,0
Combo4 : 164,82,0

[HitObjects]
128,192,147,5,4,0:0:0:0:
480,192,430,2,0,L|400:192,1,70
208,192,713,2,0,L|120:192,2,70,2|0|2,0:0|0:0|0:0,0:0:0:0:
304,192,1137,1,0,0:0:0:0:
456,192,1279,1,0,0:0:0:0:
88,192,1562,2,0,L|16:192,1,70
224,192,1845,1,2,0:0:0:0:
152,192,1986,1,0,0:0:0:0:
80,192,2128,1,2,0:0:0:0:
424,192,2411,6,0,L|496:192,1,70
288,192,2694,2,0,L|192:192,1,70,2|0,0:0|0:0,0:0:0:0:
352,192,2977,1,0,0:0:0:0:
128,192,3260,2,0,L|224:192,1,70,2|0,0:0|0:0,0:0:0:0:
400,192,3543,1,8,0:0:0:0:
433,200,3613,1,0,0:0:0:0:
466,189,3684,1,0,0:0:0:0:
487,161,3755,1,0,0:0:0:0:
490,127,3826,1,0,0:0:0:0:
473,97,3896,1,0,0:0:0:0:
443,80,3967,1,0,0:0:0:0:
128,192,4109,1,4,0:0:0:0:
432,192,4675,5,0,0:0:0:0:
80,192,4958,2,0,L|8:192,1,70
216,192,5241,2,0,L|128:152,2,70,2|0|2,0:0|0:0|0:0,0:0:0:0:
144,192,5665,1,0,0:0:0:0:
16,192,5807,1,0,0:0:0:0:
392,192,6090,2,0,L|312:192,1,70
86,192,6373,2,0,L|14:192,2,70,2|0|2,0:0|0:0|0:0,0:0:0:0:
448,192,6939,5,0,0:0:0:0:
376,192,7080,1,0,0:0:0:0:
168,192,7222,2,0,L|248:192,1,70,2|0,0:0|0:0,0:0:0:0:
104,192,7505,1,0,0:0:0:0:
328,192,7788,2,0,L|432:192,1,70,2|0,0:0|0:0,0:0:0:0:
192,192,8071,1,8,0:0:0:0:
432,192,8354,1,8,0:0:0:0:
400,160,8424,1,0,0:0:0:0:
360,152,8495,1,0,0:0:0:0:
48,192,8637,1,4,0:0:0:0:
400,192,9203,6,0,L|480:192,3,70,2|0|2|0,0:0|0:0|0:0|0:0,0:0:0:0:
320,192,9769,2,0,P|240:136|256:104,1,140,2|0,0:0|0:0,0:0:0:0:
312,192,10194,1,0,0:0:0:0:
112,192,10335,1,8,0:0:0:0:
384,192,10618,1,8,0:0:0:0:
32,192,10901,1,4,0:0:0:0:
176,192,11184,2,0,L|80:192,1,70
256,192,11467,6,0,L|176:192,3,70,2|0|2|0,0:0|0:0|0:0|0:0,0:0:0:0:
400,192,12033,2,0,P|464:144|424:104,1,140,2|0,0:0|0:0,0:0:0:0:
368,192,12458,1,0,0:0:0:0:
168,192,12599,1,8,0:0:0:0:
440,192,12882,1,8,0:0:0:0:
72,192,13165,1,4,0:0:0:0:
440,192,13448,2,0,P|485:175|496:144,1,70,2|0,0:0|0:0,0:0:0:0:
256,192,13731,6,0,L|112:192,1,140,8|0,0:0|0:0,0:0:0:0:
408,192,14297,2,0,L|268:192,1,140,8|0,0:0|0:0,0:0:0:0:
16,192,14863,2,0,L|88:192,2,70,2|0|2,0:0|0:0|0:0,0:0:0:0:
192,192,15430,1,2,0:0:0:0:
456,192,15713,1,2,0:0:0:0:
80,192,15996,5,8,0:0:0:0:
47,181,16066,1,0,0:0:0:0:
26,153,16137,1,0,0:0:0:0:
25,119,16208,1,0,0:0:0:0:
44,90,16279,1,0,0:0:0:0:
76,78,16349,1,0,0:0:0:0:
110,86,16420,1,0,0:0:0:0:
336,192,16562,1,8,0:0:0:0:
368,181,16632,1,0,0:0:0:0:
389,153,16703,1,0,0:0:0:0:
390,119,16774,1,0,0:0:0:0:
371,90,16845,1,0,0:0:0:0:
224,192,16986,1,0,0:0:0:0:
432,192,17128,5,12,0:0:0:0:
296,192,17411,1,8,0:0:0:0:
160,192,17694,1,8,0:0:0:0:
32,192,17977,1,8,0:0:0:0:
392,192,18260,5,4,0:0:0:0:
32,192,18543,2,0,L|104:192,1,70
304,192,18826,2,0,L|376:192,2,70,2|0|2,0:0|0:0|0:0,0:0:0:0:
216,192,19250,1,0,0:0:0:0:
64,192,19392,1,0,0:0:0:0:
464,192,19675,2,0,L|392:192,1,70
176,192,19958,1,2,0:0:0:0:
108,182,20099,1,0,0:0:0:0:
62,130,20241,1,2,0:0:0:0:
424,192,20524,6,0,L|496:192,1,70
288,192,20807,2,0,L|376:192,1,70,2|0,0:0|0:0,0:0:0:0:
216,192,21090,1,0,0:0:0:0:
472,192,21373,2,0,L|392:192,1,70,2|0,0:0|0:0,0:0:0:0:
192,192,21656,1,8,0:0:0:0:
158,201,21726,1,0,0:0:0:0:
125,193,21797,1,0,0:0:0:0:
99,170,21868,1,0,0:0:0:0:
88,137,21939,1,0,0:0:0:0:
94,103,22009,1,0,0:0:0:0:
116,77,22080,1,0,0:0:0:0:
432,192,22222,1,4,0:0:0:0:
88,192,22788,5,0,0:0:0:0:
496,192,23071,2,0,L|408:192,1,70
224,192,23354,2,0,L|144:192,2,70,2|0|2,0:0|0:0|0:0,0:0:0:0:
144,192,23779,1,0,0:0:0:0:
16,192,23920,1,0,0:0:0:0:
424,192,24203,2,0,L|496:192,1,70
224,192,24486,1,2,0:0:0:0:
144,192,24628,1,0,0:0:0:0:
72,192,24769,1,2,0:0:0:0:
488,192,25052,6,0,L|400:192,1,70
208,192,25335,2,0,L|280:192,1,70,2|0,0:0|0:0,0:0:0:0:
432,192,25618,1,0,0:0:0:0:
176,192,25901,2,0,L|104:192,1,70,2|0,0:0|0:0,0:0:0:0:
312,192,26184,1,8,0:0:0:0:
64,192,26467,1,8,0:0:0:0:
94,175,26537,1,0,0:0:0:0:
136,168,26608,1,0,0:0:0:0:
416,192,26750,1,4,0:0:0:0:
112,192,27316,6,0,L|184:192,3,70,2|0|0|0,0:0|0:0|0:0|0:0,0:0:0:0:
328,192,27882,1,2,0:0:0:0:
40,192,28165,1,0,0:0:0:0:
400,192,28448,1,2,0:0:0:0:
144,192,28731,1,2,0:0:0:0:
496,192,29014,1,2,0:0:0:0:
56,192,29533,6,0,L|56:168,1,23.3333333333333
304,192,29863,1,0,0:0:0:0:
496,192,30147,1,2,0:0:0:0:
368,192,30430,1,0,0:0:0:0:
16,192,30713,2,0,P|88:120|208:88,1,210,2|0,0:0|0:0,0:0:0:0:
432,192,31279,2,0,P|360:120|240:88,1,210,2|0,0:0|0:0,0:0:0:0:
24,192,31845,5,4,0:0:0:0:
256,192,32128,12,0,34109,0:0:0:0:
