osu file format v14

[General]
AudioFilename: audio.mp3
AudioLeadIn: 0
PreviewTime: 60176
Countdown: 0
SampleSet: Soft
StackLeniency: 0.7
Mode: 0
LetterboxInBreaks: 0
WidescreenStoryboard: 0

[Editor]
Bookmarks: 15823,22676,29533,36391,43248,53537,60395,87823,101537,128966,139252,200966,218109,224966
DistanceSpacing: 0.8
BeatDivisor: 4
GridSize: 8
TimelineZoom: 1.3

[Metadata]
Title:Shadows ~Kage Iro Yousei Ehon~
TitleUnicode:Shadows ~影色妖精絵本~
Artist:Yura Hatsuki
ArtistUnicode:葉月ゆら
Creator:Sakurauchi Riko
Version:Easy
Source:
Tags:Drop Comic Market 90 Comiket Phyloukz
BeatmapID:1226362
BeatmapSetID:558387

[Difficulty]
HPDrainRate:2
CircleSize:3
OverallDifficulty:2
ApproachRate:3
SliderMultiplier:1
SliderTickRate:1

[Events]
//Background and Video events
0,0,"Unbenannnnnnnt.jpg",0,0
//Break Periods
2,173733,185808
2,218305,223522
//Storyboard Layer 0 (Background)
//Storyboard Layer 1 (Fail)
//Storyboard Layer 2 (Pass)
//Storyboard Layer 3 (Foreground)
//Storyboard Sound Samples

[TimingPoints]
391,428.571428571429,4,2,1,70,1,0
15819,-100,4,2,1,60,0,0
43248,-100,4,2,1,40,0,0
53105,-100,4,2,1,70,0,0
53533,-100,4,2,1,50,0,0
60391,-100,4,2,1,90,0,1
73676,-100,4,2,1,70,0,0
74105,-100,4,2,1,90,0,1
87819,-100,4,2,1,70,0,0
101533,-100,4,2,1,60,0,0
128962,-100,4,2,1,40,0,0
139248,-100,4,2,1,50,0,0
146105,-100,4,2,1,90,0,1
159391,-100,4,2,1,70,0,0
159819,-100,4,2,1,90,0,1
173533,-100,4,2,1,40,0,0
187248,-100,4,2,1,50,0,0
200962,-100,4,2,1,70,0,0
218105,-100,4,2,1,30,0,0
224962,-100,4,2,1,50,0,0
228391,-100,4,2,1,60,0,0
231819,-100,4,2,1,100,0,1
245533,-100,4,2,1,70,0,0
258176,-100,4,2,1,50,0,0
258391,454.545454545455,4,2,1,70,1,0
258731,-100,4,2,1,60,0,0
259072,-100,4,2,1,50,0,0
259301,400,4,2,1,50,1,0
260101,483.870967741935,4,2,1,60,1,0
261552,428.571428571429,4,2,1,60,1,0
262409,-100,4,2,1,55,0,0
262837,-100,4,2,1,50,0,0
263266,-100,4,2,1,45,0,0
263694,-100,4,2,1,40,0,0
264123,-100,4,2,1,35,0,0
264552,-100,4,2,1,30,0,0
264980,-100,4,2,1,25,0,0
265409,-100,4,2,1,20,0,0
265837,-100,4,2,1,15,0,0
266266,-100,4,2,1,10,0,0
266694,-100,4,2,1,5,0,0

[Colours]
Combo1 : 130,187,251
Combo2 : 247,70,171
Combo3 : 7,190,222
Combo4 : 133,124,184
Combo5 : 222,208,188

[HitObjects]
94,94,391,6,0,B|126:108|126:108|208:90,1,100,4|2,0:0|0:0,0:0:0:0:
239,31,1248,2,0,P|264:62|226:166,1,150,4|0,0:0|0:0,0:0:0:0:
200,175,2105,2,0,B|194:214|194:214|216:275,1,100,4|2,0:0|0:0,0:0:0:0:
275,322,2962,2,0,L|384:322,1,100,4|2,0:0|0:0,0:0:0:0:
441,277,3819,6,0,P|432:230|447:174,1,100,4|2,0:0|0:0,0:0:0:0:
506,129,4676,2,0,P|432:102|374:142,1,150,4|0,0:0|0:0,0:0:0:0:
361,175,5533,2,0,B|310:169|310:169|257:128,2,100,4|0|0,0:0|0:0|0:0,0:0:0:0:
443,179,6819,1,8,3:2:0:0:
400,246,7248,6,0,B|397:315|397:315|368:354,1,100,4|8,0:0|0:0,0:0:0:0:
300,320,8105,1,2,3:2:0:0:
227,354,8533,1,10,0:0:0:0:
176,291,8962,2,0,L|113:212,1,100,0|8,0:0|0:0,0:0:0:0:
127,133,9819,1,2,3:2:0:0:
185,77,10248,1,10,0:0:0:0:
264,77,10676,6,0,P|312:82|380:75,1,100,4|8,0:0|0:0,0:0:0:0:
437,48,11533,1,2,0:0:0:0:
468,121,11962,1,8,0:0:0:0:
500,194,12391,2,0,L|500:307,1,100,4|8,3:2|0:0,0:0:0:0:
430,334,13248,2,0,B|379:334|379:334|288:290|288:290|220:289,1,200,0|0,3:0|3:0,0:0:0:0:
204,270,14319,6,0,B|173:199|236:199|203:126,1,150,8|8,3:0|3:0,0:0:0:0:
153,62,15391,1,8,0:0:0:0:
221,20,15819,6,0,P|270:14|331:22,1,100,4|8,0:0|0:0,0:0:0:0:
378,74,16676,1,0,0:0:0:0:
360,152,17105,1,8,0:0:0:0:
424,200,17533,2,0,B|463:216|498:199|498:199|477:235|490:274,1,150,0|2,0:0|3:2,0:0:0:0:
506,306,18391,2,0,B|466:332|466:332|399:334,1,100,0|8,3:0|0:0,0:0:0:0:
333,330,19248,6,0,B|298:292|298:292|243:265,1,100,0|8,0:0|0:0,0:0:0:0:
191,320,20105,1,0,0:0:0:0:
112,305,20533,1,8,0:0:0:0:
49,354,20962,2,0,P|31:308|83:230,1,150,0|2,0:0|3:2,0:0:0:0:
122,225,21819,2,0,B|140:194|140:194|140:114,1,100,0|8,3:0|0:0,0:0:0:0:
181,61,22676,5,0,0:0:0:0:
100,61,23105,2,0,L|0:61,2,100,8|0|8,0:0|0:0|0:0,0:0:0:0:
181,61,24391,2,0,L|290:61,1,100,0|8,0:0|0:0,0:0:0:0:
351,98,25248,1,0,3:0:0:0:
419,139,25676,1,8,0:0:0:0:
486,182,26105,6,0,B|476:281|476:281|440:326,1,150,0|2,0:0|3:2,0:0:0:0:
404,312,26962,2,0,P|327:282|220:338,1,200,0|0,0:0|0:0,0:0:0:0:
150,359,28248,2,0,L|119:255,1,100,12|0,0:0|3:0,0:0:0:0:
96,186,29105,1,8,0:0:0:0:
121,110,29533,6,0,P|76:109|30:143,1,100,4|8,0:0|0:0,0:0:0:0:
22,218,30391,1,0,0:0:0:0:
96,186,30819,1,8,0:0:0:0:
174,168,31248,2,0,B|204:201|204:201|266:184|316:230,1,150,0|2,0:0|3:2,0:0:0:0:
331,249,32105,2,0,P|378:252|432:225,1,100,0|8,3:0|0:0,0:0:0:0:
433,151,32962,6,0,L|418:45,1,100,0|8,0:0|0:0,0:0:0:0:
339,43,33819,1,0,0:0:0:0:
258,45,34248,1,8,0:0:0:0:
178,51,34676,2,0,P|216:115|288:121,1,150,0|2,0:0|0:0,0:0:0:0:
324,132,35533,2,0,P|335:177|314:240,1,100,0|8,3:0|0:0,0:0:0:0:
262,283,36391,5,4,0:0:0:0:
284,359,36819,2,0,L|394:383,2,100,8|0|8,0:0|0:0|0:0,0:0:0:0:
206,338,38105,2,0,L|94:313,1,100,0|8,0:0|0:0,0:0:0:0:
56,255,38962,2,0,P|63:201|53:151,1,100,0|8,3:0|0:0,0:0:0:0:
77,79,39819,5,0,0:0:0:0:
156,83,40248,2,0,P|201:107|252:117,1,100,12|0,0:0|0:0,0:0:0:0:
325,94,41105,1,12,0:0:0:0:
402,112,41533,2,0,L|415:234,1,100,4|0,0:0|3:0,0:0:0:0:
386,287,42391,1,2,0:0:0:0:
306,294,42819,1,6,0:0:0:0:
270,365,43248,5,4,0:0:0:0:
349,363,43676,2,0,L|454:381,2,100,2|2|10,0:0|0:0|0:0,0:0:0:0:
306,294,44962,1,2,0:0:0:0:
264,225,45391,2,0,L|165:208,2,100,2|2|10,0:0|0:0|0:0,0:0:0:0:
346,223,46676,5,2,0:0:0:0:
408,172,47105,2,0,L|490:103,2,100,2|2|10,0:0|0:0|0:0,0:0:0:0:
332,145,48391,2,0,L|304:48,1,100,2|2,0:0|0:0,0:0:0:0:
224,48,49248,2,0,L|193:149,1,100,2|8,0:0|0:0,0:0:0:0:
136,198,50105,5,4,0:0:0:0:
158,274,50533,2,0,L|186:372,2,100,2|2|10,0:0|0:0|0:0,0:0:0:0:
215,218,51819,2,0,L|312:239,2,100,2|2|0,0:0|0:0|0:0,0:0:0:0:
158,274,53105,1,4,0:0:0:0:
78,271,53533,6,0,P|55:233|56:172,1,100,4|8,0:0|0:0,0:0:0:0:
89,106,54391,1,0,3:0:0:0:
169,125,54819,1,8,0:0:0:0:
202,52,55248,2,0,B|246:38|246:38|369:54,2,150,0|2|8,0:0|0:0|0:0,0:0:0:0:
169,125,56962,6,0,B|178:182|223:208|223:208|249:168|305:162|305:162|291:237|349:288|349:288|385:223,1,400,4|0,3:2|3:0,0:0:0:0:
377,235,60391,6,0,P|348:273|284:287,2,100,4|8|0,0:0|0:0|3:0,0:0:0:0:
302,206,61676,1,8,0:0:0:0:
233,247,62105,2,0,P|228:320|287:366,1,150,0|2,0:0|0:0,0:0:0:0:
324,365,62962,2,0,P|369:356|423:367,1,100,0|8,3:0|0:0,0:0:0:0:
492,328,63819,5,0,0:0:0:0:
500,248,64248,1,8,0:0:0:0:
509,168,64676,2,0,B|513:134|513:134|491:57,1,100,0|8,3:0|0:0,0:0:0:0:
431,21,65533,2,0,P|384:6|322:33,2,100,0|8|0,0:0|0:0|3:0,0:0:0:0:
383,85,66819,1,8,0:0:0:0:
303,94,67248,6,0,P|270:68|256:5,2,100,4|8|0,0:0|0:0|3:0,0:0:0:0:
383,85,68533,1,8,0:0:0:0:
353,159,68962,2,0,B|338:204|338:204|355:312,1,150,0|2,0:0|0:0,0:0:0:0:
339,342,69819,2,0,P|284:348|230:338,1,100,0|8,3:0|0:0,0:0:0:0:
192,276,70676,5,0,0:0:0:0:
145,210,71105,2,0,P|95:203|46:209,1,100,12|0,0:0|0:0,0:0:0:0:
4,277,71962,1,12,0:0:0:0:
46,345,72391,2,0,P|93:351|145:344,1,100,4|12,3:2|0:0,0:0:0:0:
192,276,73248,1,6,3:2:0:0:
268,251,73676,1,10,3:2:0:0:
344,275,74105,6,0,L|365:376,2,100,4|8|0,0:0|0:0|3:0,0:0:0:0:
328,196,75390,1,8,0:0:0:0:
268,251,75819,2,0,L|143:366,1,150,0|2,0:0|0:0,0:0:0:0:
125,376,76676,2,0,P|69:373|30:336,1,100,0|8,3:0|0:0,0:0:0:0:
101,301,77533,5,0,0:0:0:0:
138,230,77962,1,8,0:0:0:0:
95,163,78390,2,0,P|98:113|126:69,1,100,0|8,3:0|0:0,0:0:0:0:
203,71,79247,2,0,L|323:71,2,100,0|8|0,0:0|0:0|3:0,0:0:0:0:
123,71,80533,1,8,0:0:0:0:
54,111,80962,6,0,P|43:66|65:16,2,100,4|8|0,0:0|0:0|3:0,0:0:0:0:
124,149,82247,1,8,0:0:0:0:
200,172,82676,2,0,B|239:187|239:187|354:172,1,150,0|2,0:0|0:0,0:0:0:0:
382,155,83533,2,0,P|416:184|443:256,1,100,0|8,3:0|0:0,0:0:0:0:
414,308,84390,5,4,0:0:0:0:
348,353,84819,2,0,P|299:354|244:326,1,100,12|4,0:0|0:0,0:0:0:0:
214,263,85676,1,8,3:0:0:0:
153,210,86105,2,0,P|98:218|60:269,1,100,6|14,0:0|0:0,0:0:0:0:
137,286,86962,1,6,0:0:0:0:
214,263,87390,1,14,0:0:0:0:
291,241,87819,6,0,L|297:132,1,100,4|8,0:0|0:0,0:0:0:0:
359,92,88676,1,2,0:0:0:0:
435,115,89105,1,10,0:0:0:0:
512,143,89533,2,0,L|508:255,1,100,0|8,0:0|0:0,0:0:0:0:
442,288,90391,1,2,3:2:0:0:
375,332,90819,1,10,0:0:0:0:
298,309,91248,6,0,P|252:298|192:314,1,100,0|10,0:0|0:0,0:0:0:0:
139,360,92105,1,2,3:2:0:0:
59,356,92533,1,8,0:0:0:0:
8,293,92962,2,0,P|8:239|45:183,1,100,0|8,0:0|0:0,0:0:0:0:
107,183,93819,2,0,P|128:138|127:88,1,100,0|8,3:0|0:0,0:0:0:0:
81,23,94676,6,0,P|118:9|180:27,1,100,4|8,0:0|0:0,0:0:0:0:
209,95,95533,1,2,0:0:0:0:
282,126,95962,1,10,0:0:0:0:
354,159,96391,2,0,L|462:205,1,100,0|8,0:0|0:0,0:0:0:0:
457,277,97248,1,2,3:2:0:0:
413,343,97676,1,10,0:0:0:0:
333,353,98105,6,0,L|226:371,1,100,4|10,0:0|0:0,0:0:0:0:
162,333,98962,2,0,L|58:314,1,100,2|8,3:2|0:0,0:0:0:0:
32,241,99819,2,0,P|19:191|48:133,2,100,4|8|2,3:2|0:0|3:2,0:0:0:0:
98,196,101105,1,2,3:2:0:0:
112,117,101533,6,0,P|162:115|209:91,1,100,4|8,0:0|0:0,0:0:0:0:
267,42,102390,1,0,0:0:0:0:
339,76,102819,1,8,0:0:0:0:
331,155,103248,2,0,P|320:212|359:309,1,150,0|2,0:0|3:2,0:0:0:0:
382,320,104105,2,0,P|432:313|471:280,1,100,0|8,3:0|0:0,0:0:0:0:
459,204,104962,6,0,L|470:90,1,100,0|8,0:0|0:0,0:0:0:0:
418,41,105819,1,0,0:0:0:0:
339,53,106247,1,8,0:0:0:0:
260,66,106676,2,0,B|218:79|185:66|185:66|146:69|115:113,1,150,0|2,0:0|3:2,0:0:0:0:
102,136,107533,2,0,B|102:200|102:200|120:231,1,100,0|8,3:0|0:0,0:0:0:0:
162,298,108390,5,0,0:0:0:0:
226,346,108819,2,0,P|241:300|217:238,2,100,8|0|8,0:0|0:0|0:0,0:0:0:0:
151,374,110105,2,0,L|51:374,1,100,0|8,0:0|0:0,0:0:0:0:
24,298,110962,1,0,3:0:0:0:
0,221,111390,1,8,0:0:0:0:
38,150,111819,6,0,B|63:147|88:164|88:164|136:182|197:137,1,150,0|2,0:0|0:0,0:0:0:0:
211,123,112676,2,0,P|250:149|272:205,1,100,0|8,0:0|0:0,0:0:0:0:
276,276,113533,1,0,3:0:0:0:
226,338,113962,2,0,L|117:332,1,100,12|0,0:0|3:0,0:0:0:0:
75,270,114819,1,8,0:0:0:0:
2,235,115247,6,0,P|41:197|93:190,1,100,4|8,0:0|0:0,0:0:0:0:
164,197,116105,1,0,0:0:0:0:
231,154,116533,1,8,0:0:0:0:
266,82,116962,2,0,P|327:57|413:83,1,150,0|2,0:0|3:2,0:0:0:0:
430,109,117819,2,0,P|436:151|411:211,1,100,0|8,3:0|0:0,0:0:0:0:
365,266,118676,6,0,L|390:369,1,100,0|8,0:0|0:0,0:0:0:0:
466,380,119533,1,0,0:0:0:0:
512,317,119962,1,8,0:0:0:0:
469,249,120391,2,0,B|443:208|443:208|443:98,1,150,0|2,0:0|0:0,0:0:0:0:
417,75,121248,2,0,L|316:75,1,100,0|8,0:0|3:2,0:0:0:0:
255,126,122105,5,4,0:0:0:0:
192,176,122533,2,0,L|90:175,2,100,8|0|8,0:0|0:0|0:0,0:0:0:0:
267,203,123819,2,0,L|342:282,1,100,0|8,0:0|0:0,0:0:0:0:
392,332,124676,2,0,P|415:286|401:233,1,100,0|8,3:0|0:0,0:0:0:0:
352,180,125533,5,0,0:0:0:0:
275,156,125962,2,0,P|305:115|356:100,1,100,12|0,0:0|0:0,0:0:0:0:
422,134,126819,1,12,0:0:0:0:
490,174,127247,2,0,L|503:296,1,100,4|0,0:0|3:0,0:0:0:0:
432,315,128105,1,2,0:0:0:0:
354,294,128533,1,6,0:0:0:0:
283,332,128962,5,4,0:0:0:0:
283,252,129390,2,0,L|283:134,2,100,2|2|10,0:0|0:0|0:0,0:0:0:0:
213,291,130676,1,2,0:0:0:0:
142,252,131105,2,0,L|25:264,2,100,2|2|10,0:0|0:0|0:0,0:0:0:0:
212,212,132390,5,2,0:0:0:0:
284,177,132819,2,0,L|383:166,2,100,2|2|10,0:0|0:0|0:0,0:0:0:0:
216,134,134105,2,0,L|174:41,1,100,2|2,0:0|0:0,0:0:0:0:
94,43,134962,2,0,L|40:143,1,100,2|8,0:0|0:0,0:0:0:0:
64,208,135819,5,6,0:0:0:0:
131,251,136247,2,0,L|240:251,2,100,2|2|10,0:0|0:0|0:0,0:0:0:0:
60,289,137533,2,0,L|9:378,2,100,2|2|0,0:0|0:0|0:0,0:0:0:0:
64,208,138819,1,4,0:0:0:0:
22,140,139247,6,0,P|71:129|121:152,1,100,4|8,0:0|0:0,0:0:0:0:
145,221,140105,1,0,3:0:0:0:
218,252,140533,1,8,0:0:0:0:
289,215,140962,2,0,P|286:292|214:332,2,150,0|2|0,0:0|0:0|3:0,0:0:0:0:
221,171,142676,6,0,B|256:124|316:124|351:164|351:164|376:160|394:137|394:137|408:52|338:1|269:12,1,400,4|0,3:2|3:0,0:0:0:0:
280,10,146105,6,0,B|399:10,2,100,4|8|0,0:0|0:0|3:0,0:0:0:0:
243,81,147390,1,8,0:0:0:0:
276,153,147819,2,0,B|315:174|315:174|433:156,1,150,0|2,0:0|0:0,0:0:0:0:
459,155,148676,2,0,L|454:260,1,100,0|8,3:0|0:0,0:0:0:0:
448,335,149533,5,0,0:0:0:0:
371,358,149962,1,8,0:0:0:0:
294,380,150390,2,0,P|252:353|193:345,1,100,0|8,3:0|0:0,0:0:0:0:
132,382,151247,2,0,P|122:349|157:278,2,100,0|8|0,0:0|0:0|3:0,0:0:0:0:
203,344,152533,1,8,0:0:0:0:
218,265,152962,6,0,L|236:167,2,100,4|8|0,0:0|0:0|3:0,0:0:0:0:
143,289,154247,1,8,0:0:0:0:
65,307,154676,2,0,B|7:231|7:231|8:173,1,150,0|2,0:0|0:0,0:0:0:0:
22,138,155533,2,0,P|69:131|122:139,1,100,0|8,3:0|0:0,0:0:0:0:
186,183,156390,5,0,0:0:0:0:
252,228,156819,2,0,L|359:228,1,100,12|0,0:0|0:0,0:0:0:0:
422,190,157676,1,12,0:0:0:0:
424,270,158105,2,0,L|459:375,1,100,4|12,3:2|0:0,0:0:0:0:
376,377,158962,1,0,3:0:0:0:
296,382,159390,1,12,3:2:0:0:
228,339,159819,6,0,P|208:288|153:258,2,100,4|8|0,0:0|0:0|3:0,0:0:0:0:
148,340,161104,1,8,0:0:0:0:
93,280,161533,2,0,P|106:219|179:183,1,150,0|2,0:0|0:0,0:0:0:0:
218,194,162390,2,0,P|258:220|309:221,1,100,0|8,3:0|0:0,0:0:0:0:
386,200,163247,5,0,0:0:0:0:
451,246,163676,1,8,0:0:0:0:
446,325,164104,2,0,L|345:352,1,100,0|8,3:0|0:0,0:0:0:0:
277,315,164961,2,0,L|167:288,2,100,0|12|0,0:0|0:0|3:0,0:0:0:0:
343,270,166247,1,8,0:0:0:0:
365,193,166676,6,0,P|399:214|424:277,2,100,4|8|0,0:0|0:0|3:0,0:0:0:0:
287,214,167961,1,8,0:0:0:0:
210,238,168390,2,0,B|178:212|178:212|157:91,1,150,0|2,0:0|0:0,0:0:0:0:
129,77,169247,2,0,P|69:74|26:96,1,100,0|8,3:0|0:0,0:0:0:0:
0,162,170104,5,4,0:0:0:0:
1,242,170533,2,0,P|34:273|91:291,1,100,12|4,0:0|0:0,0:0:0:0:
161,265,171391,1,8,3:0:0:0:
229,222,171819,2,0,P|241:274|220:322,1,100,4|12,0:0|0:0,0:0:0:0:
147,343,172676,1,6,0:0:0:0:
161,265,173104,1,14,0:0:0:0:
158,184,173533,5,2,0:0:0:0:
206,104,187248,6,0,L|107:85,1,100,14|2,0:0|0:0,0:0:0:0:
53,26,188105,1,8,0:0:0:0:
27,101,188533,1,2,0:0:0:0:
3,177,188962,2,0,P|23:226|28:275,1,100,10|2,0:0|0:0,0:0:0:0:
65,343,189819,2,0,P|108:341|173:317,1,100,10|2,0:0|0:0,0:0:0:0:
214,262,190676,5,10,0:0:0:0:
291,282,191105,1,2,0:0:0:0:
352,230,191533,2,0,P|395:256|458:266,1,100,10|2,0:0|0:0,0:0:0:0:
504,213,192391,2,0,P|492:158|456:111,2,100,10|2|8,0:0|0:0|0:0,0:0:0:0:
443,266,193676,1,8,3:0:0:0:
382,318,194105,6,0,L|280:318,1,100,14|2,0:0|0:0,0:0:0:0:
216,271,194962,1,10,0:0:0:0:
143,305,195390,1,2,0:0:0:0:
63,312,195819,2,0,P|75:347|104:376,2,75,8|8|8,3:0|3:0|3:0,0:0:0:0:
72,273,196676,2,0,P|77:238|58:170,1,100,10|2,0:0|0:0,0:0:0:0:
48,97,197533,5,14,0:0:0:0:
110,46,197962,1,2,0:0:0:0:
186,70,198390,2,0,L|297:71,1,100,14|2,0:0|0:0,0:0:0:0:
353,26,199248,2,0,P|367:75|336:134,2,100,14|6|12,0:0|0:0|0:0,0:0:0:0:
285,70,200533,1,8,3:0:0:0:
276,149,200962,6,0,L|266:252,1,100,6|8,0:2|0:0,0:0:0:0:
281,285,201605,2,0,L|293:344,1,50,2|2,0:0|3:2,0:0:0:0:
364,365,202248,1,10,0:2:0:0:
438,335,202676,2,0,L|462:238,1,100,2|8,0:0|0:0,0:0:0:0:
428,165,203533,1,2,3:2:0:0:
395,91,203962,1,10,0:0:0:0:
317,70,204391,6,0,P|265:80|203:62,2,100,2|10|2,0:0|0:0|3:2,0:0:0:0:
374,14,205676,1,8,0:0:0:0:
395,91,206105,2,0,L|426:199,1,100,2|8,0:0|0:0,0:0:0:0:
389,259,206962,1,2,3:2:0:0:
352,330,207391,1,8,0:0:0:0:
274,347,207819,6,0,B|223:353|223:353|165:344,1,100,6|8,0:0|0:0,0:0:0:0:
144,319,208462,2,0,L|76:328,1,50,2|2,0:0|3:2,0:0:0:0:
46,261,209105,1,10,0:0:0:0:
51,181,209533,2,0,L|169:166,1,100,2|10,0:0|0:0,0:0:0:0:
229,157,210391,1,2,3:2:0:0:
308,149,210819,1,10,0:0:0:0:
371,99,211248,6,0,P|387:132|371:200,2,100,4|10|2,0:0|0:0|3:2,0:0:0:0:
308,149,212533,1,10,0:0:0:0:
304,228,212962,2,0,P|335:262|389:272,1,100,6|8,0:0|0:0,0:0:0:0:
449,223,213819,1,2,3:2:0:0:
459,143,214248,1,8,0:0:0:0:
400,88,214676,6,0,B|314:136|301:59|207:102|207:102|195:198|274:192|247:291,1,400,6|6,3:2|0:0,0:0:0:0:
101,358,217248,6,0,P|66:303|165:259,1,200,6|2,0:0|0:0,0:0:0:0:
181,91,224962,6,0,L|81:79,1,100,6|2,1:2|1:2,0:0:0:0:
17,31,225819,1,2,1:2:0:0:
7,110,226248,1,2,1:2:0:0:
30,186,226676,2,0,B|64:216|64:216|171:188,1,150,2|2,1:2|0:0,0:0:0:0:
203,181,227533,2,0,L|178:278,1,100,2|2,1:2|1:2,0:0:0:0:
154,354,228391,6,0,P|199:355|243:325,1,100,6|0,1:2|1:2,0:0:0:0:
281,252,229248,2,0,P|332:256|382:291,1,100,6|0,1:2|1:2,0:0:0:0:
450,300,230105,1,6,1:2:0:0:
507,244,230533,1,6,1:2:0:0:
478,169,230962,2,0,L|439:72,1,100,2|6,3:2|0:0,0:0:0:0:
364,51,231819,6,0,B|314:57|314:57|260:50,2,100,4|8|0,0:0|0:0|3:0,0:0:0:0:
425,0,233105,1,8,0:0:0:0:
440,76,233533,2,0,B|449:120|449:120|409:226,1,150,0|2,0:0|0:0,0:0:0:0:
397,255,234391,2,0,P|344:264|284:250,1,100,0|8,3:0|0:0,0:0:0:0:
238,203,235248,5,0,0:0:0:0:
167,240,235677,1,8,0:0:0:0:
97,279,236105,2,0,B|62:267|62:267|25:212,1,100,0|8,3:0|0:0,0:0:0:0:
54,139,236962,2,0,L|-11:42,2,100,0|8|0,0:0|0:0|3:0,0:0:0:0:
134,139,238248,1,8,0:0:0:0:
211,119,238677,6,0,P|246:91|320:82,2,100,4|8|0,0:0|0:0|3:0,0:0:0:0:
189,195,239962,1,8,0:0:0:0:
209,272,240391,2,0,B|252:295|305:269|305:269|346:307,1,150,0|2,0:0|0:0,0:0:0:0:
377,321,241248,2,0,L|474:264,1,100,0|8,3:0|0:0,0:0:0:0:
495,196,242105,5,4,0:0:0:0:
476,118,242534,2,0,P|451:76|401:47,1,100,12|4,0:0|0:0,0:0:0:0:
333,78,243391,1,8,3:0:0:0:
278,136,243820,2,0,P|226:140|165:107,1,100,6|14,0:0|0:0,0:0:0:0:
133,59,244677,1,6,0:0:0:0:
103,133,245105,1,14,0:0:0:0:
80,209,245533,6,0,P|121:227|168:269,1,100,4|8,0:0|0:0,0:0:0:0:
189,338,246391,1,2,3:2:0:0:
259,376,246819,1,10,0:0:0:0:
340,380,247248,2,0,P|385:373|439:341,1,100,0|8,0:0|0:0,0:0:0:0:
449,268,248105,1,2,3:2:0:0:
464,189,248533,1,10,0:0:0:0:
415,125,248962,6,0,L|301:161,1,100,0|8,0:0|0:0,0:0:0:0:
245,123,249819,1,2,3:2:0:0:
204,53,250248,1,10,0:0:0:0:
129,23,250676,2,0,B|97:11|97:11|12:11,2,100,0|12|0,0:0|0:0|3:0,0:0:0:0:
139,102,251962,1,12,3:2:0:0:
114,178,252391,6,0,B|106:209|106:209|122:282,1,100,4|8,0:0|0:0,0:0:0:0:
190,315,253248,1,2,3:2:0:0:
260,353,253676,1,10,0:0:0:0:
330,314,254105,2,0,L|445:314,1,100,0|8,0:0|0:0,0:0:0:0:
477,249,254962,1,2,3:2:0:0:
477,168,255391,1,10,0:0:0:0:
434,100,255819,6,0,P|401:65|350:44,1,100,6|2,3:2|3:2,0:0:0:0:
278,72,256676,2,0,P|274:43|289:-1,2,75,6|2|2,3:2|3:2|3:2,0:0:0:0:
294,108,257533,1,4,3:2:0:0:
200,226,258391,6,0,L|107:226,2,75,12|8|8,3:0|3:0|3:0,0:0:0:0:
236,253,259301,2,0,L|443:253,1,200,2|2,0:0|0:0,0:0:0:0:
256,49,261552,5,2,0:0:0:0:
256,192,261766,12,0,266694,0:0:0:0:
