osu file format v14

[General]
AudioFilename: audio.mp3
AudioLeadIn: 0
PreviewTime: 43683
Countdown: 0
SampleSet: Soft
StackLeniency: 0.7
Mode: 0
LetterboxInBreaks: 0
WidescreenStoryboard: 0

[Editor]
Bookmarks: 6760,31376,43683,55991,68299,70222
DistanceSpacing: 0.3
BeatDivisor: 4
GridSize: 32
TimelineZoom: 2.1

[Metadata]
Title:Nanka Ii Koto
TitleUnicode:なんかいいこと
Artist:Yura Hatsuki
ArtistUnicode:葉月ゆら
Creator:Hanazawa Kana
Version:Kami's Hard
Source:がんばれ!メメ子ちゃん
Tags:La Pucelle opening Seifumeigetsu 清風明月 kamisamaaa
BeatmapID:992355
BeatmapSetID:459012

[Difficulty]
HPDrainRate:5
CircleSize:4
OverallDifficulty:6.5
ApproachRate:8
SliderMultiplier:1.6
SliderTickRate:1

[Events]
//Background and Video events
0,0,"BG.jpg",0,0
//Break Periods
//Storyboard Layer 0 (Background)
//Storyboard Layer 1 (Fail)
//Storyboard Layer 2 (Pass)
//Storyboard Layer 3 (Foreground)
//Storyboard Sound Samples

[TimingPoints]
607,384.615384615385,4,2,1,40,1,0
4260,-200,4,2,1,40,0,0
6183,-100,4,2,1,60,0,0
43683,-100,4,2,1,70,0,1
51472,-100,4,2,1,5,0,1
51568,-100,4,2,1,70,0,1
51857,-100,4,2,1,5,0,1
51953,-100,4,2,1,70,0,1
53203,-100,4,2,1,5,0,1
53299,-100,4,2,1,70,0,1
53972,-100,4,2,1,5,0,1
54068,-100,4,2,1,70,0,1
54549,-100,4,2,1,5,0,1
54645,-100,4,2,1,70,0,1
54933,-100,4,2,1,5,0,1
55030,-100,4,2,1,70,0,1
66568,-200,4,2,1,70,0,1
66857,-200,4,2,1,5,0,1
66953,-200,4,2,1,70,0,1
67914,-200,4,2,1,5,0,1
68299,-100,4,2,1,40,0,0
71953,-200,4,2,1,40,0,0
75991,-200,4,2,1,10,0,0

[Colours]
Combo1 : 245,179,167
Combo2 : 58,226,181
Combo3 : 206,164,238
Combo4 : 214,233,137

[HitObjects]
222,85,607,5,2,0:0:0:0:
222,85,991,2,0,L|222:180,1,80
222,253,1376,1,2,0:0:0:0:
360,190,1760,2,0,B|406:183|448:211,1,80,2|0,0:0|0:0,0:0:0:0:
387,275,2145,2,0,L|290:261,1,80
185,164,2530,2,0,L|264:175,1,80,2|0,0:0|0:0,0:0:0:0:
76,253,3107,5,2,0:0:0:0:
50,168,3299,1,2,0:0:0:0:
68,82,3491,1,0,0:0:0:0:
133,23,3683,2,0,B|191:22|229:42|229:42|291:23,1,160
323,104,4260,6,0,L|232:133,1,80,0|2,0:0|0:0,0:0:0:0:
247,308,5030,2,0,B|290:312|313:266,1,80,2|0,0:0|0:0,0:0:0:0:
344,190,5607,1,0,0:0:0:0:
426,159,5799,2,0,L|438:249,1,80,2|0,0:0|1:0,0:0:0:0:
421,315,6280,5,0,1:0:0:0:
413,328,6376,2,0,L|323:344,1,80,0|0,1:0|0:0,0:0:0:0:
227,248,6760,6,0,L|201:323,1,80,4|0,0:0|0:0,0:0:0:0:
122,145,7145,2,0,L|150:228,1,80,8|0,0:0|0:0,0:0:0:0:
299,194,7530,1,2,0:0:0:0:
212,160,7722,1,0,0:0:0:0:
301,103,7914,2,0,P|344:96|384:103,1,80,8|0,0:0|0:0,0:0:0:0:
455,197,8299,5,2,0:0:0:0:
378,100,8491,1,0,0:0:0:0:
371,210,8683,2,0,L|355:298,1,80,10|2,0:0|0:0,0:0:0:0:
277,245,9068,2,0,L|188:299,1,80,2|0,0:0|0:0,0:0:0:0:
79,262,9453,2,0,L|147:220,1,80,8|0,0:0|0:0,0:0:0:0:
86,156,9837,5,6,0:0:0:0:
142,88,10030,1,0,0:0:0:0:
221,50,10222,2,0,L|234:146,1,80,8|0,0:0|0:0,0:0:0:0:
284,198,10607,2,0,L|336:122,1,80,2|0,0:0|0:0,0:0:0:0:
400,61,10991,2,0,L|413:157,1,80,8|0,0:0|0:0,0:0:0:0:
468,200,11376,6,0,L|399:272,1,80,2|0,0:0|0:0,0:0:0:0:
484,299,11760,2,0,L|415:371,1,80,10|0,0:0|0:0,0:0:0:0:
349,328,12145,2,0,B|276:318|236:328|236:328|184:309,1,160,2|8,0:0|0:0,0:0:0:0:
113,271,12722,1,0,0:0:0:0:
134,185,12914,6,0,B|176:199|192:230|192:230|273:192,1,160,6|8,0:0|0:0,0:0:0:0:
352,192,13491,1,0,0:0:0:0:
428,139,13683,2,0,L|435:223,1,80,2|0,0:0|0:0,0:0:0:0:
388,40,14068,2,0,L|338:122,1,80,10|0,0:0|0:0,0:0:0:0:
261,73,14453,6,0,P|212:65|176:73,1,80,2|0,0:0|0:0,0:0:0:0:
38,112,14837,2,0,P|87:120|123:112,1,80,10|0,0:0|0:0,0:0:0:0:
84,42,15222,1,2,0:0:0:0:
84,42,15414,1,0,0:0:0:0:
76,138,15607,2,0,L|74:230,1,80,8|0,0:0|0:0,0:0:0:0:
79,305,15991,6,0,B|102:331|102:331|142:320|184:334|184:334|235:330,1,160,6|8,0:0|0:0,0:0:0:0:
314,328,16568,1,0,0:0:0:0:
261,257,16760,2,0,P|247:211|260:177,1,80,2|0,0:0|0:0,0:0:0:0:
294,95,17145,1,10,1:2:0:0:
294,95,17241,1,0,1:2:0:0:
294,95,17337,1,0,1:2:0:0:
346,164,17530,6,0,L|406:281,1,120,6|0,1:2|0:0,0:0:0:0:
425,350,17914,2,0,P|369:349|325:302,1,120,14|0,0:0|0:0,0:0:0:0:
265,237,18299,2,0,L|239:322,1,80,6|0,0:0|0:0,0:0:0:0:
146,319,18683,1,8,0:0:0:0:
60,292,18876,5,0,1:2:0:0:
60,292,18972,1,0,1:2:0:0:
60,292,19068,2,0,L|36:215,1,80,6|0,1:2|0:0,0:0:0:0:
19,106,19453,1,10,0:0:0:0:
118,64,19645,2,0,P|123:110|106:168,1,80,2|0,0:0|0:0,0:0:0:0:
211,85,20030,2,0,P|249:74|291:93,1,80,2|8,0:0|0:0,0:0:0:0:
308,173,20414,2,0,P|344:186|383:177,1,80,2|0,0:0|0:0,0:0:0:0:
448,118,20799,6,0,L|484:194,2,80,2|8|2,0:0|0:0|0:0,0:0:0:0:
403,44,21376,2,0,L|336:125,1,80,0|2,0:0|0:0,0:0:0:0:
265,118,21760,2,0,L|280:220,1,80,10|0,0:0|0:0,0:0:0:0:
364,188,22145,6,0,B|384:201|389:228|389:228|417:251|417:251|423:288|441:322,1,160,6|8,0:0|0:0,0:0:0:0:
350,302,22722,2,0,P|269:286|185:312,1,160,2|0,0:0|0:0,0:0:0:0:
125,359,23299,2,0,L|111:280,1,80,8|0,0:0|0:0,0:0:0:0:
99,193,23683,5,0,0:0:0:0:
68,110,23876,2,0,B|43:75|43:75|6:64,2,80,2|8|0,0:0|0:0|0:0,0:0:0:0:
147,71,24453,2,0,B|177:50|177:50|220:53,1,80,0|2,0:0|0:0,0:0:0:0:
301,130,24837,2,0,B|270:150|270:150|227:147,1,80,10|0,0:0|0:0,0:0:0:0:
147,71,25222,5,2,0:0:0:0:
147,71,25414,1,0,0:0:0:0:
226,147,25607,2,0,P|246:195|250:225,1,80,10|0,0:0|0:0,0:0:0:0:
130,215,25991,1,2,0:0:0:0:
130,215,26183,1,0,0:0:0:0:
226,148,26376,2,0,P|271:132|316:132,1,80,10|0,0:0|0:0,0:0:0:0:
365,226,26760,6,0,P|320:224|272:205,1,80,2|0,0:0|0:0,0:0:0:0:
391,127,27145,2,0,L|449:202,1,80,10|0,0:0|0:0,0:0:0:0:
498,256,27530,1,0,0:0:0:0:
424,304,27722,2,0,P|404:339|399:380,2,80,2|8|0,0:0|0:0|0:0,0:0:0:0:
498,256,28299,6,0,P|453:252|407:224,1,80,4|2,0:0|0:0,0:0:0:0:
349,188,28683,1,8,0:0:0:0:
260,185,28876,2,0,L|233:272,1,80,2|0,0:0|0:0,0:0:0:0:
167,322,29260,1,2,0:0:0:0:
113,253,29453,1,8,1:2:0:0:
113,253,29549,1,0,1:2:0:0:
113,253,29645,2,0,L|103:159,1,80,2|0,1:2|0:0,0:0:0:0:
67,93,30030,5,2,0:0:0:0:
154,104,30222,2,0,L|250:89,1,80,8|0,0:0|0:0,0:0:0:0:
372,75,30607,1,0,1:2:0:0:
372,75,30703,1,0,1:2:0:0:
372,75,30799,1,2,1:2:0:0:
309,136,30991,2,0,P|287:199|294:227,1,80,10|0,0:0|0:0,0:0:0:0:
376,197,31376,6,0,P|436:232|373:283,1,160,6|8,0:0|0:0,0:0:0:0:
301,282,31953,1,0,0:0:0:0:
213,272,32145,2,0,P|166:325|227:361,1,160,6|8,0:0|0:0,0:0:0:0:
301,282,32722,1,0,0:0:0:0:
328,198,32914,6,0,P|327:145|315:116,1,80,2|0,0:0|0:0,0:0:0:0:
224,91,33299,2,0,P|225:144|237:173,1,80,10|0,0:0|0:0,0:0:0:0:
233,168,33876,1,0,0:0:0:0:
125,157,34068,2,0,P|76:150|41:156,1,80,10|0,0:0|0:0,0:0:0:0:
82,235,34453,6,0,P|156:241|211:166,1,160,6|8,0:0|0:0,0:0:0:0:
125,157,35030,1,0,0:0:0:0:
82,235,35222,2,0,L|41:324,1,80,6|0,0:0|0:0,0:0:0:0:
160,290,35607,2,0,L|119:379,1,80,8|0,0:0|0:0,0:0:0:0:
218,360,35991,6,0,B|240:365|240:365|297:312,1,80,6|0,0:0|0:0,0:0:0:0:
357,305,36376,2,0,L|363:392,1,80,10|0,0:0|0:0,0:0:0:0:
444,330,36760,1,0,0:0:0:0:
503,264,36953,1,2,0:0:0:0:
412,225,37145,1,8,1:2:0:0:
414,235,37241,1,0,1:2:0:0:
418,246,37337,1,0,1:2:0:0:
470,172,37530,6,0,B|473:128|473:128|437:99|437:99|422:64|422:64|386:44,1,160,6|8,0:0|0:0,0:0:0:0:
307,33,38107,2,0,B|305:97|347:122|347:122|297:179,1,160,2|0,0:0|0:0,0:0:0:0:
239,217,38683,1,8,0:0:0:0:
151,227,38876,2,0,P|94:205|76:177,1,80,2|0,0:0|0:0,0:0:0:0:
14,136,39260,5,2,1:2:0:0:
96,41,39453,1,10,1:2:0:0:
149,149,39645,1,6,1:2:0:0:
149,149,40030,1,2,0:0:0:0:
123,262,40222,1,8,0:2:0:0:
224,221,40414,1,0,1:2:0:0:
235,217,40510,1,0,1:2:0:0:
246,212,40607,6,0,P|327:184|424:198,1,160,6|8,0:0|0:0,0:0:0:0:
338,340,41183,2,0,P|312:276|375:287,1,160,6|0,0:0|0:0,0:0:0:0:
445,337,41760,1,8,0:0:0:0:
470,252,41953,6,0,B|495:203|466:150|499:93,1,160,6|0,0:0|0:0,0:0:0:0:
471,11,42530,2,0,L|391:58,1,80,8|2,0:0|0:0,0:0:0:0:
340,116,42914,1,0,1:2:0:0:
340,116,43010,1,0,1:2:0:0:
340,116,43107,1,0,1:2:0:0:
246,97,43299,2,0,L|253:192,1,80,10|0,0:0|0:0,0:0:0:0:
341,210,43683,6,0,L|282:293,1,80,6|0,0:0|0:0,0:0:0:0:
205,254,44068,2,0,L|212:349,1,80,10|0,0:0|0:0,0:0:0:0:
45,268,44453,1,2,0:0:0:0:
204,255,44645,1,0,0:0:0:0:
129,338,44837,1,10,0:0:0:0:
123,222,45030,6,2,L|110:58,1,160
28,42,45607,1,8,0:0:0:0:
197,23,45799,2,0,L|209:182,1,160,2|0,0:0|0:0,0:0:0:0:
156,263,46376,1,8,0:0:0:0:
275,109,46568,6,0,P|354:94|443:119,1,160,2|0,0:0|0:0,0:0:0:0:
492,193,47145,1,8,0:0:0:0:
412,311,47337,2,0,P|354:253|358:172,1,160,2|0,0:0|0:0,0:0:0:0:
297,101,47914,1,8,0:0:0:0:
201,111,48107,6,0,L|157:197,1,80,2|0,0:0|0:0,0:0:0:0:
131,32,48491,2,0,L|87:118,1,80,2|8,0:0|0:0,0:0:0:0:
67,195,48876,1,2,0:0:0:0:
124,272,49068,2,0,L|275:346,1,160,2|8,0:0|0:0,0:0:0:0:
343,326,49645,5,0,1:2:0:0:
353,338,49741,1,0,1:2:0:0:
363,349,49837,2,0,L|430:290,1,80,6|0,1:2|0:0,0:0:0:0:
329,169,50222,2,0,L|351:261,1,80,10|0,0:0|0:0,0:0:0:0:
400,103,50607,1,2,0:0:0:0:
259,102,50799,1,2,0:0:0:0:
426,189,50991,1,10,0:0:0:0:
259,102,51183,6,0,B|206:70|206:70|157:55|128:74,1,120,2|0,0:0|0:0,0:0:0:0:
92,119,51568,2,0,B|122:145|152:144|152:144|176:200,1,120,2|0,0:0|0:0,0:0:0:0:
193,278,51953,2,0,L|94:253,1,80,2|0,0:0|0:0,0:0:0:0:
287,298,52337,1,2,0:0:0:0:
133,348,52530,1,8,0:0:0:0:
173,193,52722,1,2,0:0:0:0:
287,298,52914,6,0,L|387:366,1,120,6|0,0:0|0:0,0:0:0:0:
427,367,53299,2,0,L|460:276,1,80,10|0,0:0|0:0,0:0:0:0:
472,183,53683,2,0,L|352:210,1,120,2|0,0:0|0:0,0:0:0:0:
315,216,54068,1,8,0:0:0:0:
351,134,54260,6,0,B|356:65|356:65|333:68|290:51,1,120,6|0,0:0|0:0,0:0:0:0:
232,29,54645,2,0,B|220:76|248:112|248:112|207:138,1,120,2|0,0:0|0:0,0:0:0:0:
315,216,55030,2,0,B|293:213|275:187|275:187|213:218,1,120,6|0,0:0|0:0,0:0:0:0:
146,258,55414,1,2,0:0:0:0:
61,187,55607,1,8,1:2:0:0:
57,206,55703,1,0,1:2:0:0:
54,221,55799,1,0,1:2:0:0:
21,109,55991,5,6,0:0:0:0:
136,110,56183,1,0,0:0:0:0:
21,109,56376,1,10,0:0:0:0:
136,110,56568,1,0,0:0:0:0:
73,40,56760,2,0,B|17:17|17:17|-7:31,2,80,2|2|8,0:0|0:0|0:0,0:0:0:0:
136,110,57337,6,0,P|208:148|303:140,1,160,2|0,0:0|0:0,0:0:0:0:
327,60,57914,1,8,0:0:0:0:
382,138,58107,2,0,L|446:323,1,160,2|0,0:0|0:0,0:0:0:0:
308,341,58683,1,10,0:0:0:0:
335,258,58876,1,0,0:0:0:0:
246,267,59068,6,0,L|146:307,1,80,2|0,0:0|0:0,0:0:0:0:
85,214,59453,2,0,L|159:184,1,80,10|0,0:0|0:0,0:0:0:0:
67,301,59837,1,2,0:0:0:0:
93,127,60030,1,0,0:0:0:0:
9,243,60222,1,10,0:0:0:0:
159,184,60414,6,0,P|176:100|131:48,1,160,2|0,0:0|0:0,0:0:0:0:
93,127,60991,1,10,0:0:0:0:
256,102,61183,1,0,0:0:0:0:
330,40,61376,2,0,L|384:213,1,160,2|8,0:0|0:0,0:0:0:0:
365,292,61953,5,0,1:2:0:0:
375,307,62049,1,0,1:2:0:0:
387,325,62145,2,0,L|435:249,1,80,6|0,1:2|0:0,0:0:0:0:
274,242,62530,2,0,L|288:333,1,80,8|0,0:0|0:0,0:0:0:0:
226,137,62914,2,0,L|174:225,1,80,2|0,0:0|0:0,0:0:0:0:
43,139,63299,2,0,L|135:122,1,80,8|0,0:0|0:0,0:0:0:0:
95,227,63683,5,2,1:2:0:0:
181,49,63876,1,2,1:2:0:0:
185,205,64068,1,10,1:2:0:0:
43,139,64260,2,0,P|1:207|21:297,1,160,6|0,1:2|0:0,0:0:0:0:
101,335,64837,1,8,1:2:0:0:
101,335,64933,1,0,1:2:0:0:
101,335,65030,1,0,1:2:0:0:
207,334,65222,6,0,B|263:337|263:337|294:355,2,80,6|0|14,0:0|0:0|0:0,0:0:0:0:
153,251,65799,2,0,P|162:188|185:162,1,80,2|4,0:0|0:0,0:0:0:0:
231,86,66183,1,0,1:2:0:0:
239,104,66280,1,0,1:2:0:0:
246,122,66376,1,10,1:2:0:0:
335,167,66568,6,0,L|321:244,1,60,6|0,0:0|0:0,0:0:0:0:
241,207,66953,1,0,1:0:0:0:
400,248,67145,1,2,1:2:0:0:
320,344,67337,2,0,P|262:329|231:278,1,120,6|0,0:0|0:0,0:0:0:0:
196,97,68299,5,2,0:0:0:0:
196,97,68683,2,0,L|130:166,1,80
81,220,69068,1,2,0:0:0:0:
230,223,69453,2,0,P|282:217|323:237,1,80,2|0,0:0|0:0,0:0:0:0:
269,308,69837,2,0,L|180:306,1,80
340,146,70222,2,0,L|419:147,1,80,2|0,0:0|0:0,0:0:0:0:
198,65,70799,5,2,0:0:0:0:
133,124,70991,1,2,0:0:0:0:
114,209,71183,1,0,0:0:0:0:
139,293,71376,2,0,P|207:322|296:280,1,160
212,157,71953,6,0,L|212:244,1,80,0|2,0:0|0:0,0:0:0:0:
336,189,72722,2,0,B|363:184|394:192|420:187,1,80,2|0,0:0|0:0,0:0:0:0:
489,122,73299,1,0,0:0:0:0:
402,80,73491,2,0,B|380:75|349:83|322:78,1,80,2|0,0:0|0:0,0:0:0:0:
221,39,74068,1,0,0:0:0:0:
178,133,74260,2,0,L|175:166,2,20,0|0|2,0:0|0:0|0:0,0:0:0:0:
256,192,74549,12,0,75991,0:0:0:0:
