osu file format v14

[General]
AudioFilename: audio.mp3
AudioLeadIn: 0
PreviewTime: 43683
Countdown: 0
SampleSet: Soft
StackLeniency: 0.7
Mode: 0
LetterboxInBreaks: 0
WidescreenStoryboard: 0

[Editor]
Bookmarks: 6760,17530,35895,68305
DistanceSpacing: 0.2
BeatDivisor: 4
GridSize: 32
TimelineZoom: 2.1

[Metadata]
Title:Nanka Ii Koto
TitleUnicode:なんかいいこと
Artist:Yura Hatsuki
ArtistUnicode:葉月ゆら
Creator:Hanazawa Kana
Version:Insane
Source:がんばれ!メメ子ちゃん
Tags:La Pucelle opening Seifumeigetsu 清風明月 kamisamaaa
BeatmapID:983410
BeatmapSetID:459012

[Difficulty]
HPDrainRate:6
CircleSize:4
OverallDifficulty:8
ApproachRate:8.6
SliderMultiplier:1.6
SliderTickRate:1

[Events]
//Background and Video events
0,0,"BG.jpg",0,0
//Break Periods
//Storyboard Layer 0 (Background)
//Storyboard Layer 1 (Fail)
//Storyboard Layer 2 (Pass)
//Storyboard Layer 3 (Foreground)
//Storyboard Sound Samples

[TimingPoints]
607,384.615384615385,4,2,2,40,1,0
6087,-100,4,2,2,30,0,0
6568,-100,4,2,2,40,0,0
6760,-100,4,2,2,50,0,0
17145,-100,4,2,2,40,0,0
17433,-100,4,2,2,5,0,0
17530,-83.3333333333333,4,2,2,50,0,0
17818,-83.3333333333333,4,2,2,5,0,0
17914,-83.3333333333333,4,2,2,50,0,0
18203,-83.3333333333333,4,2,2,5,0,0
18299,-76.9230769230769,4,2,2,50,0,0
18683,-100,4,2,2,40,0,0
19357,-100,4,2,2,5,0,0
19453,-100,4,2,2,50,0,0
22433,-100,4,2,2,5,0,0
22530,-100,4,2,2,50,0,0
29453,-100,4,2,2,40,0,0
29741,-100,4,2,2,5,0,0
29837,-100,4,2,2,40,0,0
30126,-100,4,2,2,5,0,0
30222,-100,4,2,2,50,0,0
30607,-100,4,2,2,40,0,0
30991,-100,4,2,2,50,0,0
31087,-100,4,2,2,40,0,0
31664,-100,4,2,2,5,0,0
31760,-100,4,2,2,50,0,0
34741,-100,4,2,2,5,0,0
34837,-100,4,2,2,50,0,0
35991,-83.3333333333333,4,2,2,50,0,0
36280,-83.3333333333333,4,2,2,5,0,0
36376,-83.3333333333333,4,2,2,50,0,0
36664,-83.3333333333333,4,2,2,5,0,0
36760,-76.9230769230769,4,2,2,50,0,0
37145,-100,4,2,2,40,0,0
37818,-100,4,2,2,5,0,0
37914,-100,4,2,2,50,0,0
39933,-100,4,2,2,5,0,0
40030,-100,4,2,2,40,0,0
40607,-83.3333333333333,4,2,2,40,0,0
40703,-83.3333333333333,4,2,2,50,0,0
42530,-100,4,2,2,50,0,0
42914,-100,4,2,2,40,0,0
43395,-100,4,2,2,50,0,0
43683,-83.3333333333333,4,2,2,70,0,1
49357,-83.3333333333333,4,2,2,5,0,1
49453,-83.3333333333333,4,2,2,70,0,1
49645,-83.3333333333333,4,2,2,50,0,1
49933,-83.3333333333333,4,2,2,70,0,1
51183,-71.4285714285714,4,2,2,70,0,1
51472,-71.4285714285714,4,2,2,5,0,1
51568,-71.4285714285714,4,2,2,70,0,1
51857,-71.4285714285714,4,2,2,5,0,1
51953,-71.4285714285714,4,2,2,70,0,1
52241,-71.4285714285714,4,2,2,5,0,1
52337,-71.4285714285714,4,2,2,70,0,1
52914,-83.3333333333333,4,2,2,70,0,1
53203,-83.3333333333333,4,2,2,5,0,1
53299,-83.3333333333333,4,2,2,70,0,1
53972,-83.3333333333333,4,2,2,5,0,1
54068,-83.3333333333333,4,2,2,70,0,1
54260,-71.4285714285714,4,2,2,70,0,1
54549,-71.4285714285714,4,2,2,5,0,1
54645,-71.4285714285714,4,2,2,70,0,1
54933,-71.4285714285714,4,2,2,5,0,1
55030,-71.4285714285714,4,2,2,70,0,1
55318,-71.4285714285714,4,2,2,5,0,1
55414,-83.3333333333333,4,2,2,50,0,1
55895,-83.3333333333333,4,2,2,70,0,1
57626,-83.3333333333333,4,2,2,5,0,1
57722,-83.3333333333333,4,2,2,70,0,1
58395,-83.3333333333333,4,2,2,5,0,1
58491,-83.3333333333333,4,2,2,70,0,1
61760,-83.3333333333333,4,2,2,50,0,1
62241,-83.3333333333333,4,2,2,70,0,1
64645,-83.3333333333333,4,2,2,50,0,1
65126,-83.3333333333333,4,2,2,70,0,1
66183,-83.3333333333333,4,2,2,50,0,1
66568,-100,4,2,2,50,0,0
68683,-100,4,2,2,50,0,0
75991,-100,4,2,2,20,0,0

[Colours]
Combo1 : 245,179,167
Combo2 : 58,226,181
Combo3 : 206,164,238
Combo4 : 214,233,137

[HitObjects]
60,248,607,5,2,0:0:0:0:
60,248,991,2,0,L|170:252,1,80
257,197,1376,1,2,0:0:0:0:
257,197,1760,5,2,0:0:0:0:
355,306,1953,1,0,0:0:0:0:
336,193,2145,2,0,L|230:198,1,80,2|0,0:0|0:0,0:0:0:0:
423,166,2530,1,0,0:0:0:0:
266,313,2722,1,2,0:0:0:0:
266,313,3107,5,2,0:0:0:0:
155,364,3299,2,0,L|68:354,1,80,2|0,0:0|0:0,0:0:0:0:
0,240,3683,1,2,0:0:0:0:
7,234,4068,5,0,0:0:0:0:
155,364,4260,1,2,0:0:0:0:
377,70,4645,1,2,0:0:0:0:
176,303,5030,6,0,B|138:292|138:292|73:323|27:271,1,160,2|0,0:0|0:0,0:0:0:0:
164,204,5607,1,0,0:0:0:0:
234,366,5799,2,0,B|270:330|257:273|257:273|306:211,1,160,2|0,0:0|1:0,0:0:0:0:
304,220,6280,1,0,1:0:0:0:
313,214,6376,1,8,1:2:0:0:
367,316,6568,1,0,0:0:0:0:
467,199,6760,6,0,B|436:280|498:279|462:363,1,160,6|8,0:0|0:0,0:0:0:0:
486,83,7337,1,2,0:0:0:0:
371,168,7530,2,0,L|273:175,1,80,2|0,0:0|0:0,0:0:0:0:
153,59,7914,2,0,L|244:52,1,80,8|0,0:0|0:0,0:0:0:0:
371,168,8299,5,2,0:0:0:0:
213,262,8491,1,0,0:0:0:0:
181,127,8683,1,10,0:0:0:0:
331,271,8876,1,0,0:0:0:0:
121,339,9068,2,0,L|28:345,1,80,2|0,0:0|0:0,0:0:0:0:
148,190,9453,1,8,0:0:0:0:
283,224,9645,1,0,0:0:0:0:
220,56,9837,6,0,B|118:41|160:84|64:64,1,160,2|8,0:0|0:0,0:0:0:0:
216,204,10414,1,0,0:0:0:0:
341,107,10607,2,0,L|331:11,1,80
462,180,10991,2,0,L|474:293,1,80,8|0,0:0|0:0,0:0:0:0:
252,265,11376,5,2,0:0:0:0:
365,178,11568,1,0,0:0:0:0:
336,302,11760,1,10,0:0:0:0:
178,215,11953,1,0,0:0:0:0:
230,377,12145,2,0,L|336:371,1,80,2|0,0:0|0:0,0:0:0:0:
348,204,12530,1,8,0:0:0:0:
207,280,12722,1,0,0:0:0:0:
51,155,12914,6,0,B|23:252|78:233|43:312,1,160,2|8,0:0|0:0,0:0:0:0:
182,170,13491,1,0,0:0:0:0:
104,69,13683,2,0,L|4:61,1,80,2|0,0:0|0:0,0:0:0:0:
260,157,14068,2,0,L|168:172,1,80,10|0,0:0|0:0,0:0:0:0:
288,52,14453,5,2,0:0:0:0:
429,118,14645,1,0,0:0:0:0:
215,93,14837,1,10,0:0:0:0:
391,17,15030,1,0,0:0:0:0:
299,243,15222,1,2,0:0:0:0:
334,83,15414,1,0,0:0:0:0:
419,194,15607,1,8,0:0:0:0:
334,83,15799,1,0,0:0:0:0:
511,185,15991,6,0,B|499:255|499:255|481:292|481:292|474:340,1,160,2|8,0:0|0:0,0:0:0:0:
312,337,16568,1,2,0:0:0:0:
419,194,16760,2,0,L|402:280,1,80,2|0,0:0|0:0,0:0:0:0:
240,154,17145,2,0,L|231:208,1,40,0|0,1:0|1:0,1:0:0:0:
333,285,17337,2,0,L|330:230,1,40,0|0,1:0|0:0,0:0:0:0:
361,94,17530,6,0,P|415:113|429:193,1,143.999995605469,6|0,1:2|0:0,0:0:0:0:
319,297,17914,2,0,B|324:264|359:243|359:243|344:200|356:168,1,143.999995605469,10|0,0:0|0:0,0:0:0:0:
394,330,18299,2,0,P|359:372|305:376,1,103.999995239258,6|0,0:0|0:0,0:0:0:0:
242,278,18683,1,8,0:0:0:0:
154,354,18876,1,0,1:0:0:0:
143,356,18972,1,0,1:0:0:0:
132,358,19068,6,0,B|42:361|42:361|24:325,1,120,6|0,1:2|0:0,0:0:0:0:
24,323,19453,1,8,0:0:0:0:
176,205,19645,2,0,P|181:256|162:288,1,80,2|0,0:0|0:0,0:0:0:0:
54,210,20030,1,0,0:0:0:0:
192,113,20222,2,0,B|297:110,1,80,8|2,0:0|0:0,0:0:0:0:
173,24,20607,5,0,0:0:0:0:
135,172,20799,1,2,0:0:0:0:
114,84,20991,1,8,0:0:0:0:
222,196,21183,1,2,0:0:0:0:
75,260,21376,1,0,0:0:0:0:
200,123,21568,1,2,0:0:0:0:
170,300,21760,1,8,0:0:0:0:
73,148,21953,1,2,0:0:0:0:
249,266,22145,6,0,B|336:270|336:270|370:254,1,120,2|0,0:0|0:0,0:0:0:0:
377,248,22530,1,8,0:0:0:0:
172,223,22722,2,0,P|162:262|182:319,1,80,2|0,0:0|0:0,0:0:0:0:
275,180,23107,1,2,0:0:0:0:
169,98,23299,2,0,B|42:105|42:105|76:152,1,160,8|0,0:0|0:0,0:0:0:0:
275,180,23876,5,0,0:0:0:0:
208,20,24068,1,10,0:0:0:0:
156,210,24260,1,0,0:0:0:0:
203,98,24453,1,2,0:0:0:0:
240,259,24645,1,0,0:0:0:0:
307,32,24837,1,10,0:0:0:0:
275,180,25030,1,0,0:0:0:0:
203,98,25222,5,2,0:0:0:0:
358,125,25414,1,0,0:0:0:0:
117,185,25607,1,10,0:0:0:0:
275,180,25799,1,0,0:0:0:0:
69,300,25991,1,2,0:0:0:0:
224,271,26183,1,0,0:0:0:0:
117,185,26376,2,0,L|19:187,1,80,10|0,0:0|0:0,0:0:0:0:
102,358,26760,5,2,0:0:0:0:
148,249,26953,1,0,0:0:0:0:
239,341,27145,1,10,0:0:0:0:
311,245,27337,2,0,L|402:244,1,80
440,88,27722,1,0,0:0:0:0:
364,170,27914,1,8,0:0:0:0:
498,200,28107,1,0,0:0:0:0:
352,96,28299,6,0,L|250:96,1,80,2|0,0:0|0:0,0:0:0:0:
404,6,28683,1,8,0:0:0:0:
512,114,28876,2,0,P|500:181|416:206,1,160,2|0,0:0|0:0,0:0:0:0:
177,183,29453,2,0,L|248:198,1,40,0|0,1:0|1:0,1:0:0:0:
338,233,29645,2,0,L|284:248,1,40,0|0,1:2|0:0,0:0:0:0:
199,309,29837,6,0,L|341:302,1,120,4|0,1:2|0:0,0:0:0:0:
329,305,30222,1,8,1:2:0:0:
413,176,30414,1,2,0:0:0:0:
477,306,30607,2,0,L|486:348,2,40,0|0|0,1:0|1:0|1:0,0:0:0:0:
356,225,30991,2,0,L|250:202,1,80,10|0,0:2|1:0,0:0:0:0:
316,106,31280,1,0,1:0:0:0:
316,106,31376,6,0,L|457:103,1,120,2|0,1:2|0:0,0:0:0:0:
448,109,31760,1,8,0:0:0:0:
384,269,31953,1,2,0:0:0:0:
256,81,32145,2,0,L|338:77,1,80,0|0,1:0|0:0,0:0:0:0:
234,264,32530,2,0,L|129:256,1,80,8|0,0:0|0:0,0:0:0:0:
341,182,32914,5,0,0:0:0:0:
288,342,33107,1,0,0:0:0:0:
451,240,33299,1,10,0:0:0:0:
308,158,33491,2,0,L|204:161,1,80,2|0,0:0|0:0,0:0:0:0:
366,51,33876,1,0,0:0:0:0:
418,149,34068,2,0,L|521:152,1,80,8|0,0:0|0:0,0:0:0:0:
446,274,34453,6,0,L|310:239,1,120,2|0,0:0|0:0,0:0:0:0:
320,235,34837,1,8,0:0:0:0:
418,149,35030,1,2,0:0:0:0:
320,309,35222,2,0,L|223:304,1,80,0|0,1:0|0:0,0:0:0:0:
266,150,35607,2,0,L|377:154,1,80,10|0,0:0|0:0,0:0:0:0:
163,257,35991,6,0,B|183:199|183:199|162:165|176:118,1,143.999995605469,2|0,0:0|0:0,0:0:0:0:
226,314,36376,2,0,P|150:345|95:305,1,143.999995605469,10|0,0:0|0:0,0:0:0:0:
32,207,36760,2,0,B|60:218|99:205|99:205|75:258,1,103.999995239258,2|0,0:0|0:0,0:0:0:0:
34,347,37145,1,8,1:2:0:0:
34,347,37241,1,0,1:0:0:0:
34,347,37337,1,0,1:0:0:0:
63,134,37530,6,0,P|108:126|179:182,1,120,4|0,1:2|0:0,0:0:0:0:
174,175,37914,1,10,0:0:0:0:
300,108,38107,1,2,0:0:0:0:
334,270,38299,2,0,L|236:259,1,80,0|0,1:0|0:0,0:0:0:0:
413,164,38683,2,0,L|509:174,1,80,8|0,0:0|0:0,0:0:0:0:
389,306,39068,5,4,1:2:0:0:
307,154,39260,1,0,1:0:0:0:
288,260,39453,1,8,0:0:0:0:
284,52,39645,2,0,P|341:53|394:108,1,120,2|0,1:2|0:0,0:0:0:0:
391,106,40030,5,0,1:0:0:0:
233,203,40222,1,8,1:2:0:0:
375,330,40414,1,0,1:0:0:0:
386,333,40510,1,0,1:0:0:0:
400,332,40607,6,0,B|442:288|413:229,1,95.9999970703126,2|0,1:2|0:0,0:0:0:0:
144,188,40991,2,0,P|153:249|198:283,1,95.9999970703126,10|2,0:0|0:0,0:0:0:0:
386,136,41376,2,0,P|334:140|295:190,1,95.9999970703126
273,247,41760,1,10,0:0:0:0:
435,191,41953,5,6,1:2:0:0:
435,191,42337,1,0,1:0:0:0:
354,90,42530,2,0,L|263:91,1,80,8|0,0:0|0:0,0:0:0:0:
504,166,42914,1,0,1:0:0:0:
504,166,43010,1,0,1:0:0:0:
504,166,43107,1,0,1:0:0:0:
400,18,43299,2,0,L|298:17,1,80,12|0,1:2|1:0,0:0:0:0:
179,194,43683,5,4,0:0:0:0:
351,135,43876,1,2,0:0:0:0:
122,86,44068,1,8,0:0:0:0:
363,134,44260,1,2,0:0:0:0:
84,230,44453,1,0,1:0:0:0:
376,131,44645,1,2,0:0:0:0:
277,334,44837,1,8,0:0:0:0:
124,133,45030,6,0,B|76:115|30:143,1,95.9999970703126,2|0,0:0|0:0,0:0:0:0:
203,252,45414,1,2,0:0:0:0:
386,156,45607,1,8,0:2:0:0:
120,44,45799,2,0,B|70:30|27:62,1,95.9999970703126,2|0,0:0|0:0,0:0:0:0:
203,252,46183,1,2,0:0:0:0:
293,61,46376,1,8,0:0:0:0:
248,350,46568,6,0,P|187:361|136:339,1,95.9999970703126,2|0,0:2|1:2,0:0:0:0:
241,119,46953,1,2,0:0:0:0:
398,264,47145,1,8,0:0:0:0:
91,258,47337,2,4,P|53:228|39:175,1,95.9999970703126,2|0,0:0|1:0,0:0:0:0:
163,69,47722,1,2,0:0:0:0:
218,238,47914,1,8,0:0:0:0:
380,157,48107,6,0,P|432:151|475:165,1,95.9999970703126,2|0,0:0|0:0,0:0:0:0:
347,335,48491,1,2,0:0:0:0:
238,150,48683,1,8,0:0:0:0:
240,310,48876,1,2,0:0:0:0:
328,110,49068,2,0,P|285:63|180:73,1,143.999995605469,0|0,1:2|0:0,0:0:0:0:
195,67,49453,1,8,1:2:0:0:
86,263,49645,1,0,1:0:0:0:
67,285,49741,1,0,1:0:0:0:
48,306,49837,6,0,L|38:204,1,95.9999970703126,4|2,1:2|0:0,0:0:0:0:
174,150,50222,1,8,0:0:0:0:
303,216,50414,1,2,0:0:0:0:
181,274,50607,1,0,0:0:0:0:
307,108,50799,2,0,L|440:104,1,95.9999970703126,2|8,0:0|0:0,0:0:0:0:
461,312,51183,6,4,B|440:270|394:263|394:263|409:212|384:182,1,167.999994873047,2|4,0:0|0:0,0:0:0:0:
385,344,51568,2,0,B|364:340|344:328|344:328|286:363|223:335,1,167.999994873047,2|0,0:0|0:0,0:0:0:0:
278,187,51953,2,0,P|319:245|250:260,1,167.999994873047,2|0,0:0|0:0,0:0:0:0:
240,250,52337,1,2,0:0:0:0:
397,267,52530,1,8,0:0:0:0:
283,375,52722,1,2,0:0:0:0:
195,175,52914,6,0,B|110:174|110:174|31:199,1,143.999995605469,4|0,1:2|0:0,0:0:0:0:
45,199,53299,1,8,0:0:0:0:
249,304,53491,1,2,0:0:0:0:
232,88,53683,2,0,L|81:82,1,143.999995605469,0|0,1:0|0:0,0:0:0:0:
76,78,54068,1,8,0:0:0:0:
324,74,54260,6,0,B|327:125|293:162|293:162|309:241,1,167.999994873047,4|0,0:0|0:0,0:0:0:0:
123,225,54645,2,0,B|224:251|224:251|213:186,1,167.999994873047
235,43,55030,2,0,P|219:110|148:69,1,167.999994873047,4|0,0:0|0:0,0:0:0:0:
151,62,55414,1,0,0:0:0:0:
83,204,55607,1,8,1:2:0:0:
80,213,55703,1,0,1:0:0:0:
77,222,55799,1,0,1:0:0:0:
85,74,55991,5,4,1:2:0:0:
191,237,56184,1,2,0:0:0:0:
0,230,56376,1,8,0:0:0:0:
192,140,56568,1,2,0:0:0:0:
116,358,56761,1,0,1:0:0:0:
76,184,56953,1,2,0:0:0:0:
239,314,57145,1,8,0:0:0:0:
187,109,57337,6,0,B|127:97|127:97|44:115,1,143.999995605469,2|0,0:0|0:0,0:0:0:0:
37,118,57722,1,2,0:0:0:0:
276,81,57914,1,8,0:0:0:0:
181,297,58107,2,0,B|119:300|119:300|14:271,1,143.999995605469,2|0,0:0|0:0,0:0:0:0:
31,273,58491,1,2,0:0:0:0:
184,178,58683,2,0,L|287:174,1,95.9999970703126,8|2,0:0|0:0,0:0:0:0:
357,11,59068,5,0,1:2:0:0:
278,172,59260,1,2,0:0:0:0:
468,158,59453,1,8,0:0:0:0:
235,105,59645,1,2,0:0:0:0:
483,69,59837,1,0,1:0:0:0:
397,294,60030,1,2,0:0:0:0:
167,195,60222,1,8,0:0:0:0:
412,298,60414,6,0,B|472:298|472:298|519:276,1,95.9999970703126
235,105,60799,1,2,0:0:0:0:
412,298,60991,1,8,0:0:0:0:
433,115,61183,1,2,0:0:0:0:
227,311,61376,2,0,B|168:318|168:318|114:311,1,95.9999970703126,0|2,1:2|0:0,0:0:0:0:
13,191,61760,1,8,1:2:0:0:
117,49,61953,1,0,1:0:0:0:
130,44,62049,1,0,1:0:0:0:
143,39,62145,6,0,L|253:36,1,95.9999970703126,4|2,1:2|0:0,0:0:0:0:
326,194,62530,1,8,0:0:0:0:
327,44,62722,1,2,0:0:0:0:
421,259,62914,2,0,P|375:300|321:308,1,95.9999970703126,0|2,1:2|0:0,0:0:0:0:
156,190,63299,1,8,0:0:0:0:
336,211,63491,1,2,0:0:0:0:
128,207,63683,5,4,1:2:0:0:
342,308,63876,1,2,0:0:0:0:
323,119,64068,1,10,0:0:0:0:
139,339,64260,2,0,B|70:338|56:268,1,95.9999970703126,6|0,0:0|0:0,0:0:0:0:
188,89,64645,1,2,0:0:0:0:
328,246,64837,1,8,1:2:0:0:
324,254,64933,1,0,1:0:0:0:
318,261,65030,6,0,B|265:305|196:250,1,95.9999970703126,2|4,1:2|1:2,0:0:0:0:
136,136,65414,1,2,0:0:0:0:
248,150,65607,1,12,0:0:0:0:
103,166,65799,1,2,0:0:0:0:
262,115,65991,1,4,1:2:0:0:
98,54,66183,1,0,1:0:0:0:
98,54,66280,1,0,1:0:0:0:
98,54,66376,1,8,1:2:0:0:
134,227,66568,6,0,P|205:246|279:210,1,160,4|0,0:0|1:0,0:0:0:0:
380,92,67145,1,8,0:0:0:0:
422,297,67337,1,4,1:2:0:0:
193,149,68299,5,2,0:0:0:0:
193,149,68683,2,0,P|240:155|297:143,1,80
357,81,69068,1,2,0:0:0:0:
357,81,69452,5,2,0:0:0:0:
450,165,69645,1,0,0:0:0:0:
352,285,69837,2,0,P|311:290|261:267,1,80,2|0,0:0|0:0,0:0:0:0:
105,204,70222,2,0,P|166:190|205:210,1,80,0|2,0:0|0:0,0:0:0:0:
346,133,70799,5,0,0:0:0:0:
235,67,70991,2,0,L|126:65,1,80
39,142,71375,1,2,0:0:0:0:
39,142,71760,5,0,0:0:0:0:
170,259,71952,1,2,0:0:0:0:
135,24,72337,1,2,0:0:0:0:
367,31,72722,6,0,B|458:48|458:146,1,160,2|0,0:0|0:0,0:0:0:0:
402,240,73299,1,0,0:0:0:0:
316,172,73491,2,0,B|254:155|254:155|149:165,1,160,2|0,0:0|0:0,0:0:0:0:
67,101,74068,1,0,0:0:0:0:
64,87,74453,5,2,0:0:0:0:
256,192,74549,12,0,75991,0:0:0:0:
