osu file format v14

[General]
AudioFilename: audio.mp3
AudioLeadIn: 0
PreviewTime: 43683
Countdown: 0
SampleSet: Soft
StackLeniency: 0.7
Mode: 0
LetterboxInBreaks: 0
WidescreenStoryboard: 0

[Editor]
DistanceSpacing: 1
BeatDivisor: 2
GridSize: 32
TimelineZoom: 1.3

[Metadata]
Title:Nanka Ii Koto
TitleUnicode:なんかいいこと
Artist:Yura Hatsuki
ArtistUnicode:葉月ゆら
Creator:Hanazawa Kana
Version:Easy
Source:がんばれ!メメ子ちゃん
Tags:La Pucelle opening Seifumeigetsu 清風明月 kamisamaaa
BeatmapID:983409
BeatmapSetID:459012

[Difficulty]
HPDrainRate:3
CircleSize:3
OverallDifficulty:2
ApproachRate:3
SliderMultiplier:0.8
SliderTickRate:1

[Events]
//Background and Video events
0,0,"BG.jpg",0,0
//Break Periods
//Storyboard Layer 0 (Background)
//Storyboard Layer 1 (Fail)
//Storyboard Layer 2 (Pass)
//Storyboard Layer 3 (Foreground)
//Storyboard Sound Samples

[TimingPoints]
607,384.615384615385,4,2,2,40,1,0
6760,-100,4,2,2,50,0,0
43683,-100,4,2,2,70,0,1
66568,-100,4,2,2,50,0,0
68299,-100,4,2,2,50,0,0
75991,-100,4,2,2,20,0,0

[Colours]
Combo1 : 245,179,167
Combo2 : 58,226,181
Combo3 : 206,164,238
Combo4 : 214,233,137

[HitObjects]
104,287,607,6,0,B|198:303|198:303|280:271,1,160,2|2,0:0|0:0,0:0:0:0:
325,236,1760,1,2,0:0:0:0:
403,221,2145,2,0,P|380:177|289:165,2,120,2|2|2,0:0|0:0|0:0,0:0:0:0:
374,295,3683,6,0,L|230:308,1,120,2|2,0:0|0:0,0:0:0:0:
175,291,4645,1,2,0:0:0:0:
101,258,5030,2,0,P|80:204|132:105,1,160,2|2,0:0|0:0,0:0:0:0:
316,91,6760,6,0,P|381:137|361:227,1,160,6|2,0:0|0:0,0:0:0:0:
306,250,7914,1,8,0:0:0:0:
239,204,8299,2,0,P|272:174|323:174,2,80,2|10|2,0:0|0:0|0:0,0:0:0:0:
221,280,9453,1,8,0:0:0:0:
279,334,9837,6,0,L|470:346,1,160,2|0,0:0|0:0,0:0:0:0:
493,285,10991,1,8,0:0:0:0:
426,240,11376,2,0,L|329:233,2,80,2|10|2,0:0|0:0|0:0,0:0:0:0:
445,162,12530,1,8,0:0:0:0:
502,217,12914,6,0,P|494:286|408:319,1,160,2|2,0:0|0:0,0:0:0:0:
337,305,14068,1,10,0:0:0:0:
294,237,14453,2,0,L|317:149,2,80,2|10|2,0:0|0:0|0:0,0:0:0:0:
227,281,15607,1,8,0:0:0:0:
189,210,15991,6,0,B|219:93|219:93|255:55,1,160,2|2,0:0|0:0,0:0:0:0:
309,17,17145,1,0,1:0:0:0:
372,65,17530,2,0,L|457:51,2,80,6|10|6,1:2|0:0|0:0,0:0:0:0:
319,125,18683,1,8,0:0:0:0:
265,184,19068,6,0,B|153:205|153:205|86:165,1,160,6|0,1:2|0:0,0:0:0:0:
49,133,20222,1,8,0:0:0:0:
31,211,20607,2,0,L|14:325,1,80,2|8,0:0|0:0,0:0:0:0:
86,333,21376,2,0,P|152:315|193:320,1,80,2|8,0:0|0:0,0:0:0:0:
240,294,22145,6,0,P|257:226|162:190,1,160,2|0,0:0|0:0,0:0:0:0:
113,160,23299,1,8,0:0:0:0:
167,101,23683,2,0,L|360:111,1,160,2|2,0:0|0:0,0:0:0:0:
405,91,24837,1,10,0:0:0:0:
352,30,25222,6,0,L|248:24,2,80,2|10|2,0:0|0:0|0:0,0:0:0:0:
429,11,26376,1,10,0:0:0:0:
490,64,26760,2,0,P|483:135|405:184,1,160,2|0,0:0|0:0,0:0:0:0:
334,188,27914,1,8,0:0:0:0:
289,121,28299,6,0,L|328:44,2,80,2|8|0,0:0|0:0|0:0,0:0:0:0:
225,171,29453,1,0,1:0:0:0:
244,249,29837,2,0,P|276:297|324:309,1,80,4|8,1:2|1:2,0:0:0:0:
374,311,30607,1,0,1:0:0:0:
447,280,30991,1,10,0:2:0:0:
484,209,31376,6,0,B|478:108|478:108|418:56,1,160,2|0,1:2|1:0,0:0:0:0:
370,21,32530,1,8,0:0:0:0:
290,30,32914,2,0,L|196:19,2,80,0|10|0,0:0|0:0|0:0,0:0:0:0:
334,96,34068,1,8,0:0:0:0:
269,143,34453,6,0,B|156:130|156:130|105:98,1,160,2|0,0:0|1:0,0:0:0:0:
49,61,35607,1,10,0:0:0:0:
39,140,35991,2,0,L|27:241,2,80,2|10|2,0:0|0:0|0:0,0:0:0:0:
115,114,37145,1,8,1:2:0:0:
160,180,37530,6,0,B|147:282|147:282|184:345,1,160,4|0,1:2|1:0,0:0:0:0:
240,377,38683,1,8,0:0:0:0:
290,314,39068,2,0,L|440:306,2,120,4|2|8,1:2|1:2|1:2,0:0:0:0:
232,257,40607,6,0,L|118:249,1,80,2|10,1:2|0:0,0:0:0:0:
101,189,41376,2,0,P|107:121|166:83,2,120,0|6|8,1:0|1:2|0:0,0:0:0:0:
176,162,42914,2,0,L|266:159,1,80,0|12,1:0|1:2,0:0:0:0:
328,125,43683,6,0,P|400:124|460:202,1,160,4|0,0:0|1:0,0:0:0:0:
439,263,44837,1,8,0:0:0:0:
439,343,45222,2,0,L|517:378,2,80,0|8|0,0:0|0:2|0:0,0:0:0:0:
363,315,46376,1,8,0:0:0:0:
287,339,46760,6,0,L|199:333,1,80,0|8,1:2|0:0,0:0:0:0:
134,299,47530,1,0,1:0:0:0:
152,221,47914,1,8,0:0:0:0:
205,162,48299,2,0,P|163:93|65:94,1,160,0|0,0:0|1:2,0:0:0:0:
19,120,49453,1,8,1:2:0:0:
43,196,49837,6,0,L|-13:281,2,80,4|8|0,1:2|0:0|0:0,0:0:0:0:
115,160,50991,1,8,0:0:0:0:
171,217,51376,2,0,P|265:225|323:150,1,160,0|0,0:0|0:0,0:0:0:0:
352,116,52530,1,8,0:0:0:0:
428,94,52914,6,0,P|436:175|421:266,1,160,4|0,1:2|1:0,0:0:0:0:
326,320,54260,2,0,L|224:299,1,80,4|0,0:0|0:0,0:0:0:0:
256,224,55030,2,0,L|353:213,1,80,4|0,0:0|0:0,0:0:0:0:
450,186,55991,6,0,B|503:165|513:106|507:75|461:32,1,160,4|0,1:2|1:0,0:0:0:0:
403,73,57145,1,8,0:0:0:0:
340,123,57530,2,0,L|248:115,2,80,0|8|0,0:0|0:0|0:0,0:0:0:0:
405,167,58683,1,8,0:0:0:0:
342,217,59068,6,0,B|224:206|224:206|169:178,1,160,0|0,1:2|1:0,0:0:0:0:
123,137,60222,1,8,0:0:0:0:
71,198,60607,2,0,L|48:299,2,80,0|8|0,0:0|0:0|1:2,0:0:0:0:
123,137,61760,1,8,1:2:0:0:
172,74,62145,6,0,B|216:41|216:41|334:78,1,160,4|0,1:2|1:2,0:0:0:0:
388,106,63299,1,8,0:0:0:0:
340,170,63683,2,0,L|221:133,2,120,4|6|8,1:2|0:0|1:2,0:0:0:0:
419,157,65222,6,0,P|408:218|313:245,1,160,4|4,1:2|1:2,0:0:0:0:
238,164,66568,2,0,P|154:157|106:237,1,160,4|4,0:0|1:2,0:0:0:0:
274,322,68299,6,0,B|380:353|414:258,1,160,2|2,0:0|0:0,0:0:0:0:
435,195,69452,1,2,0:0:0:0:
362,159,69837,2,0,L|232:151,2,120,2|2|0,0:0|0:0|0:0,0:0:0:0:
355,78,71376,6,0,L|222:69,1,120,2|2,0:0|0:0,0:0:0:0:
166,110,72337,1,2,0:0:0:0:
178,189,72722,2,0,B|191:294|66:313,1,160,2|2,0:0|0:0,0:0:0:0:
256,192,74453,12,0,75991,0:0:0:0:
