osu file format v14

[General]
AudioFilename: audio.mp3
AudioLeadIn: 0
PreviewTime: 81534
Countdown: 0
SampleSet: Normal
StackLeniency: 0
Mode: 1
LetterboxInBreaks: 0
WidescreenStoryboard: 1

[Editor]
Bookmarks: 65625,106352
DistanceSpacing: 1
BeatDivisor: 4
GridSize: 32
TimelineZoom: 1.5

[Metadata]
Title:Komplexe
TitleUnicode:Komplexe
Artist:Yunosuke feat. Sennzai
ArtistUnicode:雄之助 feat. Sennzai
Creator:KappuChinooo
Version:Ph0eNiiXZ's Kantan
Source:maimai でらっくす Splash
Tags:video game electronic Drum and n & Bass DnB Japanese Yuunosuke Metropolis Island Chihou 3 Complex Deluxe Ph0eNiiXZ PhOeNiixz
BeatmapID:2900185
BeatmapSetID:1386527

[Difficulty]
HPDrainRate:7
CircleSize:4
OverallDifficulty:3
ApproachRate:10
SliderMultiplier:1.4
SliderTickRate:1

[Events]
//Background and Video events
0,0,"65a87549cf6083c427a058628c632416c2a26e6c_s2_n1.jpg",0,20
//Break Periods
//Storyboard Layer 0 (Background)
//Storyboard Layer 1 (Fail)
//Storyboard Layer 2 (Pass)
//Storyboard Layer 3 (Foreground)
//Storyboard Layer 4 (Overlay)
//Storyboard Sound Samples

[TimingPoints]
171,363.636363636364,4,1,0,60,1,0
171,-111.111111111111,4,1,0,60,0,0
1621,-111.111111111111,4,1,0,70,0,0
11803,-111.111111111111,4,1,0,75,0,0
13257,-111.111111111111,4,1,0,80,0,0
19076,-111.111111111111,4,1,0,85,0,0
24898,-111.111111111111,4,1,0,90,0,1
33625,-111.111111111111,4,1,0,70,0,0
40894,-111.111111111111,4,1,0,75,0,0
42348,-111.111111111111,4,1,0,60,0,0
43803,-111.111111111111,4,1,0,65,0,0
45257,-111.111111111111,4,1,0,70,0,0
46712,-111.111111111111,4,1,0,75,0,0
53985,-111.111111111111,4,1,0,80,0,0
59803,-111.111111111111,4,1,0,70,0,0
64530,-111.111111111111,4,1,0,80,0,0
65625,-111.111111111111,4,1,0,90,0,1
71443,-111.111111111111,4,1,0,80,0,0
77257,-111.111111111111,4,1,0,70,0,0
80167,-111.111111111111,4,1,0,80,0,0
81621,-111.111111111111,4,1,0,85,0,0
83080,-111.111111111111,4,1,0,90,0,1
100534,-111.111111111111,4,1,0,70,0,0
101803,-111.111111111111,4,1,0,75,0,0
103439,-111.111111111111,4,1,0,85,0,0
104894,-111.111111111111,4,1,0,75,0,0
105621,-111.111111111111,4,1,0,85,0,0
106352,-111.111111111111,4,1,0,90,0,1
129625,-111.111111111111,4,1,0,70,0,0
132348,-111.111111111111,4,1,0,40,0,0

[HitObjects]
256,192,1625,5,4,0:0:0:0:
256,192,3807,1,8,0:0:0:0:
256,192,4534,1,0,0:0:0:0:
256,192,5989,1,0,0:0:0:0:
256,192,6716,1,8,0:0:0:0:
256,192,7443,1,0,0:0:0:0:
256,192,8898,1,8,0:0:0:0:
256,192,10352,1,0,0:0:0:0:
256,192,11807,2,0,L|387:191,2,125.999996154785
256,192,13261,1,4,0:0:0:0:
256,192,13807,1,0,0:0:0:0:
256,192,14352,1,0,0:0:0:0:
256,192,14898,1,0,0:0:0:0:
256,192,15443,1,0,0:0:0:0:
256,192,15807,1,8,0:0:0:0:
256,192,16171,1,0,0:0:0:0:
256,192,16716,1,0,0:0:0:0:
256,192,17261,1,0,0:0:0:0:
256,192,17807,1,0,0:0:0:0:
256,192,18352,1,0,0:0:0:0:
256,192,18716,1,8,0:0:0:0:
256,192,19080,1,0,0:0:0:0:
256,192,19807,1,8,0:0:0:0:
256,192,20534,1,0,0:0:0:0:
256,192,20898,1,0,0:0:0:0:
256,192,21261,1,8,0:0:0:0:
256,192,21625,1,8,0:0:0:0:
256,192,21989,1,0,0:0:0:0:
256,192,23443,1,8,0:0:0:0:
256,192,24171,1,0,0:0:0:0:
256,192,24534,1,12,0:0:0:0:
256,192,24898,1,4,0:0:0:0:
256,192,25625,1,8,0:0:0:0:
256,192,26352,1,0,0:0:0:0:
256,192,26716,1,0,0:0:0:0:
256,192,27080,1,8,0:0:0:0:
256,192,28534,1,8,0:0:0:0:
256,192,29261,1,0,0:0:0:0:
256,192,29625,1,0,0:0:0:0:
256,192,29989,1,8,0:0:0:0:
256,192,30716,1,8,0:0:0:0:
256,192,31807,1,8,0:0:0:0:
256,192,32171,1,8,0:0:0:0:
256,192,33261,1,8,0:0:0:0:
256,192,33625,1,0,0:0:0:0:
256,192,35080,12,0,36353,0:0:0:0:
256,192,36534,5,0,0:0:0:0:
256,192,39080,1,0,0:0:0:0:
256,192,39443,1,0,0:0:0:0:
256,192,40898,2,0,L|343:195,4,62.9999980773926
256,192,42352,1,0,0:0:0:0:
256,192,43080,1,8,0:0:0:0:
256,192,44171,1,0,0:0:0:0:
256,192,44534,1,8,0:0:0:0:
256,192,45261,1,0,0:0:0:0:
256,192,45989,1,0,0:0:0:0:
256,192,46716,1,8,0:0:0:0:
256,192,47443,1,8,0:0:0:0:
256,192,48171,1,0,0:0:0:0:
256,192,49625,1,8,0:0:0:0:
256,192,50352,1,0,0:0:0:0:
256,192,50716,1,0,0:0:0:0:
256,192,51080,1,8,0:0:0:0:
256,192,52534,1,8,0:0:0:0:
256,192,53261,1,0,0:0:0:0:
256,192,53989,1,8,0:0:0:0:
256,192,54716,1,8,0:0:0:0:
256,192,55080,1,0,0:0:0:0:
256,192,55443,1,8,0:0:0:0:
256,192,56171,1,8,0:0:0:0:
256,192,56534,1,8,0:0:0:0:
256,192,56898,1,0,0:0:0:0:
256,192,57625,1,8,0:0:0:0:
256,192,57989,1,0,0:0:0:0:
256,192,58716,1,0,0:0:0:0:
256,192,59080,1,8,0:0:0:0:
256,192,59443,1,8,0:0:0:0:
256,192,59807,1,0,0:0:0:0:
256,192,60898,1,0,0:0:0:0:
256,192,61261,1,8,0:0:0:0:
256,192,61989,1,8,0:0:0:0:
256,192,62716,1,0,0:0:0:0:
256,192,63807,1,0,0:0:0:0:
256,192,64171,1,8,0:0:0:0:
256,192,65625,1,4,0:0:0:0:
256,192,66352,1,8,0:0:0:0:
256,192,67080,1,8,0:0:0:0:
256,192,67443,1,0,0:0:0:0:
256,192,67807,1,8,0:0:0:0:
256,192,68534,1,0,0:0:0:0:
256,192,69261,1,8,0:0:0:0:
256,192,69989,1,0,0:0:0:0:
256,192,70352,1,0,0:0:0:0:
256,192,70716,1,8,0:0:0:0:
256,192,71080,1,0,0:0:0:0:
256,192,71443,1,12,0:0:0:0:
256,192,72716,1,8,0:0:0:0:
256,192,73625,1,8,0:0:0:0:
256,192,73989,1,8,0:0:0:0:
256,192,74352,1,4,0:0:0:0:
256,192,75080,1,12,0:0:0:0:
256,192,75807,1,4,0:0:0:0:
256,192,76534,1,12,0:0:0:0:
256,192,77261,1,0,0:0:0:0:
256,192,78716,1,0,0:0:0:0:
256,192,80171,12,0,81261,0:0:0:0:
256,192,81625,5,8,0:0:0:0:
256,192,81989,1,8,0:0:0:0:
256,192,82352,1,0,0:0:0:0:
256,192,83080,5,4,0:0:0:0:
256,192,83807,1,8,0:0:0:0:
256,192,84534,1,0,0:0:0:0:
256,192,84898,1,8,0:0:0:0:
256,192,85261,1,0,0:0:0:0:
256,192,85989,1,0,0:0:0:0:
256,192,86716,1,8,0:0:0:0:
256,192,87443,1,0,0:0:0:0:
256,192,87807,1,0,0:0:0:0:
256,192,88171,1,8,0:0:0:0:
256,192,88534,1,8,0:0:0:0:
256,192,88898,1,0,0:0:0:0:
256,192,90352,1,8,0:0:0:0:
256,192,91080,1,8,0:0:0:0:
256,192,91443,1,8,0:0:0:0:
256,192,91807,1,0,0:0:0:0:
256,192,92534,1,0,0:0:0:0:
256,192,93261,1,8,0:0:0:0:
256,192,94716,1,0,0:0:0:0:
256,192,95443,1,0,0:0:0:0:
256,192,95807,1,8,0:0:0:0:
256,192,96171,1,0,0:0:0:0:
256,192,96898,1,8,0:0:0:0:
256,192,97625,1,0,0:0:0:0:
256,192,98352,1,8,0:0:0:0:
256,192,99080,1,0,0:0:0:0:
256,192,99443,1,0,0:0:0:0:
256,192,99807,1,8,0:0:0:0:
256,192,100171,1,8,0:0:0:0:
256,192,100534,1,0,0:0:0:0:
256,192,101807,1,0,0:0:0:0:
256,192,102716,1,8,0:0:0:0:
256,192,103443,6,0,L|388:190,4,125.999996154785
256,192,105625,5,12,0:0:0:0:
256,192,106352,1,4,0:0:0:0:
256,192,107080,1,0,0:0:0:0:
256,192,107443,1,8,0:0:0:0:
256,192,107807,1,0,0:0:0:0:
256,192,108534,1,8,0:0:0:0:
256,192,109261,1,4,0:0:0:0:
256,192,109989,1,0,0:0:0:0:
256,192,110352,1,0,0:0:0:0:
256,192,110716,1,8,0:0:0:0:
256,192,112171,1,0,0:0:0:0:
256,192,112898,1,8,0:0:0:0:
256,192,113989,1,0,0:0:0:0:
256,192,114352,1,8,0:0:0:0:
256,192,115080,1,0,0:0:0:0:
256,192,115807,1,8,0:0:0:0:
256,192,116171,1,8,0:0:0:0:
256,192,116898,1,8,0:0:0:0:
256,192,117989,1,0,0:0:0:0:
256,192,118716,1,8,0:0:0:0:
256,192,119080,1,0,0:0:0:0:
256,192,119443,1,8,0:0:0:0:
256,192,120171,1,8,0:0:0:0:
256,192,120898,1,0,0:0:0:0:
256,192,121261,1,0,0:0:0:0:
256,192,121625,1,8,0:0:0:0:
256,192,122352,1,0,0:0:0:0:
256,192,123807,1,4,0:0:0:0:
256,192,124171,1,8,0:0:0:0:
256,192,124898,1,8,0:0:0:0:
256,192,125261,1,0,0:0:0:0:
256,192,125625,1,8,0:0:0:0:
256,192,126352,1,8,0:0:0:0:
256,192,126716,1,4,0:0:0:0:
256,192,127261,1,4,0:0:0:0:
256,192,127989,1,4,0:0:0:0:
256,192,128171,12,4,129625,0:0:0:0:
