osu file format v14

[General]
AudioFilename: audio.mp3
AudioLeadIn: 0
PreviewTime: 81534
Countdown: 0
SampleSet: Normal
StackLeniency: 0
Mode: 1
LetterboxInBreaks: 0
WidescreenStoryboard: 1

[Editor]
Bookmarks: 65625,106352
DistanceSpacing: 1
BeatDivisor: 4
GridSize: 32
TimelineZoom: 1

[Metadata]
Title:Komplexe
TitleUnicode:Komplexe
Artist:Yunosuke feat. Sennzai
ArtistUnicode:雄之助 feat. Sennzai
Creator:KappuChinooo
Version:Ph0eNiiXZ's Futsuu
Source:maimai でらっくす Splash
Tags:video game electronic Drum and n & Bass DnB Japanese Yuunosuke Metropolis Island Chihou 3 Complex Deluxe Ph0eNiiXZ PhOeNiixz
BeatmapID:2900184
BeatmapSetID:1386527

[Difficulty]
HPDrainRate:6
CircleSize:4
OverallDifficulty:4
ApproachRate:10
SliderMultiplier:1.4
SliderTickRate:1

[Events]
//Background and Video events
0,0,"65a87549cf6083c427a058628c632416c2a26e6c_s2_n1.jpg",0,20
//Break Periods
//Storyboard Layer 0 (Background)
//Storyboard Layer 1 (Fail)
//Storyboard Layer 2 (Pass)
//Storyboard Layer 3 (Foreground)
//Storyboard Layer 4 (Overlay)
//Storyboard Sound Samples

[TimingPoints]
171,363.636363636364,4,1,0,60,1,0
1621,-100,4,1,0,70,0,0
11803,-100,4,1,0,75,0,0
13257,-100,4,1,0,80,0,0
19076,-100,4,1,0,85,0,0
24898,-100,4,1,0,90,0,1
33625,-100,4,1,0,70,0,0
40894,-100,4,1,0,75,0,0
42348,-100,4,1,0,60,0,0
43803,-100,4,1,0,65,0,0
45257,-100,4,1,0,70,0,0
46712,-100,4,1,0,75,0,0
53985,-100,4,1,0,80,0,0
59803,-100,4,1,0,70,0,0
64530,-100,4,1,0,80,0,0
65625,-100,4,1,0,90,0,1
71443,-100,4,1,0,80,0,0
77257,-100,4,1,0,70,0,0
80167,-100,4,1,0,80,0,0
81621,-100,4,1,0,85,0,0
83080,-100,4,1,0,90,0,1
100534,-100,4,1,0,70,0,0
101803,-100,4,1,0,75,0,0
103439,-100,4,1,0,85,0,0
104894,-100,4,1,0,75,0,0
105621,-100,4,1,0,85,0,0
106352,-100,4,1,0,90,0,1
129625,-100,4,1,0,70,0,0
132348,-100,4,1,0,40,0,0

[HitObjects]
256,192,1625,5,4,0:0:0:0:
256,192,3807,1,8,0:0:0:0:
256,192,4534,1,0,0:0:0:0:
256,192,5989,1,0,0:0:0:0:
256,192,6352,1,0,0:0:0:0:
256,192,6716,1,8,0:0:0:0:
256,192,7080,1,8,0:0:0:0:
256,192,7443,1,0,0:0:0:0:
256,192,8898,1,8,0:0:0:0:
256,192,10352,1,0,0:0:0:0:
256,192,11807,2,8,L|416:192,3,140
256,192,13261,1,4,0:0:0:0:
256,192,13625,1,8,0:0:0:0:
256,192,13807,1,0,0:0:0:0:
256,192,13989,1,8,0:0:0:0:
256,192,14352,1,0,0:0:0:0:
256,192,14716,1,8,0:0:0:0:
256,192,14898,1,0,0:0:0:0:
256,192,15261,1,0,0:0:0:0:
256,192,15443,1,8,0:0:0:0:
256,192,16171,1,0,0:0:0:0:
256,192,16534,1,8,0:0:0:0:
256,192,16716,1,0,0:0:0:0:
256,192,16898,1,8,0:0:0:0:
256,192,17261,1,8,0:0:0:0:
256,192,17625,1,0,0:0:0:0:
256,192,17807,1,0,0:0:0:0:
256,192,17989,1,8,0:0:0:0:
256,192,18352,1,0,0:0:0:0:
256,192,18716,1,8,0:0:0:0:
256,192,19080,1,0,0:0:0:0:
256,192,19443,1,0,0:0:0:0:
256,192,19625,1,0,0:0:0:0:
256,192,19807,1,8,0:0:0:0:
256,192,20171,1,8,0:0:0:0:
256,192,20534,1,0,0:0:0:0:
256,192,20898,1,0,0:0:0:0:
256,192,21261,1,8,0:0:0:0:
256,192,21443,1,8,0:0:0:0:
256,192,21625,1,8,0:0:0:0:
256,192,21807,1,8,0:0:0:0:
256,192,21989,1,0,0:0:0:0:
256,192,23443,1,8,0:0:0:0:
256,192,23807,1,8,0:0:0:0:
256,192,24171,1,0,0:0:0:0:
256,192,24534,1,12,0:0:0:0:
256,192,24898,1,4,0:0:0:0:
256,192,25261,1,8,0:0:0:0:
256,192,25625,1,0,0:0:0:0:
256,192,25807,1,8,0:0:0:0:
256,192,25989,1,0,0:0:0:0:
256,192,26171,1,8,0:0:0:0:
256,192,26352,1,0,0:0:0:0:
256,192,26716,1,8,0:0:0:0:
256,192,27080,1,0,0:0:0:0:
256,192,27261,1,0,0:0:0:0:
256,192,27443,1,8,0:0:0:0:
256,192,27716,1,4,0:0:0:0:
256,192,28171,1,8,0:0:0:0:
256,192,28534,1,0,0:0:0:0:
256,192,28716,1,0,0:0:0:0:
256,192,28898,1,8,0:0:0:0:
256,192,29261,1,0,0:0:0:0:
256,192,29534,1,0,0:0:0:0:
256,192,29807,1,0,0:0:0:0:
256,192,29989,1,8,0:0:0:0:
256,192,30716,1,8,0:0:0:0:
256,192,30989,1,0,0:0:0:0:
256,192,31261,1,0,0:0:0:0:
256,192,31534,1,0,0:0:0:0:
256,192,31807,1,8,0:0:0:0:
256,192,32171,1,8,0:0:0:0:
256,192,32443,1,0,0:0:0:0:
256,192,32716,1,0,0:0:0:0:
256,192,32989,1,0,0:0:0:0:
256,192,33261,1,8,0:0:0:0:
256,192,33625,1,0,0:0:0:0:
256,192,35080,12,0,36353,0:0:0:0:
256,192,36534,5,0,0:0:0:0:
256,192,39080,1,0,0:0:0:0:
256,192,39443,1,0,0:0:0:0:
256,192,40898,2,0,L|384:192,4,70
256,192,41989,1,8,0:0:0:0:
256,192,42171,1,8,0:0:0:0:
256,192,42352,1,0,0:0:0:0:
256,192,43080,1,8,0:0:0:0:
256,192,43807,1,0,0:0:0:0:
256,192,44171,1,0,0:0:0:0:
256,192,44534,1,8,0:0:0:0:
256,192,44898,1,8,0:0:0:0:
256,192,45261,1,0,0:0:0:0:
256,192,45989,1,8,0:0:0:0:
256,192,46352,1,0,0:0:0:0:
256,192,46716,1,8,0:0:0:0:
256,192,47443,1,8,0:0:0:0:
256,192,47625,1,0,0:0:0:0:
256,192,47807,1,8,0:0:0:0:
256,192,47989,1,8,0:0:0:0:
256,192,48171,1,0,0:0:0:0:
256,192,48534,1,8,0:0:0:0:
256,192,49080,1,0,0:0:0:0:
256,192,49261,1,8,0:0:0:0:
256,192,49625,1,0,0:0:0:0:
256,192,49807,1,0,0:0:0:0:
256,192,49989,1,8,0:0:0:0:
256,192,50352,1,8,0:0:0:0:
256,192,50534,1,0,0:0:0:0:
256,192,50716,1,8,0:0:0:0:
256,192,51080,1,0,0:0:0:0:
256,192,51443,1,8,0:0:0:0:
256,192,51989,1,0,0:0:0:0:
256,192,52171,1,8,0:0:0:0:
256,192,52534,1,0,0:0:0:0:
256,192,52898,1,8,0:0:0:0:
256,192,53261,1,0,0:0:0:0:
256,192,53443,1,0,0:0:0:0:
256,192,53625,1,8,0:0:0:0:
256,192,53807,1,0,0:0:0:0:
256,192,53989,1,8,0:0:0:0:
256,192,54352,1,8,0:0:0:0:
256,192,54716,1,8,0:0:0:0:
256,192,54898,1,0,0:0:0:0:
256,192,55080,1,8,0:0:0:0:
256,192,55261,1,0,0:0:0:0:
256,192,55443,1,8,0:0:0:0:
256,192,55807,1,8,0:0:0:0:
256,192,56171,1,8,0:0:0:0:
256,192,56534,1,8,0:0:0:0:
256,192,56716,1,8,0:0:0:0:
256,192,56898,1,0,0:0:0:0:
256,192,57625,1,8,0:0:0:0:
256,192,57989,1,0,0:0:0:0:
256,192,58171,1,0,0:0:0:0:
256,192,58352,1,8,0:0:0:0:
256,192,58534,1,8,0:0:0:0:
256,192,58716,1,0,0:0:0:0:
256,192,59080,1,8,0:0:0:0:
256,192,59443,1,8,0:0:0:0:
256,192,59807,1,0,0:0:0:0:
256,192,60898,1,0,0:0:0:0:
256,192,61261,1,8,0:0:0:0:
256,192,61989,1,8,0:0:0:0:
256,192,62352,1,8,0:0:0:0:
256,192,62716,1,0,0:0:0:0:
256,192,63807,1,0,0:0:0:0:
256,192,64171,1,8,0:0:0:0:
256,192,64898,1,0,0:0:0:0:
256,192,65261,1,0,0:0:0:0:
256,192,65625,1,12,0:0:0:0:
256,192,66352,1,8,0:0:0:0:
256,192,66716,1,0,0:0:0:0:
256,192,66898,1,0,0:0:0:0:
256,192,67080,1,8,0:0:0:0:
256,192,67261,1,8,0:0:0:0:
256,192,67443,1,0,0:0:0:0:
256,192,67807,1,8,0:0:0:0:
256,192,68171,1,8,0:0:0:0:
256,192,68534,1,0,0:0:0:0:
256,192,69261,1,8,0:0:0:0:
256,192,69625,1,0,0:0:0:0:
256,192,69807,1,0,0:0:0:0:
256,192,69989,1,8,0:0:0:0:
256,192,70171,1,0,0:0:0:0:
256,192,70352,1,8,0:0:0:0:
256,192,70716,1,8,0:0:0:0:
256,192,70898,1,8,0:0:0:0:
256,192,71080,1,0,0:0:0:0:
256,192,71261,1,0,0:0:0:0:
256,192,71443,1,12,0:0:0:0:
256,192,72171,1,8,0:0:0:0:
256,192,72534,1,0,0:0:0:0:
256,192,72716,1,12,0:0:0:0:
256,192,73261,1,0,0:0:0:0:
256,192,73625,1,8,0:0:0:0:
256,192,73807,1,0,0:0:0:0:
256,192,73989,1,8,0:0:0:0:
256,192,74171,1,8,0:0:0:0:
256,192,74352,1,4,0:0:0:0:
256,192,75080,1,12,0:0:0:0:
256,192,75807,1,4,0:0:0:0:
256,192,76534,1,12,0:0:0:0:
256,192,77261,1,0,0:0:0:0:
256,192,78716,1,0,0:0:0:0:
256,192,80171,1,8,0:0:0:0:
256,192,80534,1,8,0:0:0:0:
256,192,80898,1,8,0:0:0:0:
256,192,81080,1,0,0:0:0:0:
256,192,81261,1,8,0:0:0:0:
256,192,81443,1,0,0:0:0:0:
256,192,81625,1,8,0:0:0:0:
256,192,81989,1,0,0:0:0:0:
256,192,82352,1,0,0:0:0:0:
256,192,82534,1,0,0:0:0:0:
256,192,82716,1,12,0:0:0:0:
256,192,83080,1,4,0:0:0:0:
256,192,83443,1,8,0:0:0:0:
256,192,83625,1,8,0:0:0:0:
256,192,83807,1,8,0:0:0:0:
256,192,84080,1,0,0:0:0:0:
256,192,84352,1,8,0:0:0:0:
256,192,84534,1,8,0:0:0:0:
256,192,84807,1,0,0:0:0:0:
256,192,85080,1,8,0:0:0:0:
256,192,85261,1,8,0:0:0:0:
256,192,85807,1,8,0:0:0:0:
256,192,85989,1,0,0:0:0:0:
256,192,86261,1,8,0:0:0:0:
256,192,86534,1,8,0:0:0:0:
256,192,86716,1,8,0:0:0:0:
256,192,86989,1,0,0:0:0:0:
256,192,87261,1,0,0:0:0:0:
256,192,87443,1,0,0:0:0:0:
256,192,87807,1,0,0:0:0:0:
256,192,88171,1,8,0:0:0:0:
256,192,88534,1,8,0:0:0:0:
256,192,88898,1,0,0:0:0:0:
256,192,89625,1,0,0:0:0:0:
256,192,89898,1,8,0:0:0:0:
256,192,90171,1,0,0:0:0:0:
256,192,91080,1,8,0:0:0:0:
256,192,91443,1,8,0:0:0:0:
256,192,91807,1,0,0:0:0:0:
256,192,92534,1,0,0:0:0:0:
256,192,92807,1,8,0:0:0:0:
256,192,93080,1,8,0:0:0:0:
256,192,93261,1,0,0:0:0:0:
256,192,93443,1,8,0:0:0:0:
256,192,93625,1,0,0:0:0:0:
256,192,93807,1,8,0:0:0:0:
256,192,94171,1,0,0:0:0:0:
256,192,94352,1,8,0:0:0:0:
256,192,94716,1,0,0:0:0:0:
256,192,94989,1,8,0:0:0:0:
256,192,95261,1,8,0:0:0:0:
256,192,95443,1,8,0:0:0:0:
256,192,95716,1,0,0:0:0:0:
256,192,95989,1,8,0:0:0:0:
256,192,96171,1,8,0:0:0:0:
256,192,96443,1,8,0:0:0:0:
256,192,96716,1,0,0:0:0:0:
256,192,96898,1,8,0:0:0:0:
256,192,97443,1,0,0:0:0:0:
256,192,97625,1,0,0:0:0:0:
256,192,97898,1,8,0:0:0:0:
256,192,98171,1,0,0:0:0:0:
256,192,98352,1,0,0:0:0:0:
256,192,98625,1,8,0:0:0:0:
256,192,98898,1,8,0:0:0:0:
256,192,99080,1,0,0:0:0:0:
256,192,99443,1,8,0:0:0:0:
256,192,99807,1,0,0:0:0:0:
256,192,99989,1,0,0:0:0:0:
256,192,100171,1,8,0:0:0:0:
256,192,100352,1,8,0:0:0:0:
256,192,100534,1,0,0:0:0:0:
256,192,101261,1,8,0:0:0:0:
256,192,101807,1,0,0:0:0:0:
256,192,102352,1,0,0:0:0:0:
256,192,102716,1,8,0:0:0:0:
256,192,103080,1,0,0:0:0:0:
256,192,103443,2,8,L|352:192,8,70
256,192,105625,1,12,0:0:0:0:
256,192,105989,1,12,0:0:0:0:
256,192,106352,1,4,0:0:0:0:
256,192,107080,1,0,0:0:0:0:
256,192,107261,1,8,0:0:0:0:
256,192,107443,1,0,0:0:0:0:
256,192,107625,1,8,0:0:0:0:
256,192,107807,1,0,0:0:0:0:
256,192,108171,1,8,0:0:0:0:
256,192,108352,1,8,0:0:0:0:
256,192,108534,1,0,0:0:0:0:
256,192,108716,1,0,0:0:0:0:
256,192,108898,1,8,0:0:0:0:
256,192,109261,1,4,0:0:0:0:
256,192,109989,1,0,0:0:0:0:
256,192,110352,1,8,0:0:0:0:
256,192,110716,1,0,0:0:0:0:
256,192,110989,1,0,0:0:0:0:
256,192,111261,1,0,0:0:0:0:
256,192,111443,1,8,0:0:0:0:
256,192,111716,1,8,0:0:0:0:
256,192,111989,1,8,0:0:0:0:
256,192,112171,1,0,0:0:0:0:
256,192,112898,1,8,0:0:0:0:
256,192,113989,1,0,0:0:0:0:
256,192,114352,1,8,0:0:0:0:
256,192,114716,1,8,0:0:0:0:
256,192,115080,1,0,0:0:0:0:
256,192,115352,1,0,0:0:0:0:
256,192,115625,1,0,0:0:0:0:
256,192,115807,1,8,0:0:0:0:
256,192,116171,1,8,0:0:0:0:
256,192,116352,1,0,0:0:0:0:
256,192,116716,1,0,0:0:0:0:
256,192,116898,1,8,0:0:0:0:
256,192,117989,1,0,0:0:0:0:
256,192,118716,1,8,0:0:0:0:
256,192,118898,1,8,0:0:0:0:
256,192,119080,1,0,0:0:0:0:
256,192,119261,1,8,0:0:0:0:
256,192,119443,1,0,0:0:0:0:
256,192,119807,1,0,0:0:0:0:
256,192,119989,1,0,0:0:0:0:
256,192,120171,1,8,0:0:0:0:
256,192,120352,1,0,0:0:0:0:
256,192,120534,1,8,0:0:0:0:
256,192,120898,1,0,0:0:0:0:
256,192,121261,1,0,0:0:0:0:
256,192,121625,1,8,0:0:0:0:
256,192,122352,1,0,0:0:0:0:
256,192,122625,1,0,0:0:0:0:
256,192,122898,1,0,0:0:0:0:
256,192,123080,1,8,0:0:0:0:
256,192,123807,1,4,0:0:0:0:
256,192,124171,1,8,0:0:0:0:
256,192,124716,1,0,0:0:0:0:
256,192,124898,1,8,0:0:0:0:
256,192,125261,1,8,0:0:0:0:
256,192,125443,1,0,0:0:0:0:
256,192,125625,1,8,0:0:0:0:
256,192,125989,1,0,0:0:0:0:
256,192,126352,1,8,0:0:0:0:
256,192,126716,1,4,0:0:0:0:
256,192,127261,1,4,0:0:0:0:
256,192,127989,1,4,0:0:0:0:
256,192,128171,12,4,129625,0:0:0:0:
