osu file format v14

[General]
AudioFilename: audio.mp3
AudioLeadIn: 0
PreviewTime: 81534
Countdown: 0
SampleSet: Normal
StackLeniency: 0
Mode: 1
LetterboxInBreaks: 0
WidescreenStoryboard: 1

[Editor]
Bookmarks: 65625,106352
DistanceSpacing: 1
BeatDivisor: 4
GridSize: 32
TimelineZoom: 3.399999

[Metadata]
Title:Komplexe
TitleUnicode:Komplexe
Artist:Yunosuke feat. Sennzai
ArtistUnicode:雄之助 feat. Sennzai
Creator:KappuChinooo
Version:Oni
Source:maimai でらっくす Splash
Tags:video game electronic Drum and n & Bass DnB Japanese Yuunosuke Metropolis Island Chihou 3 Complex Deluxe Ph0eNiiXZ PhOeNiixz
BeatmapID:2864114
BeatmapSetID:1386527

[Difficulty]
HPDrainRate:5
CircleSize:4
OverallDifficulty:6
ApproachRate:10
SliderMultiplier:1.4
SliderTickRate:1

[Events]
//Background and Video events
0,0,"65a87549cf6083c427a058628c632416c2a26e6c_s2_n1.jpg",0,20
//Break Periods
//Storyboard Layer 0 (Background)
//Storyboard Layer 1 (Fail)
//Storyboard Layer 2 (Pass)
//Storyboard Layer 3 (Foreground)
//Storyboard Layer 4 (Overlay)
//Storyboard Sound Samples

[TimingPoints]
171,363.636363636364,4,1,0,60,1,0
171,-125,4,1,0,60,0,0
1621,-111.111111111111,4,1,0,70,0,0
11803,-111.111111111111,4,1,0,75,0,0
11894,-110.344827586207,4,1,0,75,0,0
11985,-109.58904109589,4,1,0,75,0,0
12076,-108.843537414966,4,1,0,75,0,0
12167,-108.108108108108,4,1,0,75,0,0
12348,-106.666666666667,4,1,0,75,0,0
12530,-105.263157894737,4,1,0,75,0,0
12621,-104.575163398693,4,1,0,75,0,0
12712,-103.896103896104,4,1,0,75,0,0
12803,-103.225806451613,4,1,0,75,0,0
12894,-102.564102564103,4,1,0,75,0,0
13076,-101.26582278481,4,1,0,75,0,0
13257,-100,4,1,0,80,0,0
19076,-95.2380952380952,4,1,0,85,0,0
20530,-90.9090909090909,4,1,0,85,0,0
23439,-90.9090909090909,4,1,0,85,0,0
23560,-91.6030534351145,4,1,0,85,0,0
23682,-92.3076923076923,4,1,0,85,0,0
23803,-93.0232558139535,4,1,0,85,0,0
23924,-93.75,4,1,0,85,0,0
24167,-95.2380952380952,4,1,0,85,0,0
24257,-95.8083832335329,4,1,0,85,0,0
24348,-96.3855421686747,4,1,0,85,0,0
24439,-96.8523002421307,4,1,0,85,0,0
24530,-97.5609756097561,4,1,0,85,0,0
24898,-90.8521018633766,4,1,0,90,0,1
33625,-90.8521018633766,4,1,0,70,0,0
34348,-90.9090909090909,4,1,0,70,0,0
34470,-91.8335205206593,4,1,0,70,0,0
34591,-92.7768577406052,4,1,0,70,0,0
34712,-93.7398643771642,4,1,0,70,0,0
34833,-94.7230723617967,4,1,0,70,0,0
34954,-95.7270324524213,4,1,0,70,0,0
35076,-96.7525958721473,4,1,0,70,0,0
35318,-98.8709921407448,4,1,0,70,0,0
35439,-99.9654119674593,4,1,0,70,0,0
35560,-101.084331625345,4,1,0,70,0,0
35682,-102.228478605113,4,1,0,70,0,0
35803,-103.398929614281,4,1,0,70,0,0
35985,-105.205682369316,4,1,0,70,0,0
36076,-106.132888990305,4,1,0,70,0,0
36167,-107.076699039522,4,1,0,70,0,0
36348,-109.015470385402,4,1,0,70,0,0
36530,-111.025744649669,4,1,0,70,0,0
40894,-100,4,1,0,75,0,0
40985,-100.62893081761,4,1,0,75,0,0
41076,-101.26582278481,4,1,0,75,0,0
41167,-101.910828025478,4,1,0,75,0,0
41257,-102.564102564103,4,1,0,75,0,0
41439,-103.896103896104,4,1,0,75,0,0
41530,-104.575163398693,4,1,0,75,0,0
41621,-105.263157894737,4,1,0,75,0,0
41985,-108.108108108108,4,1,0,75,0,0
42076,-108.843537414966,4,1,0,75,0,0
42167,-109.58904109589,4,1,0,75,0,0
42257,-110.344827586207,4,1,0,75,0,0
42348,-111.111111111111,4,1,0,60,0,0
43803,-111.111111111111,4,1,0,65,0,0
45257,-111.111111111111,4,1,0,70,0,0
46530,-105.263157894737,4,1,0,70,0,0
46712,-99.9999999999999,4,1,0,75,0,0
47439,-111.111111111111,4,1,0,75,0,0
47530,-109.604535874113,4,1,0,75,0,0
47621,-108.138269917447,4,1,0,75,0,0
47712,-106.710716850583,4,1,0,75,0,0
47803,-105.320252557966,4,1,0,75,0,0
47985,-102.645482007787,4,1,0,75,0,0
48076,-101.35840534848,4,1,0,75,0,0
48167,-100.103206405804,4,1,0,75,0,0
53985,-95.2380952380952,4,1,0,80,0,0
56803,-93.0232558139535,4,1,0,80,0,0
56894,-90.9090909090909,4,1,0,80,0,0
57621,-100,4,1,0,80,0,0
57985,-93.7398643771642,4,1,0,80,0,0
58076,-94.4752748758122,4,1,0,80,0,0
58167,-95.2224062130716,4,1,0,80,0,0
58348,-96.7525958721473,4,1,0,80,0,0
58439,-97.5362347111952,4,1,0,80,0,0
58530,-98.3327679199178,4,1,0,80,0,0
58621,-99.1423197914839,4,1,0,80,0,0
58712,-99.9654119674593,4,1,0,80,0,0
59076,-103.398929614281,4,1,0,80,0,0
59439,-107.076699039522,4,1,0,80,0,0
59621,-109.015470385402,4,1,0,80,0,0
59803,-111.025744649669,4,1,0,70,0,0
64167,-111.111111111111,4,1,0,70,0,0
64530,-105.263157894737,4,1,0,80,0,0
64621,-103.896103896104,4,1,0,80,0,0
64712,-102.564102564103,4,1,0,80,0,0
64803,-101.26582278481,4,1,0,80,0,0
64894,-100,4,1,0,80,0,0
65076,-97.5609756097561,4,1,0,80,0,0
65167,-96.3855421686747,4,1,0,80,0,0
65257,-95.2380952380952,4,1,0,80,0,0
65439,-93.0232558139535,4,1,0,80,0,0
65530,-91.9540229885058,4,1,0,80,0,0
65625,-90.9090909090909,4,1,0,90,0,1
70712,-90.9090909090909,4,1,0,90,0,1
70803,-91.9540229885058,4,1,0,90,0,1
70894,-93.0232558139535,4,1,0,90,0,1
70985,-94.1176470588235,4,1,0,90,0,1
71076,-95.2380952380952,4,1,0,90,0,1
71257,-97.5609756097561,4,1,0,90,0,1
71348,-98.7654320987654,4,1,0,90,0,1
71443,-100,4,1,0,80,0,0
77257,-111.111111111111,4,1,0,70,0,0
80167,-111.111111111111,4,1,0,80,0,0
80257,-110.344827586207,4,1,0,80,0,0
80348,-109.58904109589,4,1,0,80,0,0
80439,-108.843537414966,4,1,0,80,0,0
80530,-108.108108108108,4,1,0,80,0,0
80712,-106.666666666667,4,1,0,80,0,0
80803,-105.960264900662,4,1,0,80,0,0
80894,-105.263157894737,4,1,0,80,0,0
81076,-103.896103896104,4,1,0,80,0,0
81167,-103.225806451613,4,1,0,80,0,0
81257,-102.564102564103,4,1,0,80,0,0
81348,-101.910828025478,4,1,0,80,0,0
81439,-101.26582278481,4,1,0,80,0,0
81621,-95.2380952380952,4,1,0,85,0,0
83080,-90.9090909090909,4,1,0,90,0,1
100534,-90.9090909090909,4,1,0,70,0,0
101257,-100,4,1,0,70,0,0
101803,-100,4,1,0,75,0,0
103439,-100,4,1,0,85,0,0
103530,-99.3820424599838,4,1,0,85,0,0
103621,-98.7717730027113,4,1,0,85,0,0
103712,-98.1688563230069,4,1,0,85,0,0
103803,-97.5733507664387,4,1,0,85,0,0
103985,-96.4035684744906,4,1,0,85,0,0
104076,-95.8292246553262,4,1,0,85,0,0
104167,-95.261593097726,4,1,0,85,0,0
104348,-94.1463561594312,4,1,0,85,0,0
104530,-93.0569294377221,4,1,0,85,0,0
104621,-92.5215737179517,4,1,0,85,0,0
104712,-91.9923425574055,4,1,0,85,0,0
104803,-91.4692151209589,4,1,0,85,0,0
104894,-90.9519209955233,4,1,0,75,0,0
105621,-100,4,1,0,85,0,0
105712,-98.7654320987654,4,1,0,85,0,0
105803,-97.5609756097561,4,1,0,85,0,0
105894,-96.3855421686747,4,1,0,85,0,0
105985,-95.2380952380952,4,1,0,85,0,0
106167,-93.0232558139535,4,1,0,85,0,0
106352,-90.9090909090909,4,1,0,90,0,1
129625,-90.9090909090909,4,1,0,70,0,0
131076,-100,4,1,0,70,0,0
132348,-111.111111111111,4,1,0,40,0,0

[HitObjects]
256,192,1261,5,8,0:0:0:0:
384,192,1625,1,4,0:0:0:0:
256,192,3807,1,8,0:0:0:0:
256,192,4534,1,0,0:0:0:0:
256,192,4595,1,0,0:0:0:0:
256,192,5989,1,0,0:0:0:0:
256,192,6352,1,0,0:0:0:0:
256,192,6716,1,8,0:0:0:0:
256,192,7080,1,8,0:0:0:0:
256,192,7443,1,0,0:0:0:0:
256,192,7504,1,0,0:0:0:0:
256,192,8898,1,8,0:0:0:0:
256,192,8958,1,8,0:0:0:0:
256,192,9625,1,0,0:0:0:0:
256,192,10352,1,0,0:0:0:0:
256,192,10413,1,0,0:0:0:0:
256,192,11080,1,8,0:0:0:0:
256,192,11807,1,0,0:0:0:0:
256,192,11898,1,0,0:0:0:0:
256,192,11989,1,0,0:0:0:0:
256,192,12080,1,0,0:0:0:0:
256,192,12171,1,8,0:0:0:0:
256,192,12352,1,0,0:0:0:0:
256,192,12534,1,8,0:0:0:0:
256,192,12625,1,8,0:0:0:0:
256,192,12716,1,0,0:0:0:0:
256,192,12807,1,0,0:0:0:0:
256,192,12898,1,8,0:0:0:0:
256,192,13080,1,0,0:0:0:0:
384,192,13261,1,12,0:0:0:0:
256,192,13443,1,8,0:0:0:0:
256,192,13534,1,0,0:0:0:0:
256,192,13807,1,8,0:0:0:0:
256,192,13989,1,8,0:0:0:0:
256,192,14171,1,0,0:0:0:0:
256,192,14261,1,0,0:0:0:0:
256,192,14352,1,8,0:0:0:0:
256,192,14534,1,0,0:0:0:0:
256,192,14716,1,8,0:0:0:0:
256,192,14898,1,0,0:0:0:0:
256,192,14989,1,8,0:0:0:0:
256,192,15261,1,0,0:0:0:0:
256,192,15443,1,8,0:0:0:0:
256,192,15625,1,8,0:0:0:0:
256,192,15807,1,0,0:0:0:0:
384,192,16171,1,12,0:0:0:0:
256,192,16352,1,0,0:0:0:0:
256,192,16443,1,0,0:0:0:0:
256,192,16534,1,8,0:0:0:0:
256,192,16716,1,8,0:0:0:0:
256,192,16898,1,0,0:0:0:0:
256,192,17080,1,8,0:0:0:0:
256,192,17171,1,0,0:0:0:0:
256,192,17443,1,8,0:0:0:0:
256,192,17625,1,0,0:0:0:0:
256,192,17807,1,8,0:0:0:0:
256,192,17989,1,8,0:0:0:0:
256,192,18080,1,8,0:0:0:0:
256,192,18171,1,0,0:0:0:0:
256,192,18261,1,0,0:0:0:0:
256,192,18352,1,8,0:0:0:0:
256,192,18534,1,8,0:0:0:0:
256,192,18716,1,0,0:0:0:0:
384,192,19080,1,12,0:0:0:0:
256,192,19261,1,0,0:0:0:0:
256,192,19443,1,0,0:0:0:0:
256,192,19625,1,0,0:0:0:0:
256,192,19807,1,8,0:0:0:0:
256,192,19989,1,0,0:0:0:0:
256,192,20080,1,0,0:0:0:0:
256,192,20171,1,0,0:0:0:0:
256,192,20352,1,8,0:0:0:0:
256,192,20534,1,0,0:0:0:0:
256,192,20625,1,0,0:0:0:0:
256,192,20716,1,8,0:0:0:0:
256,192,20807,1,8,0:0:0:0:
256,192,20898,1,0,0:0:0:0:
256,192,21080,1,8,0:0:0:0:
256,192,21171,1,0,0:0:0:0:
256,192,21261,1,0,0:0:0:0:
256,192,21443,1,8,0:0:0:0:
256,192,21625,1,8,0:0:0:0:
256,192,21716,1,0,0:0:0:0:
256,192,21807,1,8,0:0:0:0:
256,192,21898,1,8,0:0:0:0:
256,192,21989,1,0,0:0:0:0:
256,192,23443,1,8,0:0:0:0:
256,192,23564,1,0,0:0:0:0:
256,192,23686,1,0,0:0:0:0:
256,192,23807,1,8,0:0:0:0:
256,192,23928,1,0,0:0:0:0:
256,192,24171,1,8,0:0:0:0:
256,192,24261,1,8,0:0:0:0:
256,192,24352,1,0,0:0:0:0:
256,192,24443,1,0,0:0:0:0:
256,192,24534,1,8,0:0:0:0:
384,192,24898,1,12,0:0:0:0:
256,192,25261,1,0,0:0:0:0:
256,192,25352,1,0,0:0:0:0:
256,192,25443,1,8,0:0:0:0:
256,192,25625,1,0,0:0:0:0:
256,192,25807,1,8,0:0:0:0:
256,192,25989,1,0,0:0:0:0:
256,192,26171,1,8,0:0:0:0:
256,192,26261,1,8,0:0:0:0:
256,192,26352,1,0,0:0:0:0:
256,192,26534,1,0,0:0:0:0:
256,192,26716,1,8,0:0:0:0:
256,192,26807,1,0,0:0:0:0:
256,192,26898,1,8,0:0:0:0:
256,192,26989,1,8,0:0:0:0:
256,192,27171,1,0,0:0:0:0:
256,192,27261,1,0,0:0:0:0:
256,192,27352,1,8,0:0:0:0:
256,192,27443,1,0,0:0:0:0:
384,192,27716,1,12,0:0:0:0:
256,192,27989,1,0,0:0:0:0:
256,192,28080,1,8,0:0:0:0:
256,192,28171,1,8,0:0:0:0:
256,192,28534,1,8,0:0:0:0:
256,192,28625,1,0,0:0:0:0:
256,192,28716,1,8,0:0:0:0:
256,192,28898,1,0,0:0:0:0:
256,192,29080,1,0,0:0:0:0:
384,192,29261,1,12,0:0:0:0:
384,192,29534,1,12,0:0:0:0:
384,192,29807,1,12,0:0:0:0:
256,192,29989,1,0,0:0:0:0:
256,192,30171,1,0,0:0:0:0:
256,192,30261,1,0,0:0:0:0:
256,192,30352,1,8,0:0:0:0:
256,192,30534,1,8,0:0:0:0:
384,192,30716,1,4,0:0:0:0:
384,192,30989,1,4,0:0:0:0:
384,192,31261,1,4,0:0:0:0:
384,192,31534,1,4,0:0:0:0:
384,192,31807,1,4,0:0:0:0:
384,192,32171,1,12,0:0:0:0:
384,192,32443,1,12,0:0:0:0:
384,192,32716,1,12,0:0:0:0:
384,192,32989,1,12,0:0:0:0:
384,192,33261,1,12,0:0:0:0:
256,192,33625,1,8,0:0:0:0:
256,192,33716,1,0,0:0:0:0:
256,192,33807,1,0,0:0:0:0:
256,192,33898,1,8,0:0:0:0:
256,192,34352,1,0,0:0:0:0:
256,192,34474,1,0,0:0:0:0:
256,192,34595,1,8,0:0:0:0:
256,192,34716,1,8,0:0:0:0:
256,192,34837,1,0,0:0:0:0:
256,192,34958,1,0,0:0:0:0:
256,192,35080,1,8,0:0:0:0:
256,192,35322,1,0,0:0:0:0:
256,192,35443,1,8,0:0:0:0:
256,192,35564,1,0,0:0:0:0:
256,192,35686,1,0,0:0:0:0:
256,192,35807,1,8,0:0:0:0:
256,192,35989,1,0,0:0:0:0:
256,192,36080,1,0,0:0:0:0:
256,192,36171,1,8,0:0:0:0:
256,192,36352,1,8,0:0:0:0:
384,192,36534,1,4,0:0:0:0:
256,192,38716,1,8,0:0:0:0:
256,192,39080,1,0,0:0:0:0:
384,192,39443,1,12,0:0:0:0:
256,192,40898,1,8,0:0:0:0:
256,192,40989,1,0,0:0:0:0:
256,192,41080,1,0,0:0:0:0:
256,192,41171,1,0,0:0:0:0:
256,192,41261,1,8,0:0:0:0:
256,192,41443,1,0,0:0:0:0:
256,192,41534,1,0,0:0:0:0:
256,192,41625,1,8,0:0:0:0:
256,192,41989,1,8,0:0:0:0:
256,192,42080,1,8,0:0:0:0:
256,192,42171,1,8,0:0:0:0:
256,192,42261,1,8,0:0:0:0:
256,192,42352,1,0,0:0:0:0:
256,192,42716,1,8,0:0:0:0:
256,192,43080,1,0,0:0:0:0:
256,192,43807,1,8,0:0:0:0:
256,192,44171,1,0,0:0:0:0:
256,192,44534,1,8,0:0:0:0:
256,192,44898,1,0,0:0:0:0:
256,192,45080,1,0,0:0:0:0:
256,192,45171,1,0,0:0:0:0:
256,192,45261,1,8,0:0:0:0:
256,192,45989,1,8,0:0:0:0:
256,192,46534,1,0,0:0:0:0:
384,192,46716,1,12,0:0:0:0:
256,192,47443,1,0,0:0:0:0:
256,192,47534,1,0,0:0:0:0:
256,192,47625,1,0,0:0:0:0:
256,192,47716,1,0,0:0:0:0:
256,192,47807,1,8,0:0:0:0:
256,192,47989,1,0,0:0:0:0:
256,192,48080,1,0,0:0:0:0:
256,192,48171,1,8,0:0:0:0:
256,192,48352,1,0,0:0:0:0:
256,192,48534,1,8,0:0:0:0:
256,192,48716,1,0,0:0:0:0:
256,192,48807,1,0,0:0:0:0:
256,192,48898,1,0,0:0:0:0:
256,192,49080,1,0,0:0:0:0:
256,192,49261,1,8,0:0:0:0:
256,192,49625,1,8,0:0:0:0:
256,192,49807,1,0,0:0:0:0:
256,192,49989,1,8,0:0:0:0:
256,192,50171,1,0,0:0:0:0:
256,192,50261,1,0,0:0:0:0:
256,192,50352,1,0,0:0:0:0:
256,192,50534,1,8,0:0:0:0:
256,192,50716,1,8,0:0:0:0:
256,192,51080,1,8,0:0:0:0:
256,192,51261,1,0,0:0:0:0:
256,192,51352,1,0,0:0:0:0:
256,192,51443,1,8,0:0:0:0:
256,192,51625,1,0,0:0:0:0:
256,192,51716,1,0,0:0:0:0:
256,192,51807,1,0,0:0:0:0:
256,192,51989,1,0,0:0:0:0:
256,192,52171,1,8,0:0:0:0:
256,192,52534,1,8,0:0:0:0:
256,192,52716,1,0,0:0:0:0:
256,192,52898,1,8,0:0:0:0:
256,192,53080,1,0,0:0:0:0:
256,192,53171,1,0,0:0:0:0:
256,192,53261,1,8,0:0:0:0:
256,192,53443,1,8,0:0:0:0:
256,192,53534,1,0,0:0:0:0:
256,192,53625,1,8,0:0:0:0:
256,192,53716,1,8,0:0:0:0:
256,192,53807,1,0,0:0:0:0:
256,192,53989,1,8,0:0:0:0:
256,192,54352,1,8,0:0:0:0:
256,192,54534,1,0,0:0:0:0:
256,192,54716,1,8,0:0:0:0:
256,192,55080,1,8,0:0:0:0:
256,192,55261,1,8,0:0:0:0:
256,192,55443,1,0,0:0:0:0:
256,192,55625,1,8,0:0:0:0:
256,192,55807,1,0,0:0:0:0:
256,192,56171,1,8,0:0:0:0:
256,192,56352,1,0,0:0:0:0:
256,192,56534,1,8,0:0:0:0:
256,192,56716,1,0,0:0:0:0:
256,192,56807,1,0,0:0:0:0:
256,192,56898,1,8,0:0:0:0:
256,192,57625,1,0,0:0:0:0:
256,192,57989,1,8,0:0:0:0:
256,192,58080,1,0,0:0:0:0:
256,192,58171,1,8,0:0:0:0:
256,192,58352,1,0,0:0:0:0:
256,192,58443,1,0,0:0:0:0:
256,192,58534,1,8,0:0:0:0:
256,192,58625,1,8,0:0:0:0:
256,192,58716,1,0,0:0:0:0:
256,192,59080,1,8,0:0:0:0:
256,192,59443,1,0,0:0:0:0:
256,192,59625,1,0,0:0:0:0:
384,192,59807,1,12,0:0:0:0:
256,192,60898,1,0,0:0:0:0:
256,192,61261,1,8,0:0:0:0:
256,192,61989,1,0,0:0:0:0:
256,192,62352,1,8,0:0:0:0:
256,192,62534,1,8,0:0:0:0:
256,192,62716,1,0,0:0:0:0:
256,192,63807,1,0,0:0:0:0:
256,192,64171,1,8,0:0:0:0:
256,192,64534,1,0,0:0:0:0:
256,192,64625,1,0,0:0:0:0:
256,192,64716,1,8,0:0:0:0:
256,192,64807,1,8,0:0:0:0:
256,192,64898,1,0,0:0:0:0:
256,192,65080,1,8,0:0:0:0:
256,192,65171,1,8,0:0:0:0:
256,192,65261,1,0,0:0:0:0:
256,192,65443,1,0,0:0:0:0:
256,192,65534,1,0,0:0:0:0:
256,192,65625,1,8,0:0:0:0:
256,192,65989,1,8,0:0:0:0:
256,192,66171,1,8,0:0:0:0:
256,192,66352,1,0,0:0:0:0:
256,192,66443,1,0,0:0:0:0:
256,192,66534,1,8,0:0:0:0:
256,192,66716,1,0,0:0:0:0:
256,192,66807,1,8,0:0:0:0:
256,192,66898,1,8,0:0:0:0:
256,192,67080,1,0,0:0:0:0:
256,192,67261,1,0,0:0:0:0:
256,192,67443,1,8,0:0:0:0:
256,192,67534,1,0,0:0:0:0:
256,192,67625,1,0,0:0:0:0:
256,192,67807,1,8,0:0:0:0:
256,192,67898,1,0,0:0:0:0:
256,192,67989,1,8,0:0:0:0:
256,192,68080,1,8,0:0:0:0:
256,192,68171,1,0,0:0:0:0:
256,192,68352,1,0,0:0:0:0:
256,192,68534,1,8,0:0:0:0:
256,192,68898,1,0,0:0:0:0:
256,192,69080,1,0,0:0:0:0:
256,192,69261,1,8,0:0:0:0:
256,192,69443,1,0,0:0:0:0:
256,192,69534,1,0,0:0:0:0:
256,192,69625,1,8,0:0:0:0:
256,192,69716,1,0,0:0:0:0:
256,192,69807,1,8,0:0:0:0:
256,192,69989,1,0,0:0:0:0:
256,192,70171,1,0,0:0:0:0:
256,192,70352,1,8,0:0:0:0:
256,192,70443,1,0,0:0:0:0:
256,192,70534,1,8,0:0:0:0:
256,192,70716,1,0,0:0:0:0:
256,192,70807,1,0,0:0:0:0:
256,192,70898,1,0,0:0:0:0:
256,192,70989,1,0,0:0:0:0:
256,192,71080,1,8,0:0:0:0:
256,192,71261,1,0,0:0:0:0:
256,192,71352,1,0,0:0:0:0:
256,192,71443,1,8,0:0:0:0:
256,192,71807,1,8,0:0:0:0:
256,192,72171,1,0,0:0:0:0:
256,192,72352,1,0,0:0:0:0:
256,192,72534,1,8,0:0:0:0:
384,192,72716,1,4,0:0:0:0:
256,192,73261,1,0,0:0:0:0:
256,192,73625,1,8,0:0:0:0:
256,192,73807,1,8,0:0:0:0:
256,192,73989,1,0,0:0:0:0:
256,192,74171,1,8,0:0:0:0:
384,192,74352,1,4,0:0:0:0:
384,192,75080,1,4,0:0:0:0:
384,192,75807,1,4,0:0:0:0:
384,192,76534,1,12,0:0:0:0:
256,192,77261,1,0,0:0:0:0:
256,192,77322,1,0,0:0:0:0:
256,192,78716,1,8,0:0:0:0:
256,192,78777,1,8,0:0:0:0:
256,192,80171,1,0,0:0:0:0:
256,192,80261,1,0,0:0:0:0:
256,192,80352,1,8,0:0:0:0:
256,192,80443,1,8,0:0:0:0:
256,192,80534,1,0,0:0:0:0:
256,192,80716,1,0,0:0:0:0:
256,192,80807,1,0,0:0:0:0:
256,192,80898,1,8,0:0:0:0:
256,192,81080,1,8,0:0:0:0:
256,192,81171,1,0,0:0:0:0:
256,192,81261,1,8,0:0:0:0:
256,192,81352,1,8,0:0:0:0:
256,192,81443,1,0,0:0:0:0:
256,192,81625,1,8,0:0:0:0:
256,192,81867,1,0,0:0:0:0:
256,192,81989,1,8,0:0:0:0:
256,192,82231,1,0,0:0:0:0:
256,192,82352,1,8,0:0:0:0:
256,192,82443,1,8,0:0:0:0:
256,192,82534,1,0,0:0:0:0:
384,192,82716,1,12,0:0:0:0:
384,192,83080,1,4,0:0:0:0:
256,192,83261,1,8,0:0:0:0:
256,192,83352,1,8,0:0:0:0:
256,192,83443,1,0,0:0:0:0:
256,192,83625,1,8,0:0:0:0:
256,192,83807,1,0,0:0:0:0:
256,192,83898,1,0,0:0:0:0:
256,192,83989,1,8,0:0:0:0:
256,192,84080,1,0,0:0:0:0:
256,192,84171,1,8,0:0:0:0:
256,192,84352,1,0,0:0:0:0:
256,192,84534,1,8,0:0:0:0:
256,192,84625,1,0,0:0:0:0:
256,192,84807,1,0,0:0:0:0:
256,192,84898,1,8,0:0:0:0:
256,192,85080,1,0,0:0:0:0:
256,192,85261,1,8,0:0:0:0:
256,192,85625,1,0,0:0:0:0:
256,192,85807,1,8,0:0:0:0:
256,192,85989,1,8,0:0:0:0:
256,192,86171,1,0,0:0:0:0:
256,192,86261,1,0,0:0:0:0:
256,192,86352,1,8,0:0:0:0:
256,192,86534,1,0,0:0:0:0:
256,192,86716,1,8,0:0:0:0:
256,192,86807,1,8,0:0:0:0:
256,192,86898,1,0,0:0:0:0:
256,192,86989,1,0,0:0:0:0:
256,192,87080,1,8,0:0:0:0:
256,192,87261,1,0,0:0:0:0:
256,192,87443,1,8,0:0:0:0:
256,192,87625,1,0,0:0:0:0:
256,192,87716,1,0,0:0:0:0:
256,192,87807,1,8,0:0:0:0:
256,192,88171,1,0,0:0:0:0:
256,192,88352,1,8,0:0:0:0:
256,192,88443,1,8,0:0:0:0:
256,192,88534,1,0,0:0:0:0:
256,192,88898,1,8,0:0:0:0:
256,192,89080,1,0,0:0:0:0:
256,192,89171,1,0,0:0:0:0:
256,192,89261,1,8,0:0:0:0:
256,192,89443,1,0,0:0:0:0:
256,192,89625,1,8,0:0:0:0:
256,192,89716,1,0,0:0:0:0:
256,192,89898,1,0,0:0:0:0:
256,192,89989,1,8,0:0:0:0:
256,192,90171,1,0,0:0:0:0:
256,192,90352,1,8,0:0:0:0:
256,192,90443,1,0,0:0:0:0:
256,192,90534,1,8,0:0:0:0:
256,192,90625,1,8,0:0:0:0:
256,192,90716,1,0,0:0:0:0:
256,192,90898,1,0,0:0:0:0:
256,192,91080,1,8,0:0:0:0:
256,192,91261,1,0,0:0:0:0:
256,192,91352,1,0,0:0:0:0:
256,192,91443,1,8,0:0:0:0:
256,192,91625,1,8,0:0:0:0:
256,192,91807,1,0,0:0:0:0:
256,192,92171,1,8,0:0:0:0:
256,192,92352,1,0,0:0:0:0:
256,192,92443,1,0,0:0:0:0:
256,192,92534,1,8,0:0:0:0:
256,192,92716,1,8,0:0:0:0:
256,192,92807,1,8,0:0:0:0:
256,192,92898,1,0,0:0:0:0:
256,192,93080,1,8,0:0:0:0:
256,192,93261,1,0,0:0:0:0:
256,192,93352,1,0,0:0:0:0:
256,192,93443,1,8,0:0:0:0:
256,192,93534,1,8,0:0:0:0:
256,192,93625,1,0,0:0:0:0:
256,192,93807,1,8,0:0:0:0:
256,192,93989,1,0,0:0:0:0:
256,192,94080,1,8,0:0:0:0:
256,192,94171,1,0,0:0:0:0:
256,192,94261,1,0,0:0:0:0:
256,192,94352,1,8,0:0:0:0:
384,192,94716,1,12,0:0:0:0:
256,192,94897,1,0,0:0:0:0:
256,192,94988,1,0,0:0:0:0:
256,192,95079,1,8,0:0:0:0:
256,192,95261,1,8,0:0:0:0:
256,192,95443,1,0,0:0:0:0:
256,192,95534,1,0,0:0:0:0:
256,192,95625,1,8,0:0:0:0:
256,192,95716,1,8,0:0:0:0:
256,192,95807,1,0,0:0:0:0:
256,192,95988,1,8,0:0:0:0:
256,192,96170,1,8,0:0:0:0:
256,192,96261,1,0,0:0:0:0:
256,192,96443,1,0,0:0:0:0:
256,192,96534,1,8,0:0:0:0:
256,192,96716,1,0,0:0:0:0:
256,192,96897,1,8,0:0:0:0:
256,192,97261,1,0,0:0:0:0:
256,192,97443,1,8,0:0:0:0:
256,192,97625,1,8,0:0:0:0:
256,192,97807,1,0,0:0:0:0:
256,192,97897,1,0,0:0:0:0:
256,192,97988,1,8,0:0:0:0:
256,192,98170,1,0,0:0:0:0:
256,192,98352,1,8,0:0:0:0:
256,192,98443,1,8,0:0:0:0:
256,192,98534,1,0,0:0:0:0:
256,192,98625,1,0,0:0:0:0:
256,192,98716,1,8,0:0:0:0:
256,192,98897,1,0,0:0:0:0:
256,192,99079,1,8,0:0:0:0:
256,192,99261,1,0,0:0:0:0:
256,192,99352,1,0,0:0:0:0:
256,192,99443,1,8,0:0:0:0:
256,192,99807,1,0,0:0:0:0:
256,192,99988,1,8,0:0:0:0:
256,192,100079,1,8,0:0:0:0:
256,192,100170,1,0,0:0:0:0:
256,192,100352,1,0,0:0:0:0:
256,192,100443,1,0,0:0:0:0:
256,192,100534,1,8,0:0:0:0:
256,192,101261,1,8,0:0:0:0:
256,192,101534,1,0,0:0:0:0:
256,192,101807,1,8,0:0:0:0:
256,192,102716,1,0,0:0:0:0:
256,192,103080,1,8,0:0:0:0:
256,192,103443,1,0,0:0:0:0:
256,192,103534,1,0,0:0:0:0:
256,192,103625,1,8,0:0:0:0:
256,192,103716,1,8,0:0:0:0:
256,192,103807,1,0,0:0:0:0:
256,192,103989,1,8,0:0:0:0:
256,192,104080,1,8,0:0:0:0:
256,192,104171,1,0,0:0:0:0:
256,192,104352,1,8,0:0:0:0:
256,192,104534,1,0,0:0:0:0:
256,192,104625,1,0,0:0:0:0:
256,192,104716,1,0,0:0:0:0:
256,192,104807,1,0,0:0:0:0:
256,192,104898,1,8,0:0:0:0:
256,192,105625,1,0,0:0:0:0:
256,192,105716,1,0,0:0:0:0:
256,192,105807,1,8,0:0:0:0:
256,192,105898,1,8,0:0:0:0:
256,192,105989,1,0,0:0:0:0:
256,192,106171,1,8,0:0:0:0:
384,192,106352,1,4,0:0:0:0:
256,192,106715,1,0,0:0:0:0:
256,192,106806,1,0,0:0:0:0:
256,192,106897,1,8,0:0:0:0:
256,192,107079,1,0,0:0:0:0:
256,192,107261,1,8,0:0:0:0:
256,192,107443,1,0,0:0:0:0:
256,192,107625,1,8,0:0:0:0:
256,192,107715,1,8,0:0:0:0:
256,192,107806,1,0,0:0:0:0:
256,192,107988,1,0,0:0:0:0:
256,192,108170,1,8,0:0:0:0:
256,192,108261,1,0,0:0:0:0:
256,192,108352,1,8,0:0:0:0:
256,192,108443,1,8,0:0:0:0:
256,192,108625,1,0,0:0:0:0:
256,192,108715,1,0,0:0:0:0:
256,192,108806,1,8,0:0:0:0:
256,192,108897,1,0,0:0:0:0:
384,192,109261,1,12,0:0:0:0:
256,192,109443,1,0,0:0:0:0:
256,192,109534,1,0,0:0:0:0:
256,192,109625,1,8,0:0:0:0:
256,192,109988,1,8,0:0:0:0:
256,192,110079,1,0,0:0:0:0:
256,192,110352,1,8,0:0:0:0:
256,192,110534,1,8,0:0:0:0:
384,192,110715,1,4,0:0:0:0:
384,192,110988,1,4,0:0:0:0:
384,192,111261,1,4,0:0:0:0:
384,192,111443,1,12,0:0:0:0:
384,192,111716,1,12,0:0:0:0:
384,192,111989,1,12,0:0:0:0:
384,192,112171,1,4,0:0:0:0:
256,192,112534,1,8,0:0:0:0:
256,192,112716,1,0,0:0:0:0:
256,192,112807,1,0,0:0:0:0:
256,192,112898,1,8,0:0:0:0:
256,192,113080,1,0,0:0:0:0:
256,192,113261,1,8,0:0:0:0:
256,192,113352,1,0,0:0:0:0:
256,192,113443,1,0,0:0:0:0:
256,192,113625,1,8,0:0:0:0:
256,192,113716,1,0,0:0:0:0:
256,192,113807,1,8,0:0:0:0:
256,192,113989,1,0,0:0:0:0:
256,192,114352,1,8,0:0:0:0:
256,192,114534,1,0,0:0:0:0:
256,192,114625,1,0,0:0:0:0:
256,192,114716,1,8,0:0:0:0:
384,192,115080,1,12,0:0:0:0:
384,192,115352,1,12,0:0:0:0:
384,192,115625,1,4,0:0:0:0:
384,192,115807,1,12,0:0:0:0:
256,192,115989,1,0,0:0:0:0:
384,192,116171,1,4,0:0:0:0:
384,192,116352,1,12,0:0:0:0:
256,192,116807,1,0,0:0:0:0:
256,192,116898,1,8,0:0:0:0:
256,192,117080,1,0,0:0:0:0:
256,192,117261,1,8,0:0:0:0:
256,192,117352,1,0,0:0:0:0:
256,192,117443,1,8,0:0:0:0:
256,192,117534,1,8,0:0:0:0:
256,192,117625,1,0,0:0:0:0:
256,192,117807,1,0,0:0:0:0:
384,192,117989,1,12,0:0:0:0:
256,192,118352,1,0,0:0:0:0:
256,192,118443,1,0,0:0:0:0:
256,192,118534,1,8,0:0:0:0:
256,192,118716,1,0,0:0:0:0:
256,192,118898,1,8,0:0:0:0:
256,192,119261,1,8,0:0:0:0:
256,192,119443,1,0,0:0:0:0:
256,192,119625,1,0,0:0:0:0:
256,192,119807,1,8,0:0:0:0:
256,192,119898,1,0,0:0:0:0:
256,192,119989,1,8,0:0:0:0:
256,192,120080,1,8,0:0:0:0:
256,192,120261,1,0,0:0:0:0:
256,192,120352,1,0,0:0:0:0:
256,192,120443,1,8,0:0:0:0:
256,192,120534,1,0,0:0:0:0:
256,192,120898,1,8,0:0:0:0:
256,192,120989,1,8,0:0:0:0:
256,192,121080,1,0,0:0:0:0:
256,192,121261,1,8,0:0:0:0:
256,192,121352,1,0,0:0:0:0:
256,192,121443,1,0,0:0:0:0:
256,192,121534,1,0,0:0:0:0:
256,192,121625,1,8,0:0:0:0:
256,192,121989,1,0,0:0:0:0:
256,192,122171,1,8,0:0:0:0:
384,192,122352,1,4,0:0:0:0:
384,192,122625,1,4,0:0:0:0:
384,192,122898,1,4,0:0:0:0:
384,192,123080,1,12,0:0:0:0:
384,192,123807,1,12,0:0:0:0:
256,192,123989,1,0,0:0:0:0:
256,192,124080,1,0,0:0:0:0:
256,192,124171,1,8,0:0:0:0:
256,192,124352,1,0,0:0:0:0:
256,192,124443,1,0,0:0:0:0:
256,192,124534,1,8,0:0:0:0:
256,192,124716,1,0,0:0:0:0:
256,192,124898,1,8,0:0:0:0:
256,192,125080,1,8,0:0:0:0:
256,192,125261,1,0,0:0:0:0:
256,192,125443,1,0,0:0:0:0:
256,192,125534,1,0,0:0:0:0:
256,192,125625,1,8,0:0:0:0:
256,192,125807,1,8,0:0:0:0:
256,192,125898,1,8,0:0:0:0:
256,192,125989,1,0,0:0:0:0:
256,192,126171,1,0,0:0:0:0:
384,192,126352,1,12,0:0:0:0:
384,192,126716,1,12,0:0:0:0:
256,192,126898,1,0,0:0:0:0:
256,192,127080,1,8,0:0:0:0:
384,192,127261,1,4,0:0:0:0:
256,192,127443,1,0,0:0:0:0:
256,192,127625,1,8,0:0:0:0:
256,192,127807,1,0,0:0:0:0:
384,192,127989,1,12,0:0:0:0:
256,192,128171,1,0,0:0:0:0:
256,192,128261,1,0,0:0:0:0:
256,192,128352,1,8,0:0:0:0:
256,192,128534,1,0,0:0:0:0:
256,192,128625,1,0,0:0:0:0:
256,192,128716,1,8,0:0:0:0:
256,192,128807,1,8,0:0:0:0:
256,192,128898,1,0,0:0:0:0:
256,192,129080,1,8,0:0:0:0:
256,192,129261,1,0,0:0:0:0:
256,192,129352,1,0,0:0:0:0:
256,192,129443,1,0,0:0:0:0:
256,192,129534,1,0,0:0:0:0:
256,192,129625,1,8,0:0:0:0:
256,192,129867,1,0,0:0:0:0:
256,192,132353,1,8,0:0:0:0:
