osu file format v14

[General]
AudioFilename: audio.mp3
AudioLeadIn: 0
PreviewTime: 81534
Countdown: 0
SampleSet: Normal
StackLeniency: 0
Mode: 1
LetterboxInBreaks: 0
WidescreenStoryboard: 1

[Editor]
Bookmarks: 65625,106352
DistanceSpacing: 1
BeatDivisor: 6
GridSize: 32
TimelineZoom: 2.899999

[Metadata]
Title:Komplexe
TitleUnicode:Komplexe
Artist:Yunosuke feat. Sennzai
ArtistUnicode:雄之助 feat. Sennzai
Creator:KappuChinooo
Version:Muzukashii
Source:maimai でらっくす Splash
Tags:video game electronic Drum and n & Bass DnB Japanese Yuunosuke Metropolis Island Chihou 3 Complex Deluxe Ph0eNiiXZ PhOeNiixz
BeatmapID:2864113
BeatmapSetID:1386527

[Difficulty]
HPDrainRate:5
CircleSize:4
OverallDifficulty:5
ApproachRate:10
SliderMultiplier:1.4
SliderTickRate:1

[Events]
//Background and Video events
0,0,"65a87549cf6083c427a058628c632416c2a26e6c_s2_n1.jpg",0,20
//Break Periods
//Storyboard Layer 0 (Background)
//Storyboard Layer 1 (Fail)
//Storyboard Layer 2 (Pass)
//Storyboard Layer 3 (Foreground)
//Storyboard Layer 4 (Overlay)
//Storyboard Sound Samples

[TimingPoints]
171,363.636363636364,4,1,0,60,1,0
1621,-100,4,1,0,70,0,0
11803,-100,4,1,0,75,0,0
13257,-100,4,1,0,80,0,0
19076,-100,4,1,0,85,0,0
24898,-100,4,1,0,90,0,1
33625,-100,4,1,0,70,0,0
40894,-100,4,1,0,75,0,0
42348,-100,4,1,0,60,0,0
43803,-100,4,1,0,65,0,0
45257,-100,4,1,0,70,0,0
46712,-100,4,1,0,75,0,0
53985,-100,4,1,0,80,0,0
59803,-100,4,1,0,70,0,0
64530,-100,4,1,0,80,0,0
65625,-100,4,1,0,90,0,1
71443,-100,4,1,0,80,0,0
77257,-100,4,1,0,70,0,0
80167,-100,4,1,0,80,0,0
81621,-100,4,1,0,85,0,0
83080,-100,4,1,0,90,0,1
100534,-100,4,1,0,70,0,0
101803,-100,4,1,0,75,0,0
103439,-100,4,1,0,85,0,0
104894,-100,4,1,0,75,0,0
105621,-100,4,1,0,85,0,0
106352,-100,4,1,0,90,0,1
129625,-100,4,1,0,70,0,0
132348,-100,4,1,0,40,0,0

[HitObjects]
256,192,1261,5,8,0:0:0:0:
384,192,1625,1,4,0:0:0:0:
256,192,3807,1,8,0:0:0:0:
256,192,4534,1,0,0:0:0:0:
256,192,5989,1,0,0:0:0:0:
256,192,6352,1,0,0:0:0:0:
256,192,6716,1,8,0:0:0:0:
256,192,7080,1,8,0:0:0:0:
256,192,7443,1,0,0:0:0:0:
256,192,8898,1,8,0:0:0:0:
256,192,9625,1,0,0:0:0:0:
256,192,10352,1,0,0:0:0:0:
256,192,11080,1,8,0:0:0:0:
256,192,11807,1,0,0:0:0:0:
256,192,11898,1,0,0:0:0:0:
256,192,11989,1,0,0:0:0:0:
256,192,12171,1,8,0:0:0:0:
256,192,12352,1,0,0:0:0:0:
256,192,12534,1,8,0:0:0:0:
256,192,12625,1,8,0:0:0:0:
256,192,12716,1,8,0:0:0:0:
256,192,12898,1,8,0:0:0:0:
256,192,13080,1,0,0:0:0:0:
384,192,13261,1,12,0:0:0:0:
256,192,13534,1,0,0:0:0:0:
256,192,13807,1,8,0:0:0:0:
256,192,13989,1,8,0:0:0:0:
256,192,14261,1,0,0:0:0:0:
256,192,14534,1,0,0:0:0:0:
256,192,14716,1,8,0:0:0:0:
256,192,14989,1,8,0:0:0:0:
256,192,15261,1,0,0:0:0:0:
256,192,15443,1,8,0:0:0:0:
256,192,15989,1,0,0:0:0:0:
384,192,16171,1,12,0:0:0:0:
256,192,16444,1,0,0:0:0:0:
256,192,16717,1,8,0:0:0:0:
256,192,16899,1,8,0:0:0:0:
256,192,17171,1,0,0:0:0:0:
256,192,17443,1,8,0:0:0:0:
256,192,17625,1,0,0:0:0:0:
256,192,17989,1,0,0:0:0:0:
256,192,18080,1,0,0:0:0:0:
256,192,18171,1,0,0:0:0:0:
256,192,18352,1,8,0:0:0:0:
256,192,18716,1,0,0:0:0:0:
384,192,19080,1,12,0:0:0:0:
256,192,19261,1,0,0:0:0:0:
256,192,19443,1,0,0:0:0:0:
256,192,19625,1,0,0:0:0:0:
256,192,19807,1,8,0:0:0:0:
256,192,19989,1,8,0:0:0:0:
256,192,20171,1,0,0:0:0:0:
256,192,20352,1,8,0:0:0:0:
256,192,20534,1,0,0:0:0:0:
256,192,20625,1,0,0:0:0:0:
256,192,20716,1,0,0:0:0:0:
256,192,20898,1,8,0:0:0:0:
256,192,21080,1,0,0:0:0:0:
256,192,21171,1,0,0:0:0:0:
256,192,21261,1,0,0:0:0:0:
256,192,21443,1,0,0:0:0:0:
256,192,21625,1,8,0:0:0:0:
256,192,21716,1,8,0:0:0:0:
256,192,21807,1,8,0:0:0:0:
256,192,21989,1,0,0:0:0:0:
256,192,23443,1,8,0:0:0:0:
256,192,23564,1,8,0:0:0:0:
256,192,23686,1,8,0:0:0:0:
256,192,23807,1,8,0:0:0:0:
256,192,24171,1,8,0:0:0:0:
256,192,24352,1,0,0:0:0:0:
256,192,24443,1,0,0:0:0:0:
256,192,24534,1,0,0:0:0:0:
384,192,24898,1,12,0:0:0:0:
256,192,25261,1,0,0:0:0:0:
256,192,25352,1,0,0:0:0:0:
256,192,25443,1,0,0:0:0:0:
256,192,25625,1,0,0:0:0:0:
256,192,25807,1,8,0:0:0:0:
256,192,25989,1,0,0:0:0:0:
256,192,26171,1,8,0:0:0:0:
256,192,26352,1,0,0:0:0:0:
256,192,26716,1,8,0:0:0:0:
256,192,26898,1,8,0:0:0:0:
256,192,26989,1,8,0:0:0:0:
256,192,27080,1,8,0:0:0:0:
256,192,27261,1,0,0:0:0:0:
256,192,27443,1,0,0:0:0:0:
384,192,27716,1,12,0:0:0:0:
256,192,27989,1,0,0:0:0:0:
256,192,28171,1,8,0:0:0:0:
256,192,28534,1,0,0:0:0:0:
256,192,28898,1,0,0:0:0:0:
256,192,29080,1,0,0:0:0:0:
384,192,29261,1,12,0:0:0:0:
384,192,29534,1,12,0:0:0:0:
384,192,29807,1,12,0:0:0:0:
256,192,29989,1,0,0:0:0:0:
256,192,30171,1,0,0:0:0:0:
256,192,30352,1,8,0:0:0:0:
256,192,30534,1,8,0:0:0:0:
384,192,30716,1,4,0:0:0:0:
384,192,30989,1,4,0:0:0:0:
384,192,31261,1,4,0:0:0:0:
384,192,31534,1,4,0:0:0:0:
384,192,31807,1,4,0:0:0:0:
384,192,32171,1,12,0:0:0:0:
384,192,32443,1,12,0:0:0:0:
384,192,32716,1,12,0:0:0:0:
384,192,32989,1,12,0:0:0:0:
384,192,33261,1,12,0:0:0:0:
256,192,33625,1,0,0:0:0:0:
256,192,36171,1,0,0:0:0:0:
256,192,36352,1,8,0:0:0:0:
384,192,36534,1,4,0:0:0:0:
256,192,38716,1,8,0:0:0:0:
256,192,39080,1,0,0:0:0:0:
384,192,39443,1,12,0:0:0:0:
256,192,40898,1,8,0:0:0:0:
256,192,41080,1,0,0:0:0:0:
256,192,41171,1,0,0:0:0:0:
256,192,41261,1,0,0:0:0:0:
256,192,41443,1,0,0:0:0:0:
256,192,41625,1,8,0:0:0:0:
256,192,41989,1,0,0:0:0:0:
256,192,42080,1,0,0:0:0:0:
256,192,42171,1,0,0:0:0:0:
256,192,42352,1,8,0:0:0:0:
256,192,42716,1,8,0:0:0:0:
256,192,43080,1,0,0:0:0:0:
256,192,43807,1,8,0:0:0:0:
256,192,44171,1,0,0:0:0:0:
256,192,44534,1,8,0:0:0:0:
256,192,44898,1,0,0:0:0:0:
256,192,45080,1,0,0:0:0:0:
256,192,45261,1,8,0:0:0:0:
256,192,45989,1,8,0:0:0:0:
384,192,46716,1,12,0:0:0:0:
256,192,47443,1,0,0:0:0:0:
256,192,47534,1,0,0:0:0:0:
256,192,47625,1,0,0:0:0:0:
256,192,47807,1,8,0:0:0:0:
256,192,47989,1,0,0:0:0:0:
256,192,48171,1,8,0:0:0:0:
256,192,48534,1,8,0:0:0:0:
256,192,48716,1,0,0:0:0:0:
256,192,48807,1,0,0:0:0:0:
256,192,48898,1,0,0:0:0:0:
256,192,49080,1,0,0:0:0:0:
256,192,49261,1,8,0:0:0:0:
256,192,49625,1,8,0:0:0:0:
256,192,49807,1,0,0:0:0:0:
256,192,49989,1,8,0:0:0:0:
256,192,50171,1,0,0:0:0:0:
256,192,50261,1,0,0:0:0:0:
256,192,50352,1,0,0:0:0:0:
256,192,50534,1,0,0:0:0:0:
256,192,50716,1,8,0:0:0:0:
256,192,51080,1,8,0:0:0:0:
256,192,51261,1,0,0:0:0:0:
256,192,51443,1,8,0:0:0:0:
256,192,51625,1,8,0:0:0:0:
256,192,51716,1,8,0:0:0:0:
256,192,51807,1,8,0:0:0:0:
256,192,51989,1,0,0:0:0:0:
256,192,52171,1,8,0:0:0:0:
256,192,52534,1,8,0:0:0:0:
256,192,52716,1,0,0:0:0:0:
256,192,52898,1,8,0:0:0:0:
256,192,53080,1,0,0:0:0:0:
256,192,53171,1,0,0:0:0:0:
256,192,53261,1,0,0:0:0:0:
256,192,53625,1,8,0:0:0:0:
256,192,53807,1,0,0:0:0:0:
256,192,53989,1,8,0:0:0:0:
256,192,54352,1,8,0:0:0:0:
256,192,54716,1,8,0:0:0:0:
256,192,55080,1,8,0:0:0:0:
256,192,55443,1,0,0:0:0:0:
256,192,55807,1,0,0:0:0:0:
256,192,56171,1,8,0:0:0:0:
256,192,56534,1,8,0:0:0:0:
256,192,56716,1,0,0:0:0:0:
256,192,56807,1,0,0:0:0:0:
256,192,56898,1,0,0:0:0:0:
256,192,57625,1,0,0:0:0:0:
256,192,57989,1,8,0:0:0:0:
256,192,58080,1,8,0:0:0:0:
256,192,58171,1,8,0:0:0:0:
256,192,58352,1,0,0:0:0:0:
256,192,58443,1,0,0:0:0:0:
256,192,58534,1,0,0:0:0:0:
256,192,58716,1,0,0:0:0:0:
256,192,59080,1,8,0:0:0:0:
256,192,59443,1,0,0:0:0:0:
256,192,59625,1,0,0:0:0:0:
384,192,59807,1,12,0:0:0:0:
256,192,60898,1,0,0:0:0:0:
256,192,61261,1,8,0:0:0:0:
256,192,61989,1,0,0:0:0:0:
256,192,62352,1,8,0:0:0:0:
256,192,62716,1,0,0:0:0:0:
256,192,63807,1,0,0:0:0:0:
256,192,64171,1,8,0:0:0:0:
256,192,64534,1,0,0:0:0:0:
256,192,64625,1,0,0:0:0:0:
256,192,64716,1,0,0:0:0:0:
256,192,64898,1,0,0:0:0:0:
256,192,65080,1,8,0:0:0:0:
256,192,65171,1,8,0:0:0:0:
256,192,65261,1,8,0:0:0:0:
256,192,65443,1,0,0:0:0:0:
256,192,65625,1,8,0:0:0:0:
256,192,65989,1,8,0:0:0:0:
256,192,66171,1,8,0:0:0:0:
256,192,66352,1,0,0:0:0:0:
256,192,66443,1,0,0:0:0:0:
256,192,66534,1,0,0:0:0:0:
256,192,66716,1,8,0:0:0:0:
256,192,66898,1,8,0:0:0:0:
256,192,67080,1,0,0:0:0:0:
256,192,67443,1,0,0:0:0:0:
256,192,67625,1,0,0:0:0:0:
256,192,67807,1,8,0:0:0:0:
256,192,67989,1,8,0:0:0:0:
256,192,68080,1,8,0:0:0:0:
256,192,68171,1,8,0:0:0:0:
256,192,68352,1,0,0:0:0:0:
256,192,68534,1,8,0:0:0:0:
256,192,69080,1,0,0:0:0:0:
256,192,69261,1,8,0:0:0:0:
256,192,69443,1,0,0:0:0:0:
256,192,69534,1,0,0:0:0:0:
256,192,69625,1,0,0:0:0:0:
256,192,69807,1,8,0:0:0:0:
256,192,69989,1,0,0:0:0:0:
256,192,70352,1,8,0:0:0:0:
256,192,70534,1,8,0:0:0:0:
256,192,70716,1,0,0:0:0:0:
256,192,70807,1,0,0:0:0:0:
256,192,70898,1,0,0:0:0:0:
256,192,71080,1,8,0:0:0:0:
256,192,71171,1,8,0:0:0:0:
256,192,71261,1,8,0:0:0:0:
384,192,71443,1,4,0:0:0:0:
256,192,71807,1,8,0:0:0:0:
256,192,72171,1,0,0:0:0:0:
256,192,72534,1,8,0:0:0:0:
384,192,72716,1,4,0:0:0:0:
256,192,73261,1,0,0:0:0:0:
256,192,73625,1,8,0:0:0:0:
256,192,73807,1,8,0:0:0:0:
256,192,73989,1,0,0:0:0:0:
384,192,74352,1,4,0:0:0:0:
384,192,75080,1,4,0:0:0:0:
384,192,75807,1,4,0:0:0:0:
384,192,76534,1,12,0:0:0:0:
256,192,77261,1,0,0:0:0:0:
256,192,78716,1,8,0:0:0:0:
256,192,80171,1,0,0:0:0:0:
256,192,80261,1,0,0:0:0:0:
256,192,80352,1,0,0:0:0:0:
256,192,80534,1,8,0:0:0:0:
256,192,80716,1,0,0:0:0:0:
256,192,80807,1,0,0:0:0:0:
256,192,80898,1,0,0:0:0:0:
256,192,81080,1,8,0:0:0:0:
256,192,81261,1,0,0:0:0:0:
256,192,81352,1,0,0:0:0:0:
256,192,81443,1,0,0:0:0:0:
256,192,81625,1,8,0:0:0:0:
256,192,81989,1,8,0:0:0:0:
256,192,82352,1,8,0:0:0:0:
256,192,82534,1,0,0:0:0:0:
384,192,82716,1,12,0:0:0:0:
384,192,83080,1,4,0:0:0:0:
256,192,83261,1,8,0:0:0:0:
256,192,83352,1,8,0:0:0:0:
256,192,83443,1,8,0:0:0:0:
256,192,83625,1,0,0:0:0:0:
256,192,83807,1,8,0:0:0:0:
256,192,84080,1,0,0:0:0:0:
256,192,84352,1,8,0:0:0:0:
256,192,84534,1,0,0:0:0:0:
256,192,84625,1,0,0:0:0:0:
256,192,84807,1,8,0:0:0:0:
256,192,85080,1,0,0:0:0:0:
256,192,85261,1,8,0:0:0:0:
256,192,85807,1,0,0:0:0:0:
256,192,85989,1,8,0:0:0:0:
256,192,86171,1,0,0:0:0:0:
256,192,86261,1,0,0:0:0:0:
256,192,86352,1,0,0:0:0:0:
256,192,86534,1,8,0:0:0:0:
256,192,86716,1,0,0:0:0:0:
256,192,86898,1,8,0:0:0:0:
256,192,86989,1,8,0:0:0:0:
256,192,87080,1,8,0:0:0:0:
256,192,87261,1,0,0:0:0:0:
256,192,87443,1,8,0:0:0:0:
256,192,87807,1,8,0:0:0:0:
256,192,88171,1,0,0:0:0:0:
256,192,88352,1,8,0:0:0:0:
256,192,88534,1,0,0:0:0:0:
256,192,88898,1,0,0:0:0:0:
256,192,89080,1,0,0:0:0:0:
256,192,89261,1,8,0:0:0:0:
256,192,89624,1,0,0:0:0:0:
256,192,89715,1,0,0:0:0:0:
256,192,89898,1,8,0:0:0:0:
256,192,89989,1,8,0:0:0:0:
256,192,90171,1,0,0:0:0:0:
256,192,90716,1,0,0:0:0:0:
256,192,91080,1,8,0:0:0:0:
256,192,91261,1,0,0:0:0:0:
256,192,91352,1,0,0:0:0:0:
256,192,91443,1,0,0:0:0:0:
256,192,91625,1,8,0:0:0:0:
256,192,91807,1,0,0:0:0:0:
256,192,91989,1,0,0:0:0:0:
256,192,92171,1,8,0:0:0:0:
256,192,92534,1,8,0:0:0:0:
256,192,92716,1,0,0:0:0:0:
256,192,92807,1,0,0:0:0:0:
256,192,92989,1,8,0:0:0:0:
256,192,93080,1,8,0:0:0:0:
256,192,93261,1,0,0:0:0:0:
256,192,93443,1,8,0:0:0:0:
256,192,93534,1,8,0:0:0:0:
256,192,93625,1,8,0:0:0:0:
256,192,93807,1,0,0:0:0:0:
256,192,93989,1,0,0:0:0:0:
256,192,94080,1,0,0:0:0:0:
256,192,94171,1,0,0:0:0:0:
256,192,94352,1,8,0:0:0:0:
384,192,94716,1,12,0:0:0:0:
256,192,94897,1,0,0:0:0:0:
256,192,94988,1,0,0:0:0:0:
256,192,95079,1,0,0:0:0:0:
256,192,95261,1,8,0:0:0:0:
256,192,95443,1,0,0:0:0:0:
256,192,95716,1,8,0:0:0:0:
256,192,95988,1,8,0:0:0:0:
256,192,96170,1,0,0:0:0:0:
256,192,96261,1,0,0:0:0:0:
256,192,96443,1,8,0:0:0:0:
256,192,96716,1,0,0:0:0:0:
256,192,96897,1,8,0:0:0:0:
256,192,97443,1,0,0:0:0:0:
256,192,97625,1,8,0:0:0:0:
256,192,97807,1,0,0:0:0:0:
256,192,97897,1,0,0:0:0:0:
256,192,97988,1,0,0:0:0:0:
256,192,98170,1,8,0:0:0:0:
256,192,98352,1,0,0:0:0:0:
256,192,98534,1,8,0:0:0:0:
256,192,98625,1,8,0:0:0:0:
256,192,98716,1,8,0:0:0:0:
256,192,98897,1,0,0:0:0:0:
256,192,99079,1,8,0:0:0:0:
256,192,99443,1,8,0:0:0:0:
256,192,99807,1,0,0:0:0:0:
256,192,99988,1,8,0:0:0:0:
256,192,100170,1,0,0:0:0:0:
256,192,100261,1,0,0:0:0:0:
256,192,100352,1,0,0:0:0:0:
256,192,100534,1,0,0:0:0:0:
256,192,101261,1,8,0:0:0:0:
256,192,101534,1,0,0:0:0:0:
256,192,101807,1,8,0:0:0:0:
256,192,102716,1,8,0:0:0:0:
256,192,103080,1,8,0:0:0:0:
256,192,103443,1,0,0:0:0:0:
256,192,103625,1,0,0:0:0:0:
256,192,103716,1,0,0:0:0:0:
256,192,103807,1,0,0:0:0:0:
256,192,103989,1,8,0:0:0:0:
256,192,104171,1,0,0:0:0:0:
256,192,104352,1,8,0:0:0:0:
256,192,104443,1,8,0:0:0:0:
256,192,104534,1,8,0:0:0:0:
256,192,104716,1,0,0:0:0:0:
256,192,104898,1,8,0:0:0:0:
256,192,105625,1,0,0:0:0:0:
256,192,105807,1,8,0:0:0:0:
256,192,105898,1,8,0:0:0:0:
256,192,105989,1,8,0:0:0:0:
256,192,106171,1,0,0:0:0:0:
384,192,106352,1,12,0:0:0:0:
256,192,106716,1,0,0:0:0:0:
256,192,106807,1,0,0:0:0:0:
256,192,106898,1,0,0:0:0:0:
256,192,107080,1,0,0:0:0:0:
256,192,107261,1,8,0:0:0:0:
256,192,107443,1,0,0:0:0:0:
256,192,107625,1,8,0:0:0:0:
256,192,107807,1,0,0:0:0:0:
256,192,108171,1,8,0:0:0:0:
256,192,108352,1,8,0:0:0:0:
256,192,108443,1,8,0:0:0:0:
256,192,108534,1,8,0:0:0:0:
256,192,108716,1,0,0:0:0:0:
256,192,108898,1,0,0:0:0:0:
384,192,109261,1,12,0:0:0:0:
256,192,109625,1,8,0:0:0:0:
256,192,109989,1,0,0:0:0:0:
256,192,110352,1,0,0:0:0:0:
256,192,110534,1,8,0:0:0:0:
384,192,110716,1,4,0:0:0:0:
384,192,110989,1,4,0:0:0:0:
384,192,111261,1,4,0:0:0:0:
384,192,111443,1,12,0:0:0:0:
384,192,111716,1,12,0:0:0:0:
384,192,111989,1,12,0:0:0:0:
384,192,112171,1,4,0:0:0:0:
256,192,112534,1,8,0:0:0:0:
256,192,112625,1,8,0:0:0:0:
256,192,112716,1,8,0:0:0:0:
256,192,112898,1,0,0:0:0:0:
256,192,113080,1,0,0:0:0:0:
256,192,113261,1,8,0:0:0:0:
256,192,113625,1,0,0:0:0:0:
256,192,113716,1,0,0:0:0:0:
256,192,113807,1,0,0:0:0:0:
256,192,113989,1,8,0:0:0:0:
256,192,114171,1,0,0:0:0:0:
256,192,114352,1,8,0:0:0:0:
256,192,114716,1,0,0:0:0:0:
384,192,115080,1,12,0:0:0:0:
384,192,115352,1,12,0:0:0:0:
384,192,115625,1,12,0:0:0:0:
384,192,115807,1,4,0:0:0:0:
384,192,116171,1,4,0:0:0:0:
384,192,116352,1,12,0:0:0:0:
384,192,116898,1,12,0:0:0:0:
256,192,117261,1,0,0:0:0:0:
256,192,117352,1,0,0:0:0:0:
256,192,117443,1,0,0:0:0:0:
256,192,117625,1,8,0:0:0:0:
256,192,117716,1,8,0:0:0:0:
256,192,117807,1,8,0:0:0:0:
384,192,117989,1,4,0:0:0:0:
256,192,118352,1,0,0:0:0:0:
256,192,118443,1,0,0:0:0:0:
256,192,118534,1,0,0:0:0:0:
256,192,118716,1,0,0:0:0:0:
256,192,118898,1,8,0:0:0:0:
256,192,119080,1,0,0:0:0:0:
256,192,119261,1,8,0:0:0:0:
256,192,119443,1,0,0:0:0:0:
256,192,119807,1,8,0:0:0:0:
256,192,119989,1,8,0:0:0:0:
256,192,120080,1,8,0:0:0:0:
256,192,120171,1,8,0:0:0:0:
256,192,120352,1,0,0:0:0:0:
256,192,120534,1,0,0:0:0:0:
256,192,120898,1,8,0:0:0:0:
256,192,120989,1,8,0:0:0:0:
256,192,121080,1,8,0:0:0:0:
256,192,121261,1,0,0:0:0:0:
256,192,121352,1,0,0:0:0:0:
256,192,121443,1,0,0:0:0:0:
256,192,121625,1,8,0:0:0:0:
256,192,122171,1,0,0:0:0:0:
384,192,122352,1,12,0:0:0:0:
384,192,122625,1,12,0:0:0:0:
384,192,122898,1,12,0:0:0:0:
384,192,123080,1,4,0:0:0:0:
384,192,123807,1,12,0:0:0:0:
256,192,124171,1,0,0:0:0:0:
256,192,124261,1,0,0:0:0:0:
256,192,124352,1,0,0:0:0:0:
256,192,124534,1,8,0:0:0:0:
256,192,124716,1,0,0:0:0:0:
256,192,124898,1,8,0:0:0:0:
256,192,125261,1,0,0:0:0:0:
256,192,125352,1,0,0:0:0:0:
256,192,125443,1,0,0:0:0:0:
256,192,125625,1,8,0:0:0:0:
256,192,125989,1,8,0:0:0:0:
256,192,126080,1,8,0:0:0:0:
256,192,126171,1,8,0:0:0:0:
384,192,126352,1,12,0:0:0:0:
384,192,126716,1,12,0:0:0:0:
384,192,127261,1,4,0:0:0:0:
384,192,127989,1,12,0:0:0:0:
256,192,128171,1,0,0:0:0:0:
256,192,128352,1,8,0:0:0:0:
256,192,128534,1,8,0:0:0:0:
256,192,128625,1,8,0:0:0:0:
256,192,128716,1,8,0:0:0:0:
256,192,128898,1,0,0:0:0:0:
256,192,129080,1,8,0:0:0:0:
256,192,129261,1,0,0:0:0:0:
256,192,129352,1,0,0:0:0:0:
256,192,129443,1,0,0:0:0:0:
256,192,129625,1,8,0:0:0:0:
256,192,132352,1,8,0:0:0:0:
