osu file format v14

[General]
AudioFilename: audio.mp3
AudioLeadIn: 0
PreviewTime: 81534
Countdown: 0
SampleSet: Normal
StackLeniency: 0
Mode: 1
LetterboxInBreaks: 0
WidescreenStoryboard: 0

[Editor]
Bookmarks: 65625,106352
DistanceSpacing: 1
BeatDivisor: 6
GridSize: 32
TimelineZoom: 3.399999

[Metadata]
Title:Komplexe
TitleUnicode:Komplexe
Artist:Yunosuke feat. Sennzai
ArtistUnicode:雄之助 feat. Sennzai
Creator:KappuChinooo
Version:Multiplex Revolution
Source:maimai でらっくす Splash
Tags:video game electronic Drum and n & Bass DnB Japanese Yuunosuke Metropolis Island Chihou 3 Complex Deluxe Ph0eNiiXZ PhOeNiixz
BeatmapID:2864112
BeatmapSetID:1386527

[Difficulty]
HPDrainRate:5
CircleSize:4
OverallDifficulty:6.5
ApproachRate:10
SliderMultiplier:1.4
SliderTickRate:1

[Events]
//Background and Video events
0,0,"65a87549cf6083c427a058628c632416c2a26e6c_s2_n1.jpg",0,20
//Break Periods
//Storyboard Layer 0 (Background)
//Storyboard Layer 1 (Fail)
//Storyboard Layer 2 (Pass)
//Storyboard Layer 3 (Foreground)
//Storyboard Layer 4 (Overlay)
//Storyboard Sound Samples

[TimingPoints]
171,363.636363636364,4,1,0,60,1,0
171,-142.857142857143,4,1,0,60,0,0
1621,-125,4,1,0,70,0,0
11803,-83.3333333333333,4,1,0,70,0,0
11863,-83.9137366786943,4,1,0,70,0,0
11924,-84.5094228006423,4,1,0,70,0,0
11985,-85.1063829787234,4,1,0,70,0,0
12076,-86.0215053763441,4,1,0,70,0,0
12167,-86.9565217391304,4,1,0,70,0,0
12227,-87.5886835420863,4,1,0,70,0,0
12288,-88.2378893496867,4,1,0,70,0,0
12348,-88.8888888888889,4,1,0,70,0,0
12439,-89.8876404494382,4,1,0,70,0,0
12530,-90.9090909090909,4,1,0,70,0,0
12621,-91.9540229885057,4,1,0,70,0,0
12712,-93.0232558139535,4,1,0,70,0,0
12803,-94.1176470588235,4,1,0,70,0,0
12894,-95.2380952380952,4,1,0,70,0,0
12985,-96.3855421686747,4,1,0,70,0,0
13076,-97.5609756097561,4,1,0,70,0,0
13167,-98.7654320987654,4,1,0,70,0,0
13257,-100,4,1,0,80,0,0
15439,-95.2380952380952,4,1,0,80,0,0
15621,-97.5609756097561,4,1,0,80,0,0
15803,-100,4,1,0,80,0,0
18348,-95.2380952380952,4,1,0,80,0,0
18530,-97.5609756097561,4,1,0,80,0,0
18712,-100,4,1,0,80,0,0
18803,-102.564102564103,4,1,0,80,0,0
18894,-105.263157894737,4,1,0,80,0,0
19076,-111.111111111111,4,1,0,85,0,0
19257,-109.58904109589,4,1,0,85,0,0
19439,-108.108108108108,4,1,0,85,0,0
19621,-106.666666666667,4,1,0,85,0,0
19803,-105.263157894737,4,1,0,85,0,0
19985,-103.896103896104,4,1,0,85,0,0
20167,-102.564102564103,4,1,0,85,0,0
20348,-101.26582278481,4,1,0,85,0,0
20530,-111.111111111111,4,1,0,85,0,0
20621,-108.123303815671,4,1,0,85,0,0
20712,-105.29186378181,4,1,0,85,0,0
20803,-102.605039343902,4,1,0,85,0,0
20894,-100.051826846306,4,1,0,85,0,0
20985,-97.6226921995564,4,1,0,85,0,0
21076,-95.3086236195737,4,1,0,85,0,0
21167,-93.1018077578012,4,1,0,85,0,0
21257,-90.9947914581369,4,1,0,85,0,0
21348,-88.9811128689824,4,1,0,85,0,0
21439,-87.0545527354717,4,1,0,85,0,0
21530,-85.2097224293292,4,1,0,85,0,0
21621,-83.441389933297,4,1,0,85,0,0
21682,-82.3027655375276,4,1,0,85,0,0
21742,-81.1947976869226,4,1,0,85,0,0
21803,-80.1162005372592,4,1,0,85,0,0
21863,-79.0659465340256,4,1,0,85,0,0
21924,-78.0428720713437,4,1,0,85,0,0
21985,-76.9230769230769,4,1,0,65,0,0
23439,-76.9230769230769,4,1,0,85,0,0
23560,-78.9259753277401,4,1,0,85,0,0
23682,-81.035898092496,4,1,0,85,0,0
23803,-83.2617975722525,4,1,0,85,0,0
23924,-85.6134330901056,4,1,0,85,0,0
24045,-88.1016904952372,4,1,0,85,0,0
24167,-90.7952666611584,4,1,0,85,0,0
24212,-91.8302316142102,4,1,0,85,0,0
24257,-92.8891498041897,4,1,0,85,0,0
24348,-95.0819796828826,4,1,0,85,0,0
24439,-97.3807499681078,4,1,0,85,0,0
24530,-99.7935271922393,4,1,0,85,0,0
24898,-76.8008454237064,4,1,0,90,0,1
25257,-83.3333333333333,4,1,0,90,0,1
25318,-84.4827921224865,4,1,0,90,0,1
25379,-85.6643311714512,4,1,0,90,0,1
25439,-86.8794634324339,4,1,0,90,0,1
25530,-88.7680853877967,4,1,0,90,0,1
25621,-90.7407256172865,4,1,0,90,0,1
25803,-86.9565217391304,4,1,0,90,0,1
25985,-90.7384201896614,4,1,0,90,0,1
26167,-83.3333333333333,4,1,0,90,0,1
26348,-80,4,1,0,90,0,1
26712,-76.9230769230769,4,1,0,90,0,1
26803,-78.4313725490196,4,1,0,90,0,1
26894,-80,4,1,0,90,0,1
26985,-81.6326530612245,4,1,0,90,0,1
27076,-83.3333333333333,4,1,0,90,0,1
27167,-85.1063829787234,4,1,0,90,0,1
27257,-86.9565217391304,4,1,0,90,0,1
27348,-88.8888888888889,4,1,0,90,0,1
27439,-90.9090909090909,4,1,0,90,0,1
27712,-76.8008454237064,4,1,0,90,0,1
27803,-83.189900080611,4,1,0,90,0,1
27985,-80,4,1,0,90,0,1
28076,-81.6326530612245,4,1,0,90,0,1
28167,-83.3333333333333,4,1,0,90,0,1
28212,-84.2105263157895,4,1,0,90,0,1
28257,-85.1063829787234,4,1,0,90,0,1
28530,-80,4,1,0,90,0,1
28591,-81.058757061231,4,1,0,90,0,1
28651,-82.1458466649197,4,1,0,90,0,1
28712,-83.2625601571997,4,1,0,90,0,1
28803,-84.9956354741184,4,1,0,90,0,1
28894,-86.8024662316706,4,1,0,90,0,1
29076,-83.3333333333333,4,1,0,90,0,1
29167,-80,4,1,0,90,0,1
29257,-76.9230769230769,4,1,0,90,0,1
29985,-80,4,1,0,90,0,1
30076,-81.6326530612245,4,1,0,90,0,1
30167,-83.3333333333333,4,1,0,90,0,1
30257,-85.1063829787234,4,1,0,90,0,1
30348,-86.9565217391304,4,1,0,90,0,1
30439,-88.8888888888889,4,1,0,90,0,1
30530,-90.9090909090909,4,1,0,90,0,1
30621,-93.0232558139535,4,1,0,90,0,1
30712,-86.9565217391304,4,1,0,90,0,1
30989,-85.1063829787234,4,1,0,90,0,1
31261,-83.3333333333333,4,1,0,90,0,1
31534,-81.6326530612245,4,1,0,90,0,1
31807,-80,4,1,0,90,0,1
32080,-78.4313725490196,4,1,0,90,0,1
32167,-74.0740740740741,4,1,0,90,0,1
32443,-72.7272727272727,4,1,0,90,0,1
32716,-71.4285714285714,4,1,0,90,0,1
32989,-70.1754385964912,4,1,0,90,0,1
33261,-68.9655172413793,4,1,0,90,0,1
33530,-80,4,1,0,70,0,1
33625,-81.6326530612245,4,1,0,70,0,0
33712,-83.3333333333333,4,1,0,70,0,0
33803,-85.1063829787234,4,1,0,70,0,0
33894,-86.9565217391304,4,1,0,70,0,0
34348,-83.3333333333333,4,1,0,70,0,0
34470,-84.5029242236928,4,1,0,70,0,0
34591,-85.7058130824781,4,1,0,70,0,0
34712,-86.9434424212705,4,1,0,70,0,0
34833,-88.217339294473,4,1,0,70,0,0
34954,-89.5291215850236,4,1,0,70,0,0
35076,-90.8805048593806,4,1,0,70,0,0
35136,-91.5715695916457,4,1,0,70,0,0
35197,-92.2733098528518,4,1,0,70,0,0
35318,-93.7094706539422,4,1,0,70,0,0
35439,-95.1910436650836,4,1,0,70,0,0
35500,-95.9494921873126,4,1,0,70,0,0
35560,-96.7202174270488,4,1,0,70,0,0
35621,-97.5033297387106,4,1,0,70,0,0
35682,-98.299323405757,4,1,0,70,0,0
35803,-99.9308478532855,4,1,0,70,0,0
35894,-101.190506306698,4,1,0,70,0,0
35985,-102.482221896556,4,1,0,70,0,0
36076,-103.807449637816,4,1,0,70,0,0
36167,-105.167400209283,4,1,0,70,0,0
36257,-106.563456407021,4,1,0,70,0,0
36348,-107.99695880564,4,1,0,70,0,0
36439,-109.469674163515,4,1,0,70,0,0
36530,-90.8233866587711,4,1,0,70,0,0
37257,-110.98311059023,4,1,0,70,0,0
39439,-90.8233866587711,4,1,0,70,0,0
40167,-110.98311059023,4,1,0,70,0,0
40894,-100,4,1,0,75,0,0
40954,-100.840302238554,4,1,0,75,0,0
41015,-101.694949727102,4,1,0,75,0,0
41076,-102.564102564103,4,1,0,75,0,0
41167,-103.896103896104,4,1,0,75,0,0
41257,-105.263157894737,4,1,0,75,0,0
41318,-106.194652674459,4,1,0,75,0,0
41379,-107.142895408177,4,1,0,75,0,0
41439,-108.108108108108,4,1,0,75,0,0
41530,-109.58904109589,4,1,0,75,0,0
41621,-99.9999999999999,4,1,0,75,0,0
41985,-117.647058823529,4,1,0,75,0,0
42076,-119.402985074627,4,1,0,75,0,0
42167,-121.212121212121,4,1,0,75,0,0
42257,-123.076923076923,4,1,0,75,0,0
42348,-125,4,1,0,60,0,0
42712,-123.080255711539,4,1,0,60,0,0
43076,-121.218439264107,4,1,0,60,0,0
43348,-119.858806326148,4,1,0,60,0,0
43803,-117.659101578632,4,1,0,65,0,0
44167,-115.956548762048,4,1,0,65,0,0
44439,-114.711786636077,4,1,0,65,0,0
44530,-114.302696400608,4,1,0,65,0,0
44894,-112.695357402056,4,1,0,65,0,0
44985,-112.30049816501,4,1,0,65,0,0
45076,-111.908396263155,4,1,0,65,0,0
45167,-111.519147279992,4,1,0,65,0,0
45257,-111.132473242079,4,1,0,70,0,0
45621,-109.612465129535,4,1,0,70,0,0
45985,-108.133475636987,4,1,0,70,0,0
46257,-107.050105872555,4,1,0,70,0,0
46439,-106.339877134906,4,1,0,70,0,0
46530,-105.988228947293,4,1,0,70,0,0
46712,-105.291974645693,4,1,0,75,0,0
47439,-90.9090909090909,4,1,0,75,0,0
47530,-91.9431166326017,4,1,0,75,0,0
47621,-93.000935589412,4,1,0,75,0,0
47712,-94.0833785717579,4,1,0,75,0,0
47803,-95.1914061198555,4,1,0,75,0,0
47894,-96.3257505702484,4,1,0,75,0,0
47985,-97.4874558016247,4,1,0,75,0,0
48076,-98.6775238256881,4,1,0,75,0,0
48167,-99.8970061866216,4,1,0,75,0,0
52894,-100,4,1,0,75,0,0
53076,-102.546012395762,4,1,0,75,0,0
53167,-103.86815392014,4,1,0,75,0,0
53257,-105.224944625373,4,1,0,75,0,0
53348,-106.61765097859,4,1,0,75,0,0
53439,-108.047718194263,4,1,0,75,0,0
53500,-109.022601475512,4,1,0,75,0,0
53560,-110.015116076949,4,1,0,75,0,0
53621,-111.025991184536,4,1,0,75,0,0
53712,-112.577622270556,4,1,0,75,0,0
53803,-114.173237336475,4,1,0,75,0,0
53894,-115.814733487135,4,1,0,75,0,0
53985,-117.647058823529,4,1,0,80,0,0
54167,-115.942028985507,4,1,0,80,0,0
54348,-114.285714285714,4,1,0,80,0,0
54530,-112.676056338028,4,1,0,80,0,0
54712,-111.111111111111,4,1,0,80,0,0
54894,-109.58904109589,4,1,0,80,0,0
55076,-108.108108108108,4,1,0,80,0,0
55257,-106.666666666667,4,1,0,80,0,0
55439,-105.263157894737,4,1,0,80,0,0
55621,-103.896103896104,4,1,0,80,0,0
55803,-102.564102564103,4,1,0,80,0,0
55985,-101.26582278481,4,1,0,80,0,0
56167,-100,4,1,0,80,0,0
56348,-98.7654320987654,4,1,0,80,0,0
56530,-97.5609756097561,4,1,0,80,0,0
56712,-96.3855421686747,4,1,0,80,0,0
56773,-94.3396226415094,4,1,0,80,0,0
56833,-92.3076923079763,4,1,0,80,0,0
56894,-90.9090909090909,4,1,0,80,0,0
57621,-95.2380952380952,4,1,0,80,0,0
57985,-90.9090909090909,4,1,0,80,0,0
58076,-93.0232558139535,4,1,0,80,0,0
58167,-95.2380952380952,4,1,0,80,0,0
58257,-97.5609756097561,4,1,0,80,0,0
58348,-100,4,1,0,80,0,0
58439,-102.564102564103,4,1,0,80,0,0
58530,-105.263157894737,4,1,0,80,0,0
58621,-108.108108108108,4,1,0,80,0,0
58712,-111.111111111111,4,1,0,80,0,0
59439,-99.9999999999999,4,1,0,80,0,0
59621,-105.263157894737,4,1,0,80,0,0
59803,-111.111111111111,4,1,0,70,0,0
61280,-109.58904109589,4,1,0,70,0,0
61621,-111.111111111111,4,1,0,70,0,0
64169,-111.111111111111,4,1,0,70,0,0
64193,-109.58904109589,4,1,0,70,0,0
64530,-86.9565217391304,4,1,0,80,0,0
64621,-87.9054418742847,4,1,0,80,0,0
64712,-88.8753008428934,4,1,0,80,0,0
64803,-89.8667186695412,4,1,0,80,0,0
64894,-90.8805874521173,4,1,0,80,0,0
64985,-91.9175940385925,4,1,0,80,0,0
65076,-92.9785396232696,4,1,0,80,0,0
65167,-94.0642628230755,4,1,0,80,0,0
65257,-95.1755513043809,4,1,0,80,0,0
65348,-96.3135043090662,4,1,0,80,0,0
65439,-97.4789981498486,4,1,0,80,0,0
65530,-98.6730448922885,4,1,0,80,0,0
65625,-99.8967068051635,4,1,0,90,0,1
65803,-95.2380952380954,4,1,0,90,0,1
65985,-90.7358678885764,4,1,0,90,0,1
66348,-95.2380952380952,4,1,0,90,0,1
66530,-97.5609756097561,4,1,0,90,0,1
66621,-96.3855421686747,4,1,0,90,0,1
66712,-95.2380952380952,4,1,0,90,0,1
66803,-94.1176470588235,4,1,0,90,0,1
66894,-93.0232558139535,4,1,0,90,0,1
67076,-90.7358678885764,4,1,0,90,0,1
67439,-95.2380952380952,4,1,0,90,0,1
67530,-96.3855421686747,4,1,0,90,0,1
67621,-97.5609756097561,4,1,0,90,0,1
67803,-95.2380952380952,4,1,0,90,0,1
67894,-94.1176470588235,4,1,0,90,0,1
67985,-93.0232558139535,4,1,0,90,0,1
68076,-91.9540229885057,4,1,0,90,0,1
68167,-90.9090909090909,4,1,0,90,0,1
68530,-95.2380952380952,4,1,0,90,0,1
68712,-93.0232558139535,4,1,0,90,0,1
68803,-91.9540229885057,4,1,0,90,0,1
68894,-90.9090909090909,4,1,0,90,0,1
69257,-95.2380952380952,4,1,0,90,0,1
69348,-96.3855421686747,4,1,0,90,0,1
69439,-97.5609756097561,4,1,0,90,0,1
69621,-95.2380952380952,4,1,0,90,0,1
69712,-94.1176470588235,4,1,0,90,0,1
69803,-93.0232558139535,4,1,0,90,0,1
69894,-91.9540229885057,4,1,0,90,0,1
69985,-90.9090909090909,4,1,0,90,0,1
70348,-95.2380952380952,4,1,0,90,0,1
70409,-95.9877135726627,4,1,0,90,0,1
70470,-96.7585873246251,4,1,0,90,0,1
70530,-97.5324295328196,4,1,0,90,0,1
70591,-98.3284169124877,4,1,0,90,0,1
70651,-99.1276764472641,4,1,0,90,0,1
70712,-100,4,1,0,90,0,1
70803,-97.5609756097561,4,1,0,90,0,1
70894,-95.2380952380952,4,1,0,90,0,1
70985,-93.0232558139535,4,1,0,90,0,1
71076,-90.9090909090909,4,1,0,90,0,1
71167,-88.8888888888889,4,1,0,90,0,1
71257,-86.9565217391304,4,1,0,90,0,1
71348,-85.1063829787234,4,1,0,90,0,1
71443,-83.3333333333333,4,1,0,80,0,0
71803,-100,4,1,0,80,0,0
72167,-97.5609756097561,4,1,0,80,0,0
72348,-95.2380952380952,4,1,0,80,0,0
72530,-93.0232558139535,4,1,0,80,0,0
72712,-83.3333333333333,4,1,0,80,0,0
72894,-111.111111111111,4,1,0,80,0,0
73257,-105.263157894737,4,1,0,80,0,0
73439,-102.585882336045,4,1,0,80,0,0
73500,-101.723397805623,4,1,0,80,0,0
73560,-100.875396692497,4,1,0,80,0,0
73621,-100.041317063947,4,1,0,80,0,0
73803,-97.6200238192858,4,1,0,80,0,0
73985,-95.3130748569827,4,1,0,80,0,0
74167,-93.1127306518729,4,1,0,80,0,0
74348,-83.3333333333333,4,1,0,80,0,0
77257,-111.111111111111,4,1,0,70,0,0
80167,-111.111111111111,4,1,0,70,0,0
80257,-108.499292042119,4,1,0,70,0,0
80348,-106.007329346751,4,1,0,70,0,0
80439,-103.627372548695,4,1,0,70,0,0
80530,-101.351933440158,4,1,0,70,0,0
80621,-99.0169596248445,4,1,0,70,0,0
80712,-96.7871505378946,4,1,0,70,0,0
80803,-94.6556474872238,4,1,0,70,0,0
80894,-92.4498944684455,4,1,0,70,0,0
80985,-90.2767433567602,4,1,0,70,0,0
81076,-88.2033333803751,4,1,0,70,0,0
81167,-86.2231005482065,4,1,0,70,0,0
81257,-84.3298308343593,4,1,0,70,0,0
81348,-82.3871172912434,4,1,0,70,0,0
81439,-80.5318322199807,4,1,0,70,0,0
81530,-78.7583277086761,4,1,0,70,0,0
81621,-76.9230769230769,4,1,0,85,0,0
81682,-78.4313725490196,4,1,0,85,0,0
81742,-80,4,1,0,85,0,0
81863,-83.3333333333333,4,1,0,85,0,0
81985,-76.9230769230769,4,1,0,85,0,0
82045,-78.4313725490196,4,1,0,85,0,0
82106,-80,4,1,0,85,0,0
82227,-83.3333333333333,4,1,0,85,0,0
82348,-76.9230769230769,4,1,0,85,0,0
82439,-78.9473684210526,4,1,0,85,0,0
82530,-81.0810810810811,4,1,0,85,0,0
82621,-83.3333333333333,4,1,0,85,0,0
82712,-76.9230769230769,4,1,0,85,0,0
83080,-76.9230769230769,4,1,0,90,0,1
83257,-80,4,1,0,90,0,1
94712,-76.9230769230769,4,1,0,90,0,1
94894,-80,4,1,0,90,0,1
100534,-80,4,1,0,70,0,0
101257,-100,4,1,0,70,0,0
101803,-100,4,1,0,75,0,0
103439,-111.111111111111,4,1,0,70,0,0
103529,-108.499292042119,4,1,0,70,0,0
103620,-106.007329346751,4,1,0,70,0,0
103711,-103.627372548695,4,1,0,70,0,0
103802,-101.351933440158,4,1,0,70,0,0
103893,-99.0169596248445,4,1,0,70,0,0
103984,-96.7871505378946,4,1,0,70,0,0
104075,-94.6556474872238,4,1,0,70,0,0
104166,-92.4498944684455,4,1,0,70,0,0
104257,-90.2767433567602,4,1,0,70,0,0
104348,-88.2033333803751,4,1,0,70,0,0
104439,-86.2231005482065,4,1,0,70,0,0
104529,-84.3298308343593,4,1,0,70,0,0
104620,-82.3871172912434,4,1,0,70,0,0
104711,-80.5318322199807,4,1,0,70,0,0
104802,-78.7583277086761,4,1,0,70,0,0
104894,-76.9230769230769,4,1,0,75,0,0
104954,-77.4193348595265,4,1,0,75,0,0
105015,-77.9220981615839,4,1,0,75,0,0
105076,-78.4313725490196,4,1,0,75,0,0
105167,-79.2079207920792,4,1,0,75,0,0
105257,-80,4,1,0,75,0,0
105318,-80.5368911310359,4,1,0,75,0,0
105379,-81.0811029948927,4,1,0,75,0,0
105439,-81.6326530612245,4,1,0,75,0,0
105530,-82.4742268041237,4,1,0,75,0,0
105621,-83.3333333333333,4,1,0,85,0,0
105712,-84.2105263157895,4,1,0,85,0,0
105803,-85.1063829787234,4,1,0,85,0,0
105894,-86.0215053763441,4,1,0,85,0,0
105985,-86.9565217391304,4,1,0,85,0,0
106076,-87.9120879120879,4,1,0,85,0,0
106167,-88.8888888888889,4,1,0,85,0,0
106257,-89.8876404494382,4,1,0,85,0,0
106352,-76.8008454237064,4,1,0,90,0,1
106711,-83.3333333333333,4,1,0,90,0,1
106772,-84.4827921224865,4,1,0,90,0,1
106833,-85.6643311714512,4,1,0,90,0,1
106893,-86.8794634324339,4,1,0,90,0,1
106984,-88.7680853877967,4,1,0,90,0,1
107075,-90.7407256172865,4,1,0,90,0,1
107257,-86.9565217391304,4,1,0,90,0,1
107439,-90.7384201896614,4,1,0,90,0,1
107621,-83.3333333333333,4,1,0,90,0,1
107802,-80,4,1,0,90,0,1
108166,-76.9230769230769,4,1,0,90,0,1
108257,-78.4313725490196,4,1,0,90,0,1
108348,-80,4,1,0,90,0,1
108439,-81.6326530612245,4,1,0,90,0,1
108530,-83.3333333333333,4,1,0,90,0,1
108621,-85.1063829787234,4,1,0,90,0,1
108711,-86.9565217391304,4,1,0,90,0,1
108802,-88.8888888888889,4,1,0,90,0,1
108893,-90.9090909090909,4,1,0,90,0,1
109257,-76.8008454237064,4,1,0,90,0,1
109621,-86.9565217391304,4,1,0,90,0,1
109667,-87.9120879120879,4,1,0,90,0,1
109712,-88.8888888888889,4,1,0,90,0,1
109985,-86.9565217391304,4,1,0,90,0,1
110030,-87.9120879120879,4,1,0,90,0,1
110076,-88.8888888888889,4,1,0,90,0,1
110348,-83.3333333333333,4,1,0,90,0,1
110530,-86.9565217391304,4,1,0,90,0,1
110621,-83.3333333333333,4,1,0,90,0,1
110712,-80,4,1,0,90,0,1
111439,-80,4,1,0,90,0,1
111530,-78.4313725490196,4,1,0,90,0,1
111712,-80,4,1,0,90,0,1
111803,-78.4313725490196,4,1,0,90,0,1
111985,-80,4,1,0,90,0,1
112076,-78.4313725490196,4,1,0,90,0,1
112167,-76.9230769230769,4,1,0,90,0,1
112530,-83.3333333333333,4,1,0,90,0,1
112591,-85.6164383561644,4,1,0,90,0,1
112651,-88.0281690140845,4,1,0,90,0,1
112712,-90.5797101449275,4,1,0,90,0,1
112894,-83.3333333333333,4,1,0,90,0,1
112954,-85.6164383561644,4,1,0,90,0,1
113015,-88.0281690140845,4,1,0,90,0,1
113076,-90.5797101449275,4,1,0,90,0,1
113257,-86.9565217391304,4,1,0,90,0,1
113318,-84.6023688663283,4,1,0,90,0,1
113379,-82.3723228995058,4,1,0,90,0,1
113439,-80.2568218298555,4,1,0,90,0,1
113621,-83.3333333333333,4,1,0,90,0,1
113682,-84.5070422535211,4,1,0,90,0,1
113742,-85.7142857142857,4,1,0,90,0,1
113803,-86.9565217391304,4,1,0,90,0,1
113894,-88.8888888888889,4,1,0,90,0,1
113985,-90.9090909090909,4,1,0,90,0,1
114348,-86.9565217391304,4,1,0,90,0,1
114530,-90.9090909090909,4,1,0,90,0,1
114621,-88.8888888888889,4,1,0,90,0,1
114712,-86.9565217391304,4,1,0,90,0,1
114894,-83.3333333333333,4,1,0,90,0,1
115076,-80,4,1,0,90,0,1
115985,-83.3333333333333,4,1,0,90,0,1
116167,-76.9230769230769,4,1,0,90,0,1
116530,-83.3333333333333,4,1,0,90,0,1
116773,-80,4,1,0,90,0,1
116833,-78.4313725490196,4,1,0,90,0,1
116894,-76.9230769230769,4,1,0,90,0,1
117076,-80,4,1,0,90,0,1
117167,-81.6326530612245,4,1,0,90,0,1
117257,-83.3333333333333,4,1,0,90,0,1
117348,-85.1063829787234,4,1,0,90,0,1
117439,-86.9565217391304,4,1,0,90,0,1
117530,-88.8888888888889,4,1,0,90,0,1
117621,-90.9090909090909,4,1,0,90,0,1
117712,-93.0232558139535,4,1,0,90,0,1
117803,-95.2380952380952,4,1,0,90,0,1
117894,-97.5609756097561,4,1,0,90,0,1
117985,-76.8008454237064,4,1,0,90,0,1
118348,-83.3333333333333,4,1,0,90,0,1
118409,-84.4827921224865,4,1,0,90,0,1
118470,-85.6643311714512,4,1,0,90,0,1
118530,-86.8794634324339,4,1,0,90,0,1
118621,-88.7680853877967,4,1,0,90,0,1
118712,-90.7407256172865,4,1,0,90,0,1
118894,-86.9565217391304,4,1,0,90,0,1
119076,-90.7384201896614,4,1,0,90,0,1
119258,-83.3333333333333,4,1,0,90,0,1
119439,-80,4,1,0,90,0,1
119803,-76.9230769230769,4,1,0,90,0,1
119894,-78.4313725490196,4,1,0,90,0,1
119985,-80,4,1,0,90,0,1
120076,-81.6326530612245,4,1,0,90,0,1
120167,-83.3333333333333,4,1,0,90,0,1
120258,-85.1063829787234,4,1,0,90,0,1
120348,-86.9565217391304,4,1,0,90,0,1
120439,-88.8888888888889,4,1,0,90,0,1
120530,-90.9090909090909,4,1,0,90,0,1
120894,-76.9230769230769,4,1,0,90,0,1
120954,-77.9220981615839,4,1,0,90,0,1
121015,-78.9473476454348,4,1,0,90,0,1
121076,-80,4,1,0,90,0,1
121167,-81.6326530612245,4,1,0,90,0,1
121258,-83.3333333333333,4,1,0,90,0,1
121318,-84.5070660583285,4,1,0,90,0,1
121379,-85.7142612244968,4,1,0,90,0,1
121439,-86.9565217391304,4,1,0,90,0,1
121530,-88.8888888888889,4,1,0,90,0,1
121621,-76.9230769230769,4,1,0,90,0,1
121644,-75.4716981132076,4,1,0,90,0,1
121985,-83.3333333333333,4,1,0,90,0,1
122167,-80,4,1,0,90,0,1
122257,-78.4313725490196,4,1,0,90,0,1
122348,-76.9230769230769,4,1,0,90,0,1
123076,-80,4,1,0,90,0,1
123167,-81.6326530612245,4,1,0,90,0,1
123258,-83.3333333333333,4,1,0,90,0,1
123348,-85.1063829787234,4,1,0,90,0,1
123439,-86.9565217391304,4,1,0,90,0,1
123530,-88.8888888888889,4,1,0,90,0,1
123621,-90.9090909090909,4,1,0,90,0,1
123712,-93.0232558139535,4,1,0,90,0,1
123803,-76.9230769230769,4,1,0,90,0,1
124167,-90.9090909090909,4,1,0,90,0,1
124227,-89.5522120739665,4,1,0,90,0,1
124288,-88.2353200692118,4,1,0,90,0,1
124348,-86.9565217391304,4,1,0,90,0,1
124439,-85.1063829787234,4,1,0,90,0,1
124530,-83.3333333333333,4,1,0,90,0,1
124591,-82.1917583036279,4,1,0,90,0,1
124651,-81.0811029948927,4,1,0,90,0,1
124712,-80,4,1,0,90,0,1
124803,-78.4313725490196,4,1,0,90,0,1
124894,-76.9230769230769,4,1,0,90,0,1
125076,-80,4,1,0,90,0,1
125167,-78.4313725490196,4,1,0,90,0,1
125257,-76.9230769230769,4,1,0,90,0,1
125318,-77.9014593280376,4,1,0,90,0,1
125379,-78.904988136635,4,1,0,90,0,1
125439,-79.9347732250484,4,1,0,90,0,1
125530,-81.5307562548358,4,1,0,90,0,1
125621,-83.3333333333333,4,1,0,90,0,1
125712,-85.1063829787234,4,1,0,90,0,1
125803,-86.8055555555556,4,1,0,90,0,1
125985,-81.6326530612245,4,1,0,90,0,1
126348,-76.9230769230769,4,1,0,90,0,1
126409,-77.9014593280376,4,1,0,90,0,1
126470,-78.904988136635,4,1,0,90,0,1
126530,-79.9347732250484,4,1,0,90,0,1
126621,-81.5307562548358,4,1,0,90,0,1
126712,-76.8024970027826,4,1,0,90,0,1
126894,-83.1918378824017,4,1,0,90,0,1
127076,-85.1063829787234,4,1,0,90,0,1
127257,-78.4313725490196,4,1,0,90,0,1
127439,-85.1063829787234,4,1,0,90,0,1
127621,-86.9565217391304,4,1,0,90,0,1
127803,-88.8888888888889,4,1,0,90,0,1
127985,-81.6326530612245,4,1,0,90,0,1
128167,-90.9090909090909,4,1,0,90,0,1
128257,-88.8888888888889,4,1,0,90,0,1
128348,-86.9565217391304,4,1,0,90,0,1
128439,-85.1063829787234,4,1,0,90,0,1
128530,-83.3333333333333,4,1,0,90,0,1
128621,-81.6326530612245,4,1,0,90,0,1
128712,-80,4,1,0,90,0,1
128803,-78.4313725490196,4,1,0,90,0,1
128894,-76.9230769230769,4,1,0,90,0,1
128985,-78.4313725490196,4,1,0,90,0,1
129076,-80,4,1,0,90,0,1
129167,-81.6326530612245,4,1,0,90,0,1
129257,-83.3333333333333,4,1,0,90,0,1
129348,-85.1063829787234,4,1,0,90,0,1
129439,-86.9565217391304,4,1,0,90,0,1
129530,-88.8888888888889,4,1,0,90,0,1
129625,-90.9090909090909,4,1,0,70,0,0
129803,-95.2380952380952,4,1,0,70,0,0
129863,-96.7741935483871,4,1,0,70,0,0
131076,-125,4,1,0,70,0,0
132348,-166.666666666667,4,1,0,40,0,0

[HitObjects]
256,192,1261,5,8,0:0:0:0:
384,192,1625,1,4,0:0:0:0:
256,192,3807,1,8,0:0:0:0:
256,192,4534,1,0,0:0:0:0:
256,192,4595,1,0,0:0:0:0:
256,192,4655,1,8,0:0:0:0:
256,192,5989,1,0,0:0:0:0:
256,192,6352,1,0,0:0:0:0:
256,192,6716,1,8,0:0:0:0:
256,192,7080,1,8,0:0:0:0:
256,192,7443,1,0,0:0:0:0:
256,192,7504,1,0,0:0:0:0:
256,192,7564,1,0,0:0:0:0:
256,192,8898,1,8,0:0:0:0:
256,192,8958,1,0,0:0:0:0:
256,192,9019,1,8,0:0:0:0:
256,192,9625,1,0,0:0:0:0:
256,192,10352,1,8,0:0:0:0:
256,192,10413,1,0,0:0:0:0:
256,192,10474,1,0,0:0:0:0:
256,192,11080,1,8,0:0:0:0:
256,192,11807,1,8,0:0:0:0:
256,192,11867,1,8,0:0:0:0:
256,192,11928,1,8,0:0:0:0:
256,192,11989,1,0,0:0:0:0:
256,192,12080,1,0,0:0:0:0:
256,192,12171,1,8,0:0:0:0:
256,192,12231,1,8,0:0:0:0:
256,192,12292,1,8,0:0:0:0:
256,192,12352,1,0,0:0:0:0:
256,192,12443,1,0,0:0:0:0:
256,192,12534,1,8,0:0:0:0:
256,192,12625,1,8,0:0:0:0:
256,192,12716,1,0,0:0:0:0:
256,192,12807,1,0,0:0:0:0:
256,192,12898,1,8,0:0:0:0:
256,192,12989,1,0,0:0:0:0:
256,192,13080,1,0,0:0:0:0:
256,192,13171,1,0,0:0:0:0:
384,192,13261,1,12,0:0:0:0:
256,192,13443,1,8,0:0:0:0:
256,192,13534,1,0,0:0:0:0:
256,192,13716,1,0,0:0:0:0:
256,192,13807,1,8,0:0:0:0:
256,192,13989,1,8,0:0:0:0:
256,192,14171,1,0,0:0:0:0:
256,192,14261,1,0,0:0:0:0:
256,192,14352,1,8,0:0:0:0:
256,192,14534,1,0,0:0:0:0:
256,192,14716,1,8,0:0:0:0:
256,192,14898,1,0,0:0:0:0:
256,192,14989,1,8,0:0:0:0:
256,192,15171,1,8,0:0:0:0:
256,192,15261,1,8,0:0:0:0:
256,192,15443,1,0,0:0:0:0:
256,192,15489,1,0,0:0:0:0:
256,192,15625,1,0,0:0:0:0:
256,192,15671,1,0,0:0:0:0:
256,192,15807,1,8,0:0:0:0:
256,192,15989,1,0,0:0:0:0:
384,192,16171,1,12,0:0:0:0:
256,192,16352,1,0,0:0:0:0:
256,192,16443,1,0,0:0:0:0:
256,192,16534,1,8,0:0:0:0:
256,192,16716,1,8,0:0:0:0:
256,192,16898,1,0,0:0:0:0:
256,192,17080,1,8,0:0:0:0:
256,192,17171,1,0,0:0:0:0:
256,192,17352,1,0,0:0:0:0:
256,192,17443,1,8,0:0:0:0:
256,192,17625,1,0,0:0:0:0:
256,192,17716,1,0,0:0:0:0:
256,192,17807,1,8,0:0:0:0:
256,192,17989,1,8,0:0:0:0:
256,192,18080,1,8,0:0:0:0:
256,192,18171,1,0,0:0:0:0:
256,192,18261,1,8,0:0:0:0:
256,192,18352,1,0,0:0:0:0:
256,192,18398,1,0,0:0:0:0:
256,192,18534,1,0,0:0:0:0:
256,192,18580,1,0,0:0:0:0:
256,192,18716,1,8,0:0:0:0:
256,192,18807,1,8,0:0:0:0:
256,192,18898,1,0,0:0:0:0:
384,192,19080,1,12,0:0:0:0:
256,192,19261,1,0,0:0:0:0:
256,192,19443,1,0,0:0:0:0:
256,192,19625,1,0,0:0:0:0:
256,192,19807,1,8,0:0:0:0:
256,192,19989,1,8,0:0:0:0:
256,192,20171,1,0,0:0:0:0:
256,192,20352,1,8,0:0:0:0:
256,192,20534,1,0,0:0:0:0:
256,192,20625,1,0,0:0:0:0:
256,192,20716,1,8,0:0:0:0:
256,192,20807,1,8,0:0:0:0:
256,192,20898,1,0,0:0:0:0:
256,192,20989,1,0,0:0:0:0:
256,192,21080,1,8,0:0:0:0:
256,192,21171,1,8,0:0:0:0:
256,192,21261,1,0,0:0:0:0:
256,192,21352,1,8,0:0:0:0:
256,192,21443,1,8,0:0:0:0:
256,192,21534,1,8,0:0:0:0:
256,192,21625,1,0,0:0:0:0:
256,192,21686,1,0,0:0:0:0:
256,192,21746,1,0,0:0:0:0:
256,192,21807,1,8,0:0:0:0:
256,192,21867,1,8,0:0:0:0:
256,192,21928,1,8,0:0:0:0:
256,192,21989,1,0,0:0:0:0:
256,192,22080,1,0,0:0:0:0:
256,192,22171,1,8,0:0:0:0:
256,192,23443,1,8,0:0:0:0:
256,192,23564,1,0,0:0:0:0:
256,192,23686,1,0,0:0:0:0:
256,192,23807,1,8,0:0:0:0:
256,192,23928,1,0,0:0:0:0:
256,192,24049,1,0,0:0:0:0:
256,192,24171,1,8,0:0:0:0:
256,192,24216,1,8,0:0:0:0:
256,192,24261,1,0,0:0:0:0:
256,192,24352,1,0,0:0:0:0:
256,192,24443,1,0,0:0:0:0:
384,192,24534,1,12,0:0:0:0:
384,192,24898,1,12,0:0:0:0:
256,192,25261,1,8,0:0:0:0:
256,192,25322,1,0,0:0:0:0:
256,192,25383,1,0,0:0:0:0:
256,192,25443,1,8,0:0:0:0:
256,192,25534,1,8,0:0:0:0:
256,192,25625,1,0,0:0:0:0:
256,192,25807,1,8,0:0:0:0:
256,192,25989,1,0,0:0:0:0:
256,192,26171,1,8,0:0:0:0:
256,192,26261,1,0,0:0:0:0:
256,192,26352,1,8,0:0:0:0:
256,192,26398,1,8,0:0:0:0:
256,192,26534,1,8,0:0:0:0:
256,192,26580,1,8,0:0:0:0:
256,192,26716,1,0,0:0:0:0:
256,192,26807,1,8,0:0:0:0:
256,192,26898,1,8,0:0:0:0:
256,192,26989,1,0,0:0:0:0:
256,192,27080,1,8,0:0:0:0:
256,192,27171,1,0,0:0:0:0:
256,192,27261,1,0,0:0:0:0:
256,192,27352,1,8,0:0:0:0:
256,192,27443,1,0,0:0:0:0:
384,192,27716,1,12,0:0:0:0:
256,192,27989,1,0,0:0:0:0:
256,192,28080,1,0,0:0:0:0:
256,192,28171,1,8,0:0:0:0:
256,192,28216,1,8,0:0:0:0:
256,192,28261,1,0,0:0:0:0:
256,192,28534,1,0,0:0:0:0:
256,192,28595,1,8,0:0:0:0:
256,192,28655,1,8,0:0:0:0:
256,192,28716,1,0,0:0:0:0:
256,192,28807,1,0,0:0:0:0:
256,192,28898,1,8,0:0:0:0:
256,192,29080,1,0,0:0:0:0:
256,192,29171,1,0,0:0:0:0:
384,192,29261,1,12,0:0:0:0:
384,192,29534,1,12,0:0:0:0:
384,192,29807,1,12,0:0:0:0:
256,192,29989,1,0,0:0:0:0:
256,192,30080,1,8,0:0:0:0:
256,192,30171,1,8,0:0:0:0:
256,192,30261,1,8,0:0:0:0:
256,192,30352,1,0,0:0:0:0:
256,192,30443,1,8,0:0:0:0:
256,192,30534,1,0,0:0:0:0:
256,192,30625,1,0,0:0:0:0:
384,192,30716,1,12,0:0:0:0:
384,192,30989,1,4,0:0:0:0:
384,192,31261,1,4,0:0:0:0:
384,192,31534,1,4,0:0:0:0:
384,192,31807,1,4,0:0:0:0:
384,192,32080,1,4,0:0:0:0:
384,192,32171,1,12,0:0:0:0:
384,192,32443,1,12,0:0:0:0:
384,192,32716,1,12,0:0:0:0:
384,192,32989,1,12,0:0:0:0:
384,192,33261,1,12,0:0:0:0:
256,192,33534,1,8,0:0:0:0:
256,192,33625,1,0,0:0:0:0:
256,192,33716,1,0,0:0:0:0:
256,192,33807,1,8,0:0:0:0:
256,192,33898,1,0,0:0:0:0:
256,192,34352,1,8,0:0:0:0:
256,192,34474,1,0,0:0:0:0:
256,192,34595,1,8,0:0:0:0:
256,192,34716,1,0,0:0:0:0:
256,192,34837,1,8,0:0:0:0:
256,192,34958,1,8,0:0:0:0:
256,192,35080,1,0,0:0:0:0:
256,192,35140,1,0,0:0:0:0:
256,192,35201,1,8,0:0:0:0:
256,192,35322,1,0,0:0:0:0:
256,192,35443,1,8,0:0:0:0:
256,192,35504,1,8,0:0:0:0:
256,192,35564,1,0,0:0:0:0:
256,192,35625,1,0,0:0:0:0:
256,192,35686,1,8,0:0:0:0:
256,192,35807,1,0,0:0:0:0:
256,192,35898,1,0,0:0:0:0:
256,192,35989,1,8,0:0:0:0:
256,192,36080,1,8,0:0:0:0:
256,192,36171,1,0,0:0:0:0:
256,192,36261,1,8,0:0:0:0:
256,192,36352,1,8,0:0:0:0:
256,192,36443,1,0,0:0:0:0:
384,192,36534,1,12,0:0:0:0:
256,192,37261,1,8,0:0:0:0:
256,192,37625,1,8,0:0:0:0:
256,192,37989,1,0,0:0:0:0:
256,192,38716,1,8,0:0:0:0:
256,192,39080,1,0,0:0:0:0:
384,192,39443,1,12,0:0:0:0:
256,192,40171,1,0,0:0:0:0:
256,192,40534,1,8,0:0:0:0:
256,192,40898,1,8,0:0:0:0:
256,192,40958,1,8,0:0:0:0:
256,192,41019,1,8,0:0:0:0:
256,192,41080,1,0,0:0:0:0:
256,192,41171,1,0,0:0:0:0:
256,192,41261,1,8,0:0:0:0:
256,192,41322,1,8,0:0:0:0:
256,192,41383,1,8,0:0:0:0:
256,192,41443,1,0,0:0:0:0:
256,192,41534,1,0,0:0:0:0:
384,192,41625,1,12,0:0:0:0:
256,192,41989,1,8,0:0:0:0:
256,192,42080,1,8,0:0:0:0:
256,192,42171,1,8,0:0:0:0:
256,192,42261,1,8,0:0:0:0:
256,192,42352,1,0,0:0:0:0:
256,192,42716,1,8,0:0:0:0:
256,192,43080,1,0,0:0:0:0:
256,192,43352,1,8,0:0:0:0:
256,192,43807,1,0,0:0:0:0:
256,192,44171,1,0,0:0:0:0:
256,192,44443,1,8,0:0:0:0:
256,192,44534,1,0,0:0:0:0:
256,192,44898,1,8,0:0:0:0:
256,192,44989,1,0,0:0:0:0:
256,192,45080,1,0,0:0:0:0:
256,192,45171,1,0,0:0:0:0:
256,192,45261,1,8,0:0:0:0:
256,192,45625,1,0,0:0:0:0:
256,192,45989,1,8,0:0:0:0:
256,192,46261,1,8,0:0:0:0:
256,192,46443,1,0,0:0:0:0:
256,192,46534,1,0,0:0:0:0:
384,192,46716,1,12,0:0:0:0:
256,192,47443,1,0,0:0:0:0:
256,192,47534,1,0,0:0:0:0:
256,192,47625,1,8,0:0:0:0:
256,192,47716,1,0,0:0:0:0:
256,192,47807,1,8,0:0:0:0:
256,192,47898,1,8,0:0:0:0:
256,192,47989,1,8,0:0:0:0:
256,192,48080,1,8,0:0:0:0:
256,192,48171,1,0,0:0:0:0:
256,192,48352,1,0,0:0:0:0:
256,192,48534,1,8,0:0:0:0:
256,192,48716,1,0,0:0:0:0:
256,192,48807,1,0,0:0:0:0:
256,192,48898,1,0,0:0:0:0:
256,192,49080,1,0,0:0:0:0:
256,192,49261,1,8,0:0:0:0:
256,192,49443,1,0,0:0:0:0:
256,192,49625,1,0,0:0:0:0:
256,192,49807,1,0,0:0:0:0:
256,192,49898,1,0,0:0:0:0:
256,192,49989,1,8,0:0:0:0:
256,192,50171,1,0,0:0:0:0:
256,192,50352,1,0,0:0:0:0:
256,192,50534,1,0,0:0:0:0:
256,192,50716,1,8,0:0:0:0:
256,192,50898,1,0,0:0:0:0:
256,192,50989,1,0,0:0:0:0:
256,192,51080,1,0,0:0:0:0:
256,192,51261,1,0,0:0:0:0:
256,192,51443,1,8,0:0:0:0:
256,192,51625,1,0,0:0:0:0:
256,192,51716,1,0,0:0:0:0:
256,192,51807,1,0,0:0:0:0:
256,192,51989,1,0,0:0:0:0:
256,192,52171,1,8,0:0:0:0:
256,192,52352,1,0,0:0:0:0:
256,192,52534,1,0,0:0:0:0:
256,192,52716,1,0,0:0:0:0:
256,192,52807,1,0,0:0:0:0:
256,192,52898,1,8,0:0:0:0:
256,192,53080,1,0,0:0:0:0:
256,192,53171,1,0,0:0:0:0:
256,192,53261,1,0,0:0:0:0:
256,192,53352,1,0,0:0:0:0:
256,192,53443,1,8,0:0:0:0:
256,192,53504,1,8,0:0:0:0:
256,192,53564,1,8,0:0:0:0:
256,192,53625,1,0,0:0:0:0:
256,192,53716,1,0,0:0:0:0:
256,192,53807,1,0,0:0:0:0:
256,192,53898,1,0,0:0:0:0:
256,192,53989,1,8,0:0:0:0:
256,192,54171,1,8,0:0:0:0:
256,192,54352,1,0,0:0:0:0:
256,192,54534,1,8,0:0:0:0:
256,192,54716,1,0,0:0:0:0:
256,192,54898,1,8,0:0:0:0:
256,192,55080,1,0,0:0:0:0:
256,192,55261,1,8,0:0:0:0:
256,192,55443,1,8,0:0:0:0:
256,192,55625,1,0,0:0:0:0:
256,192,55807,1,8,0:0:0:0:
256,192,55989,1,0,0:0:0:0:
256,192,56171,1,8,0:0:0:0:
256,192,56352,1,8,0:0:0:0:
256,192,56534,1,0,0:0:0:0:
256,192,56716,1,0,0:0:0:0:
256,192,56777,1,0,0:0:0:0:
256,192,56837,1,0,0:0:0:0:
384,192,56898,1,12,0:0:0:0:
256,192,57625,1,0,0:0:0:0:
256,192,57989,1,8,0:0:0:0:
256,192,58080,1,0,0:0:0:0:
256,192,58171,1,8,0:0:0:0:
256,192,58261,1,8,0:0:0:0:
256,192,58352,1,0,0:0:0:0:
256,192,58443,1,0,0:0:0:0:
256,192,58534,1,8,0:0:0:0:
256,192,58625,1,8,0:0:0:0:
256,192,58716,1,0,0:0:0:0:
256,192,58898,1,0,0:0:0:0:
256,192,59080,1,8,0:0:0:0:
256,192,59443,1,8,0:0:0:0:
256,192,59489,1,8,0:0:0:0:
256,192,59625,1,8,0:0:0:0:
256,192,59671,1,8,0:0:0:0:
384,192,59807,1,4,0:0:0:0:
256,192,60534,1,0,0:0:0:0:
256,192,60898,1,0,0:0:0:0:
256,192,61261,1,8,0:0:0:0:
256,192,61292,1,8,0:0:0:0:
256,192,61625,1,0,0:0:0:0:
256,192,61989,1,8,0:0:0:0:
256,192,62352,1,8,0:0:0:0:
256,192,62398,1,8,0:0:0:0:
256,192,62534,1,8,0:0:0:0:
256,192,62580,1,8,0:0:0:0:
256,192,62716,1,0,0:0:0:0:
256,192,63080,1,0,0:0:0:0:
256,192,63443,1,8,0:0:0:0:
256,192,63807,1,0,0:0:0:0:
256,192,64171,1,8,0:0:0:0:
256,192,64201,1,8,0:0:0:0:
256,192,64534,1,8,0:0:0:0:
256,192,64625,1,0,0:0:0:0:
256,192,64716,1,8,0:0:0:0:
256,192,64807,1,8,0:0:0:0:
256,192,64898,1,0,0:0:0:0:
256,192,64989,1,0,0:0:0:0:
256,192,65080,1,8,0:0:0:0:
256,192,65171,1,0,0:0:0:0:
256,192,65261,1,8,0:0:0:0:
256,192,65352,1,8,0:0:0:0:
256,192,65443,1,0,0:0:0:0:
256,192,65534,1,8,0:0:0:0:
256,192,65625,1,0,0:0:0:0:
256,192,65807,1,0,0:0:0:0:
256,192,65989,1,8,0:0:0:0:
256,192,66034,1,8,0:0:0:0:
256,192,66171,1,8,0:0:0:0:
256,192,66216,1,8,0:0:0:0:
256,192,66352,1,0,0:0:0:0:
256,192,66534,1,8,0:0:0:0:
256,192,66625,1,8,0:0:0:0:
256,192,66716,1,0,0:0:0:0:
256,192,66807,1,8,0:0:0:0:
256,192,66898,1,0,0:0:0:0:
256,192,67080,1,8,0:0:0:0:
256,192,67171,1,0,0:0:0:0:
256,192,67261,1,8,0:0:0:0:
256,192,67443,1,0,0:0:0:0:
256,192,67534,1,0,0:0:0:0:
256,192,67625,1,8,0:0:0:0:
256,192,67807,1,8,0:0:0:0:
256,192,67898,1,8,0:0:0:0:
256,192,67989,1,0,0:0:0:0:
256,192,68080,1,0,0:0:0:0:
256,192,68171,1,8,0:0:0:0:
256,192,68216,1,8,0:0:0:0:
256,192,68352,1,8,0:0:0:0:
256,192,68398,1,8,0:0:0:0:
256,192,68534,1,0,0:0:0:0:
256,192,68716,1,0,0:0:0:0:
256,192,68807,1,0,0:0:0:0:
256,192,68898,1,8,0:0:0:0:
256,192,68943,1,8,0:0:0:0:
256,192,69080,1,8,0:0:0:0:
256,192,69125,1,8,0:0:0:0:
256,192,69261,1,0,0:0:0:0:
256,192,69352,1,0,0:0:0:0:
256,192,69443,1,8,0:0:0:0:
256,192,69625,1,0,0:0:0:0:
256,192,69716,1,8,0:0:0:0:
256,192,69807,1,0,0:0:0:0:
256,192,69898,1,0,0:0:0:0:
256,192,69989,1,8,0:0:0:0:
256,192,70034,1,8,0:0:0:0:
256,192,70171,1,8,0:0:0:0:
256,192,70216,1,8,0:0:0:0:
256,192,70352,1,0,0:0:0:0:
256,192,70413,1,0,0:0:0:0:
256,192,70474,1,0,0:0:0:0:
256,192,70534,1,8,0:0:0:0:
256,192,70595,1,8,0:0:0:0:
256,192,70655,1,8,0:0:0:0:
256,192,70716,1,0,0:0:0:0:
256,192,70807,1,0,0:0:0:0:
256,192,70898,1,0,0:0:0:0:
256,192,70989,1,0,0:0:0:0:
256,192,71080,1,8,0:0:0:0:
256,192,71171,1,8,0:0:0:0:
256,192,71261,1,0,0:0:0:0:
256,192,71352,1,0,0:0:0:0:
384,192,71443,1,12,0:0:0:0:
256,192,71807,1,8,0:0:0:0:
256,192,72171,1,0,0:0:0:0:
256,192,72352,1,0,0:0:0:0:
256,192,72534,1,8,0:0:0:0:
384,192,72716,1,12,0:0:0:0:
256,192,73261,1,0,0:0:0:0:
256,192,73443,1,8,0:0:0:0:
256,192,73504,1,8,0:0:0:0:
256,192,73564,1,8,0:0:0:0:
256,192,73625,1,0,0:0:0:0:
256,192,73807,1,0,0:0:0:0:
256,192,73989,1,8,0:0:0:0:
256,192,74171,1,8,0:0:0:0:
384,192,74352,1,4,0:0:0:0:
384,192,75080,1,4,0:0:0:0:
384,192,75807,1,4,0:0:0:0:
384,192,76534,1,12,0:0:0:0:
256,192,77261,1,0,0:0:0:0:
256,192,77322,1,0,0:0:0:0:
256,192,77383,1,0,0:0:0:0:
256,192,78716,1,8,0:0:0:0:
256,192,78777,1,8,0:0:0:0:
256,192,78837,1,0,0:0:0:0:
256,192,80171,1,8,0:0:0:0:
256,192,80261,1,0,0:0:0:0:
256,192,80352,1,8,0:0:0:0:
256,192,80443,1,8,0:0:0:0:
256,192,80534,1,0,0:0:0:0:
256,192,80625,1,0,0:0:0:0:
256,192,80716,1,8,0:0:0:0:
256,192,80807,1,0,0:0:0:0:
256,192,80898,1,8,0:0:0:0:
256,192,80989,1,8,0:0:0:0:
256,192,81080,1,0,0:0:0:0:
256,192,81171,1,0,0:0:0:0:
256,192,81261,1,8,0:0:0:0:
256,192,81352,1,8,0:0:0:0:
256,192,81443,1,0,0:0:0:0:
256,192,81534,1,0,0:0:0:0:
256,192,81625,1,8,0:0:0:0:
256,192,81686,1,8,0:0:0:0:
256,192,81746,1,8,0:0:0:0:
256,192,81867,1,0,0:0:0:0:
256,192,81989,1,8,0:0:0:0:
256,192,82049,1,8,0:0:0:0:
256,192,82110,1,0,0:0:0:0:
256,192,82231,1,0,0:0:0:0:
256,192,82352,1,8,0:0:0:0:
256,192,82443,1,8,0:0:0:0:
256,192,82534,1,0,0:0:0:0:
256,192,82625,1,0,0:0:0:0:
384,192,82716,1,12,0:0:0:0:
384,192,83080,1,4,0:0:0:0:
256,192,83261,1,8,0:0:0:0:
256,192,83352,1,8,0:0:0:0:
256,192,83443,1,0,0:0:0:0:
256,192,83625,1,0,0:0:0:0:
256,192,83716,1,0,0:0:0:0:
256,192,83807,1,8,0:0:0:0:
256,192,83898,1,8,0:0:0:0:
256,192,83989,1,0,0:0:0:0:
256,192,84080,1,8,0:0:0:0:
256,192,84171,1,0,0:0:0:0:
256,192,84352,1,8,0:0:0:0:
256,192,84534,1,0,0:0:0:0:
256,192,84625,1,0,0:0:0:0:
256,192,84807,1,0,0:0:0:0:
256,192,84898,1,8,0:0:0:0:
256,192,85080,1,0,0:0:0:0:
256,192,85261,1,8,0:0:0:0:
256,192,85352,1,0,0:0:0:0:
256,192,85443,1,8,0:0:0:0:
256,192,85534,1,8,0:0:0:0:
256,192,85625,1,0,0:0:0:0:
256,192,85807,1,8,0:0:0:0:
256,192,85898,1,8,0:0:0:0:
256,192,85989,1,0,0:0:0:0:
256,192,86080,1,0,0:0:0:0:
256,192,86261,1,8,0:0:0:0:
256,192,86352,1,0,0:0:0:0:
256,192,86534,1,0,0:0:0:0:
256,192,86625,1,0,0:0:0:0:
256,192,86716,1,8,0:0:0:0:
256,192,86807,1,8,0:0:0:0:
256,192,86898,1,0,0:0:0:0:
256,192,86989,1,8,0:0:0:0:
256,192,87080,1,0,0:0:0:0:
256,192,87261,1,0,0:0:0:0:
256,192,87443,1,8,0:0:0:0:
256,192,87534,1,0,0:0:0:0:
256,192,87625,1,0,0:0:0:0:
256,192,87716,1,0,0:0:0:0:
256,192,87807,1,8,0:0:0:0:
256,192,87989,1,0,0:0:0:0:
256,192,88080,1,8,0:0:0:0:
256,192,88171,1,0,0:0:0:0:
256,192,88261,1,0,0:0:0:0:
256,192,88352,1,8,0:0:0:0:
256,192,88443,1,0,0:0:0:0:
256,192,88534,1,8,0:0:0:0:
256,192,88716,1,8,0:0:0:0:
256,192,88807,1,8,0:0:0:0:
256,192,88898,1,0,0:0:0:0:
256,192,88989,1,8,0:0:0:0:
256,192,89080,1,0,0:0:0:0:
256,192,89261,1,8,0:0:0:0:
256,192,89443,1,0,0:0:0:0:
256,192,89625,1,8,0:0:0:0:
256,192,89716,1,0,0:0:0:0:
256,192,89807,1,0,0:0:0:0:
256,192,89898,1,8,0:0:0:0:
256,192,89989,1,0,0:0:0:0:
256,192,90171,1,8,0:0:0:0:
256,192,90352,1,0,0:0:0:0:
256,192,90443,1,0,0:0:0:0:
256,192,90534,1,8,0:0:0:0:
256,192,90625,1,8,0:0:0:0:
256,192,90716,1,0,0:0:0:0:
256,192,90898,1,0,0:0:0:0:
256,192,90989,1,0,0:0:0:0:
256,192,91080,1,8,0:0:0:0:
256,192,91261,1,0,0:0:0:0:
256,192,91352,1,0,0:0:0:0:
256,192,91443,1,8,0:0:0:0:
256,192,91625,1,8,0:0:0:0:
256,192,91807,1,0,0:0:0:0:
256,192,91898,1,0,0:0:0:0:
256,192,91989,1,8,0:0:0:0:
256,192,92080,1,0,0:0:0:0:
256,192,92171,1,8,0:0:0:0:
256,192,92352,1,0,0:0:0:0:
256,192,92534,1,8,0:0:0:0:
256,192,92625,1,8,0:0:0:0:
256,192,92716,1,0,0:0:0:0:
256,192,92807,1,8,0:0:0:0:
256,192,92898,1,0,0:0:0:0:
256,192,92989,1,0,0:0:0:0:
256,192,93080,1,8,0:0:0:0:
256,192,93261,1,0,0:0:0:0:
256,192,93352,1,0,0:0:0:0:
256,192,93443,1,8,0:0:0:0:
256,192,93534,1,0,0:0:0:0:
256,192,93625,1,8,0:0:0:0:
256,192,93716,1,8,0:0:0:0:
256,192,93807,1,0,0:0:0:0:
256,192,93898,1,0,0:0:0:0:
256,192,93989,1,8,0:0:0:0:
256,192,94080,1,0,0:0:0:0:
256,192,94171,1,8,0:0:0:0:
256,192,94261,1,8,0:0:0:0:
256,192,94352,1,0,0:0:0:0:
256,192,94443,1,0,0:0:0:0:
256,192,94534,1,0,0:0:0:0:
256,192,94625,1,0,0:0:0:0:
384,192,94716,1,12,0:0:0:0:
256,192,94898,1,0,0:0:0:0:
256,192,94989,1,0,0:0:0:0:
256,192,95080,1,8,0:0:0:0:
256,192,95262,1,0,0:0:0:0:
256,192,95353,1,0,0:0:0:0:
256,192,95444,1,8,0:0:0:0:
256,192,95535,1,8,0:0:0:0:
256,192,95626,1,0,0:0:0:0:
256,192,95717,1,8,0:0:0:0:
256,192,95808,1,0,0:0:0:0:
256,192,95989,1,8,0:0:0:0:
256,192,96171,1,0,0:0:0:0:
256,192,96262,1,0,0:0:0:0:
256,192,96444,1,0,0:0:0:0:
256,192,96535,1,8,0:0:0:0:
256,192,96717,1,0,0:0:0:0:
256,192,96898,1,8,0:0:0:0:
256,192,96989,1,0,0:0:0:0:
256,192,97080,1,8,0:0:0:0:
256,192,97171,1,8,0:0:0:0:
256,192,97262,1,0,0:0:0:0:
256,192,97444,1,8,0:0:0:0:
256,192,97534,1,8,0:0:0:0:
256,192,97626,1,0,0:0:0:0:
256,192,97717,1,0,0:0:0:0:
256,192,97898,1,8,0:0:0:0:
256,192,97989,1,0,0:0:0:0:
256,192,98171,1,8,0:0:0:0:
256,192,98262,1,0,0:0:0:0:
256,192,98353,1,8,0:0:0:0:
256,192,98444,1,8,0:0:0:0:
256,192,98535,1,0,0:0:0:0:
256,192,98626,1,8,0:0:0:0:
256,192,98717,1,0,0:0:0:0:
256,192,98898,1,0,0:0:0:0:
256,192,99080,1,8,0:0:0:0:
256,192,99171,1,0,0:0:0:0:
256,192,99262,1,0,0:0:0:0:
256,192,99353,1,0,0:0:0:0:
256,192,99444,1,8,0:0:0:0:
256,192,99626,1,0,0:0:0:0:
256,192,99717,1,8,0:0:0:0:
256,192,99808,1,0,0:0:0:0:
256,192,99989,1,8,0:0:0:0:
256,192,100080,1,0,0:0:0:0:
256,192,100171,1,8,0:0:0:0:
256,192,100261,1,8,0:0:0:0:
256,192,100353,1,0,0:0:0:0:
256,192,100444,1,0,0:0:0:0:
256,192,100535,1,0,0:0:0:0:
256,192,101261,1,8,0:0:0:0:
256,192,101534,1,0,0:0:0:0:
256,192,101807,1,8,0:0:0:0:
256,192,102352,1,8,0:0:0:0:
256,192,102716,1,0,0:0:0:0:
256,192,103080,1,8,0:0:0:0:
256,192,103443,1,0,0:0:0:0:
256,192,103534,1,0,0:0:0:0:
256,192,103625,1,0,0:0:0:0:
256,192,103716,1,0,0:0:0:0:
256,192,103807,1,8,0:0:0:0:
256,192,103898,1,0,0:0:0:0:
256,192,103989,1,8,0:0:0:0:
256,192,104080,1,8,0:0:0:0:
256,192,104171,1,0,0:0:0:0:
256,192,104261,1,0,0:0:0:0:
256,192,104352,1,0,0:0:0:0:
256,192,104443,1,0,0:0:0:0:
256,192,104534,1,8,0:0:0:0:
256,192,104625,1,8,0:0:0:0:
256,192,104716,1,0,0:0:0:0:
256,192,104807,1,0,0:0:0:0:
256,192,104898,1,8,0:0:0:0:
256,192,104958,1,8,0:0:0:0:
256,192,105019,1,8,0:0:0:0:
256,192,105080,1,0,0:0:0:0:
256,192,105171,1,0,0:0:0:0:
256,192,105261,1,8,0:0:0:0:
256,192,105322,1,8,0:0:0:0:
256,192,105383,1,8,0:0:0:0:
256,192,105443,1,0,0:0:0:0:
256,192,105534,1,0,0:0:0:0:
256,192,105625,1,8,0:0:0:0:
256,192,105716,1,8,0:0:0:0:
256,192,105807,1,0,0:0:0:0:
256,192,105898,1,0,0:0:0:0:
256,192,105989,1,8,0:0:0:0:
256,192,106080,1,0,0:0:0:0:
256,192,106171,1,8,0:0:0:0:
256,192,106261,1,8,0:0:0:0:
384,192,106352,1,4,0:0:0:0:
256,192,106716,1,8,0:0:0:0:
256,192,106777,1,0,0:0:0:0:
256,192,106838,1,0,0:0:0:0:
256,192,106898,1,8,0:0:0:0:
256,192,106989,1,8,0:0:0:0:
256,192,107080,1,0,0:0:0:0:
256,192,107262,1,8,0:0:0:0:
256,192,107444,1,0,0:0:0:0:
256,192,107626,1,8,0:0:0:0:
256,192,107716,1,0,0:0:0:0:
256,192,107807,1,8,0:0:0:0:
256,192,107853,1,8,0:0:0:0:
256,192,107989,1,8,0:0:0:0:
256,192,108035,1,8,0:0:0:0:
256,192,108171,1,0,0:0:0:0:
256,192,108262,1,8,0:0:0:0:
256,192,108353,1,8,0:0:0:0:
256,192,108444,1,0,0:0:0:0:
256,192,108535,1,8,0:0:0:0:
256,192,108625,1,0,0:0:0:0:
256,192,108716,1,0,0:0:0:0:
256,192,108807,1,8,0:0:0:0:
256,192,108898,1,0,0:0:0:0:
384,192,109262,1,12,0:0:0:0:
256,192,109626,1,8,0:0:0:0:
256,192,109671,1,8,0:0:0:0:
256,192,109716,1,0,0:0:0:0:
256,192,109989,1,8,0:0:0:0:
256,192,110034,1,0,0:0:0:0:
256,192,110080,1,0,0:0:0:0:
256,192,110353,1,8,0:0:0:0:
256,192,110535,1,0,0:0:0:0:
256,192,110626,1,0,0:0:0:0:
384,192,110716,1,12,0:0:0:0:
384,192,110989,1,12,0:0:0:0:
384,192,111262,1,12,0:0:0:0:
256,192,111444,1,0,0:0:0:0:
384,192,111535,1,12,0:0:0:0:
256,192,111716,1,0,0:0:0:0:
384,192,111807,1,12,0:0:0:0:
256,192,111989,1,0,0:0:0:0:
256,192,112080,1,8,0:0:0:0:
384,192,112171,1,4,0:0:0:0:
256,192,112534,1,8,0:0:0:0:
256,192,112595,1,0,0:0:0:0:
256,192,112655,1,0,0:0:0:0:
256,192,112716,1,8,0:0:0:0:
256,192,112898,1,8,0:0:0:0:
256,192,112958,1,0,0:0:0:0:
256,192,113019,1,0,0:0:0:0:
256,192,113080,1,8,0:0:0:0:
256,192,113261,1,0,0:0:0:0:
256,192,113322,1,8,0:0:0:0:
256,192,113383,1,8,0:0:0:0:
256,192,113443,1,0,0:0:0:0:
256,192,113625,1,8,0:0:0:0:
256,192,113686,1,8,0:0:0:0:
256,192,113746,1,0,0:0:0:0:
256,192,113807,1,0,0:0:0:0:
256,192,113898,1,8,0:0:0:0:
256,192,113989,1,0,0:0:0:0:
256,192,114352,1,8,0:0:0:0:
256,192,114534,1,0,0:0:0:0:
256,192,114625,1,0,0:0:0:0:
256,192,114716,1,8,0:0:0:0:
256,192,114898,1,0,0:0:0:0:
384,192,115080,1,12,0:0:0:0:
384,192,115352,1,12,0:0:0:0:
384,192,115625,1,4,0:0:0:0:
384,192,115807,1,12,0:0:0:0:
256,192,115989,1,0,0:0:0:0:
384,192,116171,1,4,0:0:0:0:
384,192,116352,1,12,0:0:0:0:
256,192,116777,1,0,0:0:0:0:
256,192,116837,1,0,0:0:0:0:
384,192,116898,1,12,0:0:0:0:
256,192,117080,1,0,0:0:0:0:
256,192,117171,1,0,0:0:0:0:
256,192,117261,1,8,0:0:0:0:
256,192,117352,1,8,0:0:0:0:
256,192,117443,1,0,0:0:0:0:
256,192,117534,1,8,0:0:0:0:
256,192,117625,1,0,0:0:0:0:
256,192,117716,1,0,0:0:0:0:
256,192,117807,1,8,0:0:0:0:
256,192,117898,1,0,0:0:0:0:
384,192,117989,1,12,0:0:0:0:
256,192,118352,1,8,0:0:0:0:
256,192,118413,1,0,0:0:0:0:
256,192,118474,1,0,0:0:0:0:
256,192,118534,1,8,0:0:0:0:
256,192,118625,1,8,0:0:0:0:
256,192,118716,1,0,0:0:0:0:
256,192,118898,1,8,0:0:0:0:
256,192,119080,1,0,0:0:0:0:
256,192,119262,1,8,0:0:0:0:
256,192,119352,1,0,0:0:0:0:
256,192,119443,1,8,0:0:0:0:
256,192,119489,1,8,0:0:0:0:
256,192,119625,1,8,0:0:0:0:
256,192,119671,1,8,0:0:0:0:
256,192,119807,1,0,0:0:0:0:
256,192,119898,1,8,0:0:0:0:
256,192,119989,1,8,0:0:0:0:
256,192,120080,1,0,0:0:0:0:
256,192,120171,1,8,0:0:0:0:
256,192,120262,1,8,0:0:0:0:
256,192,120352,1,0,0:0:0:0:
256,192,120443,1,0,0:0:0:0:
256,192,120534,1,8,0:0:0:0:
256,192,120898,1,8,0:0:0:0:
256,192,120958,1,8,0:0:0:0:
256,192,121019,1,8,0:0:0:0:
256,192,121080,1,0,0:0:0:0:
256,192,121171,1,0,0:0:0:0:
256,192,121262,1,8,0:0:0:0:
256,192,121322,1,8,0:0:0:0:
256,192,121383,1,0,0:0:0:0:
256,192,121443,1,0,0:0:0:0:
256,192,121534,1,0,0:0:0:0:
256,192,121625,1,8,0:0:0:0:
256,192,121648,1,8,0:0:0:0:
256,192,121989,1,8,0:0:0:0:
256,192,122171,1,0,0:0:0:0:
256,192,122262,1,0,0:0:0:0:
384,192,122352,1,12,0:0:0:0:
384,192,122625,1,12,0:0:0:0:
384,192,122898,1,12,0:0:0:0:
256,192,123080,1,0,0:0:0:0:
256,192,123171,1,8,0:0:0:0:
256,192,123262,1,8,0:0:0:0:
256,192,123352,1,8,0:0:0:0:
256,192,123443,1,0,0:0:0:0:
256,192,123534,1,8,0:0:0:0:
256,192,123625,1,0,0:0:0:0:
256,192,123716,1,0,0:0:0:0:
384,192,123807,1,12,0:0:0:0:
256,192,124171,1,0,0:0:0:0:
256,192,124231,1,0,0:0:0:0:
256,192,124292,1,0,0:0:0:0:
256,192,124352,1,8,0:0:0:0:
256,192,124443,1,8,0:0:0:0:
256,192,124534,1,0,0:0:0:0:
256,192,124595,1,0,0:0:0:0:
256,192,124655,1,0,0:0:0:0:
256,192,124716,1,8,0:0:0:0:
256,192,124807,1,8,0:0:0:0:
256,192,124898,1,0,0:0:0:0:
256,192,125080,1,0,0:0:0:0:
256,192,125171,1,0,0:0:0:0:
256,192,125261,1,8,0:0:0:0:
256,192,125322,1,8,0:0:0:0:
256,192,125383,1,0,0:0:0:0:
256,192,125443,1,0,0:0:0:0:
256,192,125534,1,0,0:0:0:0:
256,192,125625,1,8,0:0:0:0:
256,192,125716,1,8,0:0:0:0:
256,192,125807,1,0,0:0:0:0:
256,192,125989,1,0,0:0:0:0:
256,192,126034,1,0,0:0:0:0:
256,192,126171,1,0,0:0:0:0:
256,192,126216,1,0,0:0:0:0:
256,192,126352,1,8,0:0:0:0:
256,192,126413,1,8,0:0:0:0:
256,192,126474,1,8,0:0:0:0:
256,192,126534,1,0,0:0:0:0:
256,192,126625,1,0,0:0:0:0:
384,192,126716,1,12,0:0:0:0:
256,192,126898,1,0,0:0:0:0:
256,192,127080,1,8,0:0:0:0:
384,192,127261,1,4,0:0:0:0:
256,192,127443,1,8,0:0:0:0:
256,192,127625,1,0,0:0:0:0:
256,192,127807,1,0,0:0:0:0:
384,192,127989,1,12,0:0:0:0:
256,192,128171,1,0,0:0:0:0:
256,192,128261,1,0,0:0:0:0:
256,192,128352,1,8,0:0:0:0:
256,192,128443,1,0,0:0:0:0:
256,192,128534,1,8,0:0:0:0:
256,192,128625,1,8,0:0:0:0:
256,192,128716,1,0,0:0:0:0:
256,192,128807,1,8,0:0:0:0:
256,192,128898,1,0,0:0:0:0:
256,192,128989,1,0,0:0:0:0:
256,192,129080,1,8,0:0:0:0:
256,192,129171,1,8,0:0:0:0:
256,192,129261,1,0,0:0:0:0:
256,192,129352,1,0,0:0:0:0:
256,192,129443,1,0,0:0:0:0:
256,192,129534,1,0,0:0:0:0:
256,192,129625,1,8,0:0:0:0:
256,192,129807,1,0,0:0:0:0:
256,192,129867,1,8,0:0:0:0:
256,192,132352,1,8,0:0:0:0:
