osu file format v14

[General]
AudioFilename: audio.mp3
AudioLeadIn: 0
PreviewTime: 98005
Countdown: 0
SampleSet: Soft
StackLeniency: 0.3
Mode: 0
LetterboxInBreaks: 0
WidescreenStoryboard: 1

[Editor]
DistanceSpacing: 0.5
BeatDivisor: 8
GridSize: 32
TimelineZoom: 4.299998

[Metadata]
Title:Spiral
TitleUnicode:Spiral
Artist:Yunosuke
ArtistUnicode:雄之助
Creator:Axaptice
Version:wring's Insane
Source:
Tags:wring yellojello hatsune miku black or white gyuniku osamu vocaloid electronic japanese
BeatmapID:3003456
BeatmapSetID:1287115

[Difficulty]
HPDrainRate:4
CircleSize:4.2
OverallDifficulty:7
ApproachRate:8.5
SliderMultiplier:1.6
SliderTickRate:1

[Events]
//Background and Video events
0,0,"84074877_p0.jpg",0,0
//Break Periods
//Storyboard Layer 0 (Background)
//Storyboard Layer 1 (Fail)
//Storyboard Layer 2 (Pass)
//Storyboard Layer 3 (Foreground)
//Storyboard Layer 4 (Overlay)
//Storyboard Sound Samples

[TimingPoints]
535,468.75,4,2,0,68,1,0
535,-125,4,2,0,68,0,0
6160,-100,4,2,0,68,0,0
6628,-125,4,2,0,68,0,0
7097,-66.6666666666667,4,2,0,68,0,0
7566,-125,4,2,0,68,0,0
8035,-125,4,2,0,18,0,0
8093,-100,4,2,1,10,0,0
8503,-55.5555555555556,4,2,0,68,0,0
9910,-100,4,2,0,68,0,0
10378,-71.4285714285714,4,2,0,68,0,0
12722,-62.5,4,2,0,68,0,0
13660,-50,4,2,0,68,0,0
14128,-105.263157894737,4,2,0,68,0,0
14597,-68.9655172413793,4,2,0,68,0,0
15066,-58.8235294117647,4,2,0,68,0,0
15535,-68.9655172413793,4,2,0,51,0,0
19285,-100,4,2,0,51,0,0
38503,-117.647058823529,4,2,0,68,0,0
38972,-68.9655172413793,4,2,0,68,0,0
47292,-133.333333333333,4,2,0,68,0,0
47527,-117.647058823529,4,2,0,68,0,0
47878,-68.9655172413793,4,2,0,68,0,0
49285,-153.846153846154,4,2,0,68,0,0
50222,-133.333333333333,4,2,0,68,0,0
53503,-153.846153846153,4,2,0,68,0,0
56785,-142.857142857143,4,2,0,68,0,0
57722,-142.857142857143,4,2,0,73,0,0
58660,-105.263157894737,4,2,0,78,0,0
59597,-105.263157894737,4,2,0,83,0,0
60535,-83.3333333333333,4,2,0,88,0,0
61472,-83.3333333333333,4,2,0,93,0,0
62409,-100,4,2,0,68,0,0
62410,-68.9655172413793,4,2,0,68,0,0
64285,-60.6060606060606,4,2,0,100,0,1
68035,-54.054054054054,4,2,0,100,0,1
68503,-68.9655172413793,4,2,0,100,0,1
68972,-54.054054054054,4,2,0,100,0,1
69441,-68.9655172413793,4,2,0,100,0,1
69910,-54.054054054054,4,2,0,100,0,1
70378,-60.6060606060606,4,2,0,100,0,1
71785,-54.054054054054,4,2,0,100,0,1
72253,-68.9655172413793,4,2,0,100,0,1
72722,-60.6060606060606,4,2,0,100,0,1
77878,-117.647058823529,4,2,0,68,0,1
78347,-60.6060606060606,4,2,0,68,0,1
79753,-60.6060606060606,4,2,0,100,0,1
83035,-54.054054054054,4,2,0,100,0,1
83503,-68.9655172413793,4,2,0,100,0,1
83972,-54.054054054054,4,2,0,100,0,1
84441,-68.9655172413793,4,2,0,100,0,1
84910,-54.054054054054,4,2,0,100,0,1
85378,-68.9655172413793,4,2,0,100,0,1
85847,-60.6060606060606,4,2,0,100,0,1
86785,-54.054054054054,4,2,0,100,0,1
87253,-60.6060606060606,4,2,0,100,0,1
92878,-117.647058823529,4,2,0,68,0,1
93347,-60.6060606060606,4,2,0,68,0,1
94285,-60.6060606060606,4,2,0,68,0,0
96628,-100,4,2,0,68,0,0
98035,-277.777777777778,4,2,2,18,0,0
98152,-277.777777777778,4,2,2,5,0,0
98738,-222.222222222222,4,2,2,18,0,0
98855,-222.222222222222,4,2,2,5,0,0
99324,-222.222222222222,4,2,2,15,0,0
99910,-277.777777777778,4,2,2,18,0,0
100027,-277.777777777778,4,2,2,5,0,0
100613,-222.222222222222,4,2,2,28,0,0
100730,-222.222222222222,4,2,2,5,0,0
101199,-222.222222222222,4,2,2,15,0,0
101785,-277.777777777778,4,2,2,18,0,0
101902,-277.777777777778,4,2,2,5,0,0
102488,-222.222222222222,4,2,2,18,0,0
102605,-222.222222222222,4,2,2,5,0,0
103074,-222.222222222222,4,2,2,15,0,0
103660,-277.777777777778,4,2,2,28,0,0
103777,-277.777777777778,4,2,2,5,0,0
104363,-222.222222222222,4,2,2,18,0,0
104480,-222.222222222222,4,2,2,5,0,0
105066,-117.647058823529,4,2,2,45,0,0
105183,-117.647058823529,4,2,2,5,0,0
105535,-277.777777777778,4,2,2,18,0,0
105652,-277.777777777778,4,2,2,5,0,0
106238,-222.222222222222,4,2,2,18,0,0
106355,-222.222222222222,4,2,2,5,0,0
106824,-222.222222222222,4,2,2,15,0,0
107410,-277.777777777778,4,2,2,18,0,0
107527,-277.777777777778,4,2,2,5,0,0
108113,-222.222222222222,4,2,2,18,0,0
108230,-222.222222222222,4,2,2,5,0,0
108699,-222.222222222222,4,2,2,15,0,0
109285,-277.777777777778,4,2,2,18,0,0
109402,-277.777777777778,4,2,2,5,0,0
109988,-222.222222222222,4,2,2,18,0,0
110105,-222.222222222222,4,2,2,5,0,0
110574,-222.222222222222,4,2,2,15,0,0
111160,-277.777777777778,4,2,2,35,0,0
111277,-277.777777777778,4,2,2,5,0,0
111863,-222.222222222222,4,2,2,45,0,0
111980,-222.222222222222,4,2,2,5,0,0
112566,-117.647058823529,4,2,2,55,0,0
113035,-68.9655172413792,4,2,0,68,0,0
119597,-86.9565217391304,4,2,0,68,0,0
120066,-117.647058823529,4,2,0,68,0,0
120535,-133.333333333333,4,2,0,68,0,0
121472,-105.263157894737,4,2,0,68,0,0
122410,-86.9565217391304,4,2,0,68,0,0
123347,-74.0740740740741,4,2,0,68,0,0
124285,-68.9655172413793,4,2,0,68,0,0
127566,-46.5116279069767,4,2,0,68,0,0
128035,-125,4,2,0,68,0,0
133660,-100,4,2,0,68,0,0
134128,-125,4,2,0,68,0,0
134597,-64.5161290322581,4,2,0,68,0,0
135066,-125,4,2,0,68,0,0
135535,-52.6315789473684,4,2,0,68,0,0
136003,-125,4,2,0,68,0,0
138347,-74.0740740740741,4,2,0,68,0,0
138816,-57.1428571428571,4,2,0,68,0,0
139285,-74.0740740740741,4,2,0,68,0,0
142097,-100,4,2,0,68,0,0
143035,-60.6060606060606,4,2,0,68,0,0
147605,-55.5555555555556,4,2,0,68,0,0
147956,-60.6060606060606,4,2,0,68,0,0
149949,-51.2820512820513,4,2,0,68,0,0
150300,-44.4444444444445,4,2,0,68,0,0
150535,-60.6060606060606,4,2,0,68,0,0
157097,-54.054054054054,4,2,0,68,0,0
157449,-68.9655172413793,4,2,0,68,0,0
157800,-95.2380952380952,4,2,0,68,0,0
158035,-60.6060606060606,4,2,0,68,0,0
173035,-153.846153846154,4,2,0,68,0,0
180535,-142.857142857143,4,2,0,68,0,0
181472,-142.857142857143,4,2,0,73,0,0
182410,-105.263157894737,4,2,0,78,0,0
183347,-105.263157894737,4,2,0,83,0,0
184285,-83.3333333333333,4,2,0,88,0,0
185222,-83.3333333333333,4,2,0,93,0,0
186160,-68.9655172413793,4,2,0,98,0,0
186628,-60.6060606060606,4,2,0,98,0,0
187097,-54.054054054054,4,2,0,100,0,0
187566,-48.780487804878,4,2,0,100,0,0
188035,-100,4,2,0,48,0,0
189910,-60.6060606060606,4,2,0,100,0,1
193660,-54.054054054054,4,2,0,100,0,1
194128,-68.9655172413793,4,2,0,100,0,1
194597,-54.054054054054,4,2,0,100,0,1
195066,-68.9655172413793,4,2,0,100,0,1
195535,-54.054054054054,4,2,0,100,0,1
196003,-60.6060606060606,4,2,0,100,0,1
197410,-54.054054054054,4,2,0,100,0,1
197878,-68.9655172413793,4,2,0,100,0,1
198347,-60.6060606060606,4,2,0,100,0,1
203503,-117.647058823529,4,2,0,68,0,1
203972,-60.6060606060606,4,2,0,100,0,1
208660,-54.054054054054,4,2,0,100,0,1
209128,-68.9655172413793,4,2,0,100,0,1
209597,-54.054054054054,4,2,0,100,0,1
210066,-68.9655172413793,4,2,0,100,0,1
210535,-54.054054054054,4,2,0,100,0,1
211003,-68.9655172413793,4,2,0,100,0,1
211472,-60.6060606060606,4,2,0,100,0,1
212410,-54.054054054054,4,2,0,100,0,1
212878,-60.6060606060606,4,2,0,100,0,1
218503,-117.647058823529,4,2,0,68,0,1
218972,-60.6060606060606,4,2,0,68,0,1
219910,-60.6060606060606,4,2,0,68,0,0
222253,-60.6060606060606,4,2,0,68,0,0
223660,-68.9655172413793,4,2,0,68,0,1
224128,-117.647058823529,4,2,0,68,0,1
224597,-60.6060606060606,4,2,0,68,0,1
225066,-95.2380952380952,4,2,0,68,0,1
225535,-54.054054054054,4,2,0,68,0,1
226003,-80,4,2,0,68,0,1
226472,-48.780487804878,4,2,0,68,0,1
227410,-60.6060606060606,4,2,0,68,0,0
230222,-60.6060606060606,4,2,0,68,0,1
232917,-60.6060606060606,4,2,0,68,0,0
233503,-68.9655172413793,4,2,2,28,0,0
233972,-86.9565217391304,4,2,2,28,0,0
234324,-117.647058823529,4,2,2,28,0,0
234675,-153.846153846153,4,2,2,28,0,0
234910,-133.333333333333,4,2,2,5,0,0

[Colours]
Combo1 : 191,63,0
Combo2 : 185,220,255
Combo3 : 0,64,128
Combo4 : 255,238,185
Combo5 : 255,192,0
Combo6 : 208,208,232
Combo7 : 49,49,100
Combo8 : 255,207,185

[HitObjects]
69,56,535,6,0,P|129:58|193:35,1,128,4|2,3:2|3:2,0:0:0:0:
223,19,1120,1,0,0:0:0:0:
258,20,1238,1,0,0:0:0:0:
284,43,1355,1,0,0:0:0:0:
293,76,1472,2,0,B|292:101|292:101|277:121,3,32,2|0|2|2,3:2|0:0|0:0|0:0,0:0:0:0:
384,160,1941,5,0,0:0:0:0:
375,194,2058,2,0,B|367:212|367:212|336:222,2,32,0|2|0,0:0|0:0|0:0,0:0:0:0:
244,231,2410,6,0,L|286:238,3,32,2|0|0|0,3:2|0:0|0:0|0:0,0:0:0:0:
182,273,2878,2,0,L|229:266,3,32,2|0|0|0,3:2|0:0|0:0|0:0,0:0:0:0:
159,352,3347,6,0,P|140:346|119:322,1,32,2|0,3:2|0:0,0:0:0:0:
28,303,3581,2,0,P|20:284|19:260,1,32,2|2,0:0|0:0,0:0:0:0:
13,168,3816,5,0,0:0:0:0:
3,134,3933,2,0,B|4:115|4:115|19:95,2,32,0|2|0,0:0|0:0|0:0,0:0:0:0:
131,147,4285,5,2,3:2:0:0:
160,127,4402,2,0,B|177:118|177:118|200:122,2,32,0|0|0,0:0|0:0|0:0,0:0:0:0:
311,122,4753,6,0,L|265:127,1,32,2|0,3:2|0:0,0:0:0:0:
246,199,4988,2,0,L|306:208,1,32,0|0,0:0|0:0,0:0:0:0:
250,279,5222,6,0,L|210:285,3,32,2|0|2|2,3:2|0:0|0:0|0:0,0:0:0:0:
425,322,5691,5,0,0:0:0:0:
394,338,5808,2,0,L|357:331,2,32,0|2|0,0:0|0:0|0:0,0:0:0:0:
480,238,6160,6,0,P|429:220|398:149,1,120,6|0,3:2|0:0,0:0:0:0:
355,79,6628,6,0,P|332:93|322:124,1,32,0|0,3:0|0:0,0:0:0:0:
471,125,6863,2,0,P|458:117|443:95,1,32,0|0,0:0|0:0,0:0:0:0:
359,198,7097,6,0,P|281:187|213:290,1,180.000006866455,6|0,3:2|0:0,0:0:0:0:
117,208,7566,6,0,P|137:211|163:202,1,32,0|0,3:0|3:0,0:0:0:0:
287,289,7800,2,0,P|285:312|295:344,1,32,8|8,3:0|3:0,0:0:0:0:
163,344,8035,6,0,P|112:362|49:352,1,96,0|0,0:0|0:0,0:0:0:0:
10,288,8503,6,0,B|84:258|163:288|103:302|207:337|288:288,1,287.999991210938,6|2,3:2|3:2,0:0:0:0:
306,278,9089,1,0,0:0:0:0:
334,272,9206,1,2,0:0:0:0:
375,283,9324,1,0,0:0:0:0:
409,328,9441,6,0,P|399:289|406:256,1,71.9999978027344,6|0,3:2|0:0,0:0:0:0:
470,128,9675,2,0,P|483:162|482:205,1,71.9999978027344,0|0,0:0|0:0,0:0:0:0:
284,155,9910,5,2,3:2:0:0:
293,124,10027,1,0,0:0:0:0:
312,98,10144,1,2,0:0:0:0:
340,84,10261,1,2,0:0:0:0:
350,85,10378,6,0,P|315:71|287:52,1,55.9999982910157,2|0,3:2|0:0,0:0:0:0:
230,171,10613,2,0,P|256:160|289:154,1,55.9999982910157,0|0,0:0|0:0,0:0:0:0:
142,219,10847,6,0,P|177:146|172:60,1,167.999994873047,6|0,3:2|0:0,0:0:0:0:
80,167,11316,2,0,P|125:233|202:272,1,167.999994873047,6|0,3:2|0:0,0:0:0:0:
154,138,11785,2,0,P|73:144|1:191,1,167.999994873047,6|0,3:2|0:0,0:0:0:0:
245,195,12253,6,0,P|273:197|304:208,1,55.9999982910157,2|0,3:2|0:0,0:0:0:0:
300,216,12488,2,0,P|272:214|241:203,1,55.9999982910157,2|2,0:0|0:0,0:0:0:0:
377,192,12722,6,0,P|377:225|366:263,1,64,2|0,3:2|0:0,0:0:0:0:
166,206,12956,2,0,P|170:173|190:138,1,64,2|0,3:2|0:0,0:0:0:0:
295,115,13191,6,0,B|283:193|275:159|261:251,1,128,2|0,3:2|0:0,0:0:0:0:
244,325,13542,1,0,0:0:0:0:
246,312,13660,6,0,B|321:176|221:230|312:76,1,240,6|0,3:2|0:0,0:0:0:0:
255,68,14128,6,0,P|309:39|356:56,1,113.999996955872,8|0,3:0|0:0,0:0:0:0:
437,25,14597,6,0,B|460:46|490:46|490:46|476:73|482:108,1,116.000003540039,6|0,3:2|0:0,0:0:0:0:
425,188,14949,5,2,0:0:0:0:
436,214,15066,2,0,P|391:204|406:283,1,136.000002593994,6|2,3:2|0:0,0:0:0:0:
413,283,15417,5,0,0:0:0:0:
413,283,15535,1,6,3:2:0:0:
72,280,19285,6,0,L|82:367,1,80,4|0,0:0|0:0,0:0:0:0:
175,244,19753,2,0,L|178:338,1,80,0|0,0:0|0:0,0:0:0:0:
285,215,20222,2,0,L|276:310,1,80,2|2,0:0|0:0,0:0:0:0:
284,307,20574,1,2,0:0:0:0:
292,316,20691,6,0,L|383:308,1,80,0|2,0:0|0:0,0:0:0:0:
498,243,21160,2,0,L|408:237,1,80,0|0,0:0|0:0,0:0:0:0:
244,174,21628,6,0,P|287:171|325:153,1,80,0|2,0:0|0:0,0:0:0:0:
466,113,22097,2,0,P|428:102|389:71,1,80,0|0,0:0|0:0,0:0:0:0:
286,42,22566,2,0,P|298:26|306:1,2,40,2|0|0,0:0|0:0|0:0,0:0:0:0:
73,67,23035,6,0,P|112:76|135:108,1,80,0|0,0:0|0:0,0:0:0:0:
262,174,23503,2,0,P|219:179|180:218,1,80,0|0,0:0|0:0,0:0:0:0:
21,277,23972,2,0,P|59:266|122:277,1,80,0|2,0:0|0:0,0:0:0:0:
109,276,24324,1,0,0:0:0:0:
118,284,24441,2,0,P|111:326|107:378,1,80,0|2,0:0|0:0,0:0:0:0:
333,209,24910,5,0,0:0:0:0:
364,302,25144,1,0,0:0:0:0:
429,227,25378,5,0,0:0:0:0:
432,135,25613,1,2,0:0:0:0:
335,300,25847,5,0,0:0:0:0:
316,191,26081,1,0,0:0:0:0:
296,81,26316,1,2,0:0:0:0:
223,125,26550,1,0,0:0:0:0:
254,264,26785,5,2,0:0:0:0:
285,185,27019,1,0,0:0:0:0:
361,359,27253,5,0,0:0:0:0:
340,275,27488,1,0,0:0:0:0:
502,365,27722,5,2,0:0:0:0:
434,313,27956,1,0,0:0:0:0:
436,305,28074,1,2,0:0:0:0:
437,297,28191,1,2,0:0:0:0:
453,213,28425,1,0,0:0:0:0:
460,297,28660,5,0,0:0:0:0:
460,225,28894,1,0,0:0:0:0:
449,288,29128,5,0,0:0:0:0:
377,173,29363,1,0,0:0:0:0:
477,54,29597,2,0,L|396:64,1,80,0|0,0:0|0:0,0:0:0:0:
193,245,30066,2,0,L|274:235,1,80,2|0,0:0|0:0,0:0:0:0:
360,247,30535,5,0,0:0:0:0:
423,186,30769,1,0,0:0:0:0:
420,98,31003,1,0,0:0:0:0:
344,52,31238,1,0,0:0:0:0:
267,161,31472,6,0,L|261:82,1,80,0|0,0:0|0:0,0:0:0:0:
179,130,31941,2,0,L|173:51,1,80,2|0,0:0|0:0,0:0:0:0:
112,188,32410,5,0,0:0:0:0:
90,111,32644,1,2,0:0:0:0:
33,199,32878,1,0,0:0:0:0:
81,263,33113,1,2,0:0:0:0:
160,255,33347,1,8,3:0:0:0:
186,262,33464,1,8,3:0:0:0:
205,282,33581,1,0,1:0:0:0:
207,310,33699,1,8,3:0:0:0:
189,295,33816,5,8,3:0:0:0:
235,282,33933,1,8,3:0:0:0:
268,247,34050,1,8,3:0:0:0:
275,199,34167,1,8,3:0:0:0:
234,170,34285,6,0,P|198:138|224:77,1,120,6|0,3:2|0:0,0:0:0:0:
295,15,34753,2,0,P|265:64|193:39,1,120,2|0,1:2|0:0,0:0:0:0:
89,34,35222,2,0,P|101:47|117:85,1,40,2|0,3:2|0:0,0:0:0:0:
58,160,35456,2,0,P|51:141|40:124,1,40
147,226,35691,6,0,P|108:234|74:272,1,80,2|0,1:2|0:0,0:0:0:0:
72,300,36042,1,2,0:0:0:0:
88,336,36160,2,0,P|120:355|167:354,1,80,0|0,3:0|0:0,0:0:0:0:
225,282,36628,5,2,1:2:0:0:
382,278,36863,1,0,0:0:0:0:
378,250,36980,1,0,0:0:0:0:
365,225,37097,2,0,P|333:206|286:207,1,80,2|2,3:2|0:0,0:0:0:0:
229,168,37449,5,2,0:0:0:0:
229,168,37566,2,0,P|226:140|234:111,1,40,0|0,1:2|0:0,0:0:0:0:
231,46,37800,2,0,P|256:57|277:78,1,40,0|0,0:0|0:0,0:0:0:0:
305,134,38035,6,0,P|340:94|334:21,1,120,6|0,3:2|0:0,0:0:0:0:
155,16,38503,5,0,1:0:0:0:
148,38,38620,1,0,0:0:0:0:
146,61,38738,1,0,0:0:0:0:
153,83,38855,1,0,0:0:0:0:
164,100,38972,6,0,B|175:112|189:117|189:117|101:115|86:198,1,174.000005310059,6|0,3:2|0:0,0:0:0:0:
8,225,39441,2,0,P|72:237|91:280,1,116.000003540039,2|2,1:2|0:0,0:0:0:0:
32,363,39792,1,2,0:0:0:0:
45,362,39910,6,0,L|168:352,1,116.000003540039,6|0,3:2|0:0,0:0:0:0:
354,331,40378,1,0,1:0:0:0:
258,257,40613,2,0,P|257:286|267:313,1,58.0000017700196,0|0,0:0|0:0,0:0:0:0:
346,239,40847,6,0,P|260:193|285:128,1,174.000005310059,6|0,3:2|0:0,0:0:0:0:
261,39,41316,6,0,P|299:121|372:102,1,174.000005310059,6|0,1:2|0:0,0:0:0:0:
385,231,41785,6,0,B|397:199|408:180|408:180|353:219|271:202,1,174.000005310059,6|0,3:2|0:0,0:0:0:0:
183,86,42253,2,0,P|228:108|303:100,1,116.000003540039,0|0,1:0|0:0,0:0:0:0:
394,53,42605,5,0,0:0:0:0:
415,39,42722,2,0,B|416:64|436:87|436:87|449:82|449:82|496:94|505:140|464:181,1,174.000005310059,0|0,3:0|0:0,0:0:0:0:
481,256,43191,2,0,B|452:277|417:272|417:272|424:295|412:320,1,116.000003540039,0|2,1:0|0:0,0:0:0:0:
377,312,43542,1,0,0:0:0:0:
408,345,43660,5,2,3:2:0:0:
368,335,43777,1,0,0:0:0:0:
328,343,43894,1,2,0:0:0:0:
298,371,44011,1,2,0:0:0:0:
264,348,44128,6,0,B|192:338|225:365|148:354,1,116.000003540039,0|0,1:0|0:0,0:0:0:0:
119,326,44480,1,0,0:0:0:0:
132,287,44597,2,0,B|62:292|92:270|18:279,1,116.000003540039,6|0,3:2|0:0,0:0:0:0:
148,171,45066,2,0,B|232:181|186:161|263:168,1,116.000003540039,6|0,1:2|0:0,0:0:0:0:
232,248,45535,5,6,3:2:0:0:
291,307,45769,1,0,0:0:0:0:
332,130,46003,2,0,B|349:167|333:204|333:204|340:252,1,116.000003540039,2|2,1:2|0:0,0:0:0:0:
400,318,46355,5,2,0:0:0:0:
416,301,46472,2,0,P|434:254|415:187,1,116.000003540039,6|0,3:2|0:0,0:0:0:0:
265,59,46941,2,0,P|247:106|266:173,1,116.000003540039,0|0,1:0|0:0,0:0:0:0:
314,230,47292,6,0,L|353:223,1,30.0000011444092
416,301,47527,6,0,P|380:289|394:333,1,102.000001945496,2|0,0:0|1:0,0:0:0:0:
358,363,47995,1,0,0:0:0:0:
324,339,48113,1,0,0:0:0:0:
289,360,48230,1,0,0:0:0:0:
270,323,48347,6,0,P|190:310|163:387,1,174.000005310059,4|0,0:0|0:0,0:0:0:0:
194,308,48816,6,0,P|165:243|72:258,1,174.000005310059,6|0,1:2|0:0,0:0:0:0:
0,315,49285,6,0,B|6:283|6:283|1:252|1:252|11:210,1,103.999995239258,0|0,3:0|0:0,0:0:0:0:
28,107,49988,1,0,0:0:0:0:
137,67,50222,6,0,B|144:117|190:137|190:137|186:73|249:49|249:49|239:75|246:93,1,240.000009155274,0|0,1:0|0:0,0:0:0:0:
336,85,51628,1,0,3:0:0:0:
406,28,52097,1,0,1:0:0:0:
456,172,52566,1,0,0:0:0:0:
366,172,53035,1,0,3:0:0:0:
498,250,53503,6,0,B|454:276|437:240|395:270,2,103.999995239258,0|0|0,0:0|1:0|0:0,0:0:0:0:
331,353,54910,2,0,P|280:360|235:331,1,103.999995239258,0|0,0:0|3:0,0:0:0:0:
88,327,55730,6,0,L|93:313,1,12.9999994049073,8|8,3:0|3:0,0:0:0:0:
88,327,55847,2,0,P|62:294|63:244,1,86.6666626993817,0|0,1:0|0:0,0:0:0:0:
170,148,56433,2,0,P|171:131|171:102,2,25.9999988098145,0|0|0,3:0|3:0|3:0,0:0:0:0:
212,145,56785,6,0,P|247:166|281:170,1,55.9999982910157,6|0,3:2|0:0,0:0:0:0:
429,202,57253,2,0,P|389:168|382:148,1,55.9999982910157,2|0,3:2|0:0,0:0:0:0:
298,53,57722,2,0,P|327:63|361:48,1,55.9999982910157,2|0,3:2|0:0,0:0:0:0:
365,48,58074,1,0,0:0:0:0:
379,39,58191,2,0,P|408:43|439:64,1,55.9999982910157,0|2,3:0|0:0,0:0:0:0:
432,254,58660,6,0,P|428:215|438:177,1,75.9999979705811,6|0,3:2|0:0,0:0:0:0:
296,262,59128,2,0,P|305:304|329:344,1,75.9999979705811,2|0,3:2|0:0,0:0:0:0:
149,234,59597,2,0,P|174:202|222:173,1,75.9999979705811,2|0,3:2|0:0,0:0:0:0:
73,206,59949,1,0,0:0:0:0:
60,192,60066,2,0,P|44:153|48:109,1,75.9999979705811,2|0,3:2|0:0,0:0:0:0:
227,37,60535,6,0,B|311:-11|344:177|298:68|372:78,1,143.999995605469,6|0,3:2|0:0,0:0:0:0:
431,124,61003,2,0,B|458:61|438:223|537:100|427:251,1,143.999995605469,2|0,3:2|0:0,0:0:0:0:
380,336,61472,2,0,B|481:319|310:368|325:234,1,143.999995605469,2|0,3:2|0:0,0:0:0:0:
252,200,61941,2,0,B|169:266|202:153|99:270,1,143.999995605469,2|0,3:2|0:0,0:0:0:0:
62,318,62410,5,0,3:0:0:0:
193,95,62761,1,0,0:0:0:0:
407,243,63113,1,0,0:0:0:0:
281,212,63347,5,8,3:0:0:0:
282,177,63464,1,8,3:0:0:0:
302,149,63581,1,0,1:0:0:0:
335,137,63699,1,0,3:0:0:0:
359,97,63816,5,8,3:0:0:0:
391,84,63933,1,8,3:0:0:0:
424,94,64050,1,8,3:0:0:0:
449,117,64167,1,0,3:0:0:0:
502,116,64285,6,0,B|477:193|506:181|478:262,1,132.00000125885,4|0,3:2|0:0,0:0:0:0:
420,350,64636,1,0,0:0:0:0:
389,367,64753,2,0,P|355:364|329:342,1,66.0000006294251,2|0,1:2|0:0,0:0:0:0:
226,285,64988,2,0,B|206:303|210:326|210:326|219:305|234:301,1,66.0000006294251,2|0,0:0|0:0,0:0:0:0:
297,167,65222,6,0,B|287:179|271:188|271:188|304:189|335:171|355:137,1,132.00000125885,2|2,3:2|0:0,0:0:0:0:
418,57,65574,1,2,0:0:0:0:
447,51,65691,2,0,P|398:13|332:27,1,132.00000125885,0|2,1:0|0:0,0:0:0:0:
232,109,66042,1,0,0:0:0:0:
233,79,66160,6,0,P|206:27|138:13,1,132.00000125885,2|2,3:2|0:0,0:0:0:0:
71,123,66511,1,2,0:0:0:0:
45,109,66628,2,0,P|74:172|86:234,1,132.00000125885,0|2,1:0|0:0,0:0:0:0:
107,323,66980,1,0,0:0:0:0:
83,340,67097,6,0,P|120:342|153:356,1,66.0000006294251,2|2,3:2|0:0,0:0:0:0:
187,268,67331,2,0,P|222:268|256:256,1,66.0000006294251,2|2,0:0|0:0,0:0:0:0:
329,345,67566,2,0,P|361:358|386:386,1,66.0000006294251,2|2,1:2|0:0,0:0:0:0:
420,242,67800,2,0,P|445:216|456:172,1,66.0000006294251,2|2,0:0|0:0,0:0:0:0:
467,325,68035,6,0,B|420:324|426:272|362:266|362:266|384:161|346:165,1,221.999999153137,6|0,3:2|0:0,0:0:0:0:
292,94,68503,2,0,B|300:72|300:72|262:85|262:85|278:157,1,116.000003540039,2|0,1:2|0:0,0:0:0:0:
220,231,68855,1,2,0:0:0:0:
234,261,68972,6,0,B|219:327|150:320|150:320|162:252|106:225,1,221.999999153137,6|0,3:2|0:0,0:0:0:0:
7,118,69441,2,0,B|-4:169|-4:169|15:174|33:182|33:182|25:160,1,116.000003540039,2|0,1:2|0:0,0:0:0:0:
173,24,69792,1,2,0:0:0:0:
143,12,69910,6,0,P|90:88|181:93,1,221.999999153137,6|0,3:2|0:0,0:0:0:0:
390,51,70378,6,0,P|357:31|327:28,1,66.0000006294251,2|0,1:2|0:0,0:0:0:0:
305,169,70613,2,0,P|296:138|266:104,1,66.0000006294251,0|2,0:0|0:0,0:0:0:0:
181,95,70847,6,0,P|154:117|134:155,1,66.0000006294251,6|0,3:2|0:0,0:0:0:0:
383,251,71081,2,0,P|388:218|383:184,1,66.0000006294251
221,234,71316,6,0,P|210:268|181:294,1,66.0000006294251,6|0,1:2|0:0,0:0:0:0:
20,264,71550,1,0,0:0:0:0:
49,295,71667,1,0,0:0:0:0:
46,338,71785,6,0,P|139:330|64:364,1,221.999999153137,6|0,3:2|0:0,0:0:0:0:
257,341,72253,6,0,P|225:305|303:307,1,174.000005310059,2|0,1:2|0:0,0:0:0:0:
475,288,72722,6,0,B|467:319|463:337|463:337|464:322|462:312,1,66.0000006294251,2|2,3:2|0:0,0:0:0:0:
427,225,72898,1,2,0:0:0:0:
427,225,72956,2,0,B|436:254|438:280|438:280|440:266|442:259,1,66.0000006294251,2|2,0:0|0:0,0:0:0:0:
508,90,73191,2,0,L|503:231,1,132.00000125885,0|2,1:0|0:0,0:0:0:0:
289,114,73660,6,0,P|315:92|353:90,1,66.0000006294251,2|0,3:2|0:0,0:0:0:0:
224,80,73894,2,0,P|235:49|223:20,1,66.0000006294251,0|2,0:0|0:0,0:0:0:0:
21,76,74128,2,0,B|87:67|87:67|84:64|84:64|149:55,1,132.00000125885,0|2,1:0|0:0,0:0:0:0:
141,82,74480,1,0,0:0:0:0:
144,109,74597,6,0,P|158:141|194:160,1,66.0000006294251,6|0,3:2|0:0,0:0:0:0:
357,168,74831,2,0,P|341:205|310:228,1,66.0000006294251,0|0,0:0|0:0,0:0:0:0:
225,327,75066,6,0,P|168:314|98:340,1,132.00000125885,6|0,1:2|0:0,0:0:0:0:
16,277,75417,1,0,0:0:0:0:
5,250,75535,2,0,P|26:206|123:223,1,132.00000125885,6|0,3:2|0:0,0:0:0:0:
364,295,76003,6,0,B|440:302|457:226|457:226|450:216|450:216|455:210|455:210|447:203|447:203|455:173|449:151,1,198.000001888275,2|0,1:2|0:0,0:0:0:0:
363,122,76472,6,0,B|341:97|295:92|295:92|331:99|375:100|427:73,1,198.000001888275,6|2,3:2|0:0,0:0:0:0:
213,26,76941,6,0,P|135:34|84:70,1,132.00000125885,0|2,1:0|0:0,0:0:0:0:
97,114,77292,1,2,0:0:0:0:
55,145,77410,5,6,3:2:0:0:
41,159,77527,1,0,0:0:0:0:
36,178,77644,1,0,0:0:0:0:
41,198,77761,1,0,0:0:0:0:
10,235,77878,6,0,P|65:238|91:273,1,102.000001945496,2|0,1:2|0:0,0:0:0:0:
170,348,78347,6,0,P|201:337|250:332,3,66.0000006294251,6|0|0|2,3:2|0:0|0:0|0:0,0:0:0:0:
374,355,78816,2,0,P|409:362|453:384,3,66.0000006294251,2|0|2|0,3:0|0:0|0:0|0:0,0:0:0:0:
446,223,79285,5,8,3:0:0:0:
430,172,79402,1,8,3:0:0:0:
455,147,79519,5,8,3:0:0:0:
452,94,79636,1,8,3:0:0:0:
477,69,79753,6,0,P|377:44|332:133,1,198.000001888275,2|0,1:2|0:0,0:0:0:0:
259,232,80222,2,0,P|245:207|241:171,1,66.0000006294251,2|0,3:2|0:0,0:0:0:0:
113,10,80456,5,2,0:0:0:0:
105,30,80574,1,2,0:0:0:0:
108,51,80691,2,0,B|113:73|129:88|129:88|129:68|119:58,1,66.0000006294251,0|0,1:0|0:0,0:0:0:0:
86,229,80925,2,0,B|110:221|115:202|115:202|104:216|87:219,1,66.0000006294251,2|0,0:0|0:0,0:0:0:0:
29,364,81160,5,0,3:0:0:0:
61,351,81277,1,0,0:0:0:0:
92,372,81394,1,2,0:0:0:0:
119,372,81511,1,2,0:0:0:0:
156,335,81628,6,0,P|185:347|226:345,1,66.0000006294251,0|0,1:0|0:0,0:0:0:0:
349,309,81863,2,0,B|327:292|333:264|333:264|335:278|351:290,1,66.0000006294251,2|0,0:0|0:0,0:0:0:0:
503,275,82097,6,0,B|511:286|510:303|510:303|531:250|495:204,1,132.00000125885,2|2,3:2|0:0,0:0:0:0:
411,104,82449,1,2,0:0:0:0:
399,131,82566,2,0,B|410:190|410:190|407:196|407:196|420:260,1,132.00000125885,2|2,1:2|0:0,0:0:0:0:
427,289,82917,1,2,0:0:0:0:
433,260,83035,6,0,B|423:207|423:207|411:211|411:211|321:215|368:189|255:194,1,221.999999153137,6|0,3:2|0:0,0:0:0:0:
114,206,83503,2,0,P|77:242|82:303,1,116.000003540039,2|0,1:2|0:0,0:0:0:0:
96,324,83855,1,2,0:0:0:0:
120,341,83972,6,0,B|229:397|289:261|213:230|175:270,1,221.999999153137,6|0,3:2|0:0,0:0:0:0:
334,119,84441,2,0,P|325:54|275:33,1,116.000003540039,2|0,1:2|0:0,0:0:0:0:
251,33,84792,1,2,0:0:0:0:
222,49,84910,6,0,P|215:154|315:153,1,221.999999153137,6|0,3:2|0:0,0:0:0:0:
455,297,85378,2,0,P|406:274|342:285,1,116.000003540039,2|2,1:2|0:0,0:0:0:0:
325,308,85730,1,2,0:0:0:0:
356,315,85847,6,0,P|402:268|417:200,1,132.00000125885,6|2,3:2|0:0,0:0:0:0:
467,84,86199,1,0,0:0:0:0:
449,61,86316,2,0,B|372:42|427:7|322:7,1,132.00000125885,6|2,1:2|0:0,0:0:0:0:
187,75,86667,1,0,0:0:0:0:
170,51,86785,6,0,B|137:96|49:57|54:-48|119:38|58:113|7:104,1,221.999999153137,6|0,3:2|0:0,0:0:0:0:
39,273,87253,2,0,P|59:242|71:202,1,66.0000006294251,2|0,1:2|0:0,0:0:0:0:
179,352,87488,2,0,P|162:318|158:274,1,66.0000006294251,2|0,0:0|0:0,0:0:0:0:
291,333,87722,5,2,3:2:0:0:
313,353,87839,2,0,P|343:364|380:362,2,66.0000006294251,2|2|0,0:0|0:0|0:0,0:0:0:0:
507,231,88191,2,0,B|489:272|452:285|452:285|471:257|468:228,1,132.00000125885,2|2,1:2|0:0,0:0:0:0:
275,218,88660,5,2,3:2:0:0:
241,182,88777,1,2,0:0:0:0:
272,157,88894,1,2,0:0:0:0:
265,127,89011,1,2,0:0:0:0:
286,108,89128,2,0,P|291:71|315:42,1,66.0000006294251,2|0,1:2|0:0,0:0:0:0:
391,81,89363,2,0,P|386:118|362:147,1,66.0000006294251,2|0,0:0|0:0,0:0:0:0:
161,135,89597,6,0,B|134:81|177:44|177:44|184:65|204:63,1,132.00000125885,6|0,3:2|0:0,0:0:0:0:
245,271,89949,2,0,B|293:287|341:262|341:262|327:286|282:282,1,132.00000125885,2|0,3:2|0:0,0:0:0:0:
85,315,90300,5,2,3:2:0:0:
63,290,90417,1,0,0:0:0:0:
30,285,90535,2,0,B|32:253|32:253|38:246|38:246|45:213,1,66.0000006294251,6|0,3:2|0:0,0:0:0:0:
175,224,90769,2,0,B|184:193|184:193|183:185|183:185|194:150,1,66.0000006294251
326,201,91003,5,0,1:0:0:0:
338,161,91120,1,0,0:0:0:0:
423,150,91238,5,2,0:0:0:0:
410,191,91355,1,2,0:0:0:0:
483,104,91472,6,0,B|493:56|442:17|401:37|401:37|378:73|341:63,1,198.000001888275,0|0,3:0|0:0,0:0:0:0:
268,76,91941,2,0,P|229:25|158:33,1,132.00000125885,2|2,1:2|0:0,0:0:0:0:
144,60,92292,1,2,0:0:0:0:
104,61,92410,6,0,B|137:197|87:116|122:259,1,198.000001888275,6|0,3:2|0:0,0:0:0:0:
54,282,92878,6,0,P|103:291|115:346,1,102.000001945496,2|0,1:2|0:0,0:0:0:0:
223,363,93347,6,0,P|219:298|276:262,1,132.00000125885,6|0,3:2|0:0,0:0:0:0:
347,274,93699,1,2,0:0:0:0:
415,317,93816,2,0,B|392:222|426:275|399:166,1,132.00000125885,4|2,1:2|0:0,0:0:0:0:
486,44,94285,1,8,3:0:0:0:
324,170,96628,5,2,0:0:0:0:
257,113,97097,2,0,L|240:238,1,120,2|0,0:0|0:0,0:0:0:0:
240,231,97800,1,0,0:0:0:0:
294,77,98035,6,0,P|268:78|242:97,1,57.60000140625,8|0,0:3|0:0,0:0:0:0:
158,68,98738,2,0,P|172:100|167:138,1,71.9999978027344,4|0,0:3|0:0,0:0:0:0:
107,188,99441,1,0,0:0:0:0:
107,188,99675,1,0,0:0:0:0:
90,320,99910,6,0,P|64:305|28:305,1,57.60000140625,8|0,0:3|0:0,0:0:0:0:
149,377,100613,2,0,P|178:358|195:325,1,71.9999978027344,4|0,0:3|0:0,0:0:0:0:
202,234,101316,1,0,0:0:0:0:
202,234,101550,1,0,0:0:0:0:
356,281,101785,6,0,P|359:310|370:346,1,57.60000140625,8|0,0:3|0:0,0:0:0:0:
451,182,102488,2,0,P|446:219|435:252,1,71.9999978027344,4|0,0:3|0:0,0:0:0:0:
318,285,103191,1,0,0:0:0:0:
361,214,103425,1,0,0:0:0:0:
227,170,103660,6,0,P|256:171|290:177,1,57.60000140625,8|0,0:3|0:0,0:0:0:0:
240,245,104363,6,0,P|204:251|157:254,1,71.9999978027344,4|0,0:3|0:0,0:0:0:0:
281,98,105066,2,0,P|333:89|384:86,1,102.000001945496,2|0,0:0|0:0,0:0:0:0:
284,175,105535,6,0,P|255:170|227:170,1,57.60000140625,8|0,0:3|0:0,0:0:0:0:
199,56,106238,2,0,P|162:59|122:68,1,71.9999978027344,4|0,0:3|0:0,0:0:0:0:
211,67,106941,2,0,L|166:71,1,35.9999989013672,0|0,0:0|0:0,0:0:0:0:
322,114,107410,6,0,P|351:113|381:108,1,57.60000140625,8|0,0:3|0:0,0:0:0:0:
201,206,108113,2,0,P|236:208|272:213,1,71.9999978027344,4|0,0:3|0:0,0:0:0:0:
189,219,108816,2,0,L|228:222,1,35.9999989013672,0|0,0:0|0:0,0:0:0:0:
80,301,109285,6,0,P|48:299|13:295,1,57.60000140625,8|0,0:3|0:0,0:0:0:0:
215,347,109988,2,0,P|251:342|288:341,1,71.9999978027344,4|0,0:3|0:0,0:0:0:0:
227,324,110691,2,0,L|191:329,1,35.9999989013672,0|0,0:0|0:0,0:0:0:0:
338,115,111160,6,0,P|309:118|275:122,1,57.60000140625,8|0,0:3|0:0,0:0:0:0:
240,52,111863,2,0,P|207:56|165:62,1,71.9999978027344,4|0,0:3|0:0,0:0:0:0:
69,108,112566,6,0,L|68:149,1,34.0000006484985,4|0,0:3|0:0,0:0:0:0:
48,133,112800,2,0,L|55:180,1,34.0000006484985,0|0,0:0|0:0,0:0:0:0:
48,273,113035,5,6,3:2:0:0:
54,260,113152,2,0,P|103:229|163:242,1,116.000003540039,2|2,0:0|0:0,0:0:0:0:
232,220,113503,2,0,P|255:266|237:341,1,116.000003540039,0|2,3:0|0:0,0:0:0:0:
417,183,113972,5,2,3:2:0:0:
411,170,114089,2,0,P|362:139|302:152,1,116.000003540039,2|2,0:0|0:0,0:0:0:0:
474,260,114441,2,0,P|497:208|487:152,1,116.000003540039,0|2,3:2|0:0,0:0:0:0:
356,315,114910,5,2,3:2:0:0:
363,327,115027,2,0,P|306:336|241:348,1,116.000003540039,2|2,0:0|0:0,0:0:0:0:
188,294,115378,2,0,P|126:288|68:283,1,116.000003540039,0|2,3:0|0:0,0:0:0:0:
31,140,115847,5,2,3:2:0:0:
75,305,116081,1,2,0:0:0:0:
151,42,116316,5,2,3:2:0:0:
85,213,116550,1,2,0:0:0:0:
302,88,116785,5,2,3:2:0:0:
293,99,116902,2,0,B|264:123|264:123|162:114,1,116.000003540039,2|2,0:0|0:0,0:0:0:0:
82,84,117253,2,0,L|121:200,1,116.000003540039,0|2,3:0|0:0,0:0:0:0:
253,339,117722,5,2,3:2:0:0:
249,325,117839,2,0,L|210:209,1,116.000003540039,2|2,0:0|0:0,0:0:0:0:
324,213,118191,2,0,B|353:189|353:189|431:195,1,116.000003540039,0|2,3:0|0:0,0:0:0:0:
371,162,118542,1,0,0:0:0:0:
393,133,118660,6,0,P|379:62|282:40,1,174.000005310059,2|0,3:2|0:0,0:0:0:0:
143,39,119128,2,0,P|142:68|153:94,1,58.0000017700196,2|0,3:2|0:0,0:0:0:0:
225,186,119363,2,0,P|245:165|249:137,1,58.0000017700196,2|0,0:0|0:0,0:0:0:0:
70,175,119597,6,0,P|86:195|106:208,1,46.0000008773804,2|0,3:2|0:0,0:0:0:0:
187,322,119831,2,0,P|183:297|173:274,1,46.0000008773804,2|0,0:0|0:0,0:0:0:0:
86,324,120066,6,0,L|58:358,1,34.0000006484985,2|0,3:2|0:0,0:0:0:0:
303,352,120300,2,0,L|274:321,1,34.0000006484985,2|0,0:0|0:0,0:0:0:0:
456,203,120535,5,2,3:2:0:0:
440,223,120652,2,0,L|374:235,1,60.0000022888184,2|2,0:0|0:0,0:0:0:0:
341,252,121003,2,0,L|357:181,1,60.0000022888184,0|2,3:0|0:0,0:0:0:0:
333,343,121472,5,2,3:2:0:0:
307,370,121589,2,0,B|285:375|285:375|230:359,1,75.9999979705811,2|2,0:0|0:0,0:0:0:0:
189,371,121941,2,0,B|179:351|179:351|214:293,1,75.9999979705811,0|2,3:0|0:0,0:0:0:0:
25,219,122410,5,2,3:2:0:0:
24,175,122527,2,0,B|40:137|40:137|104:120,1,92.0000017547608,2|2,0:0|0:0,0:0:0:0:
125,90,122878,2,0,B|151:125|151:125|153:183,1,92.0000017547608,0|2,3:0|0:0,0:0:0:0:
364,14,123347,5,2,3:2:0:0:
374,59,123464,2,0,B|381:103|381:103|317:150,1,108.000000411987,2|2,0:0|0:0,0:0:0:0:
281,196,123816,2,0,B|241:187|241:187|224:114,1,108.000000411987,0|2,3:0|0:0,0:0:0:0:
440,260,124285,6,0,P|422:332|397:273,1,174.000005310059,2|0,3:2|0:0,0:0:0:0:
264,218,124753,6,0,P|329:189|287:244,1,174.000005310059,2|0,3:2|0:0,0:0:0:0:
172,339,125222,6,0,P|200:291|188:235,1,116.000003540039,2|0,3:2|0:0,0:0:0:0:
20,183,125574,1,0,0:0:0:0:
24,213,125691,2,0,B|59:267|82:221|120:280,1,116.000003540039,2|2,3:2|0:0,0:0:0:0:
287,233,126160,5,2,3:2:0:0:
320,207,126277,1,0,0:0:0:0:
330,171,126394,1,0,0:0:0:0:
328,142,126511,1,0,0:0:0:0:
317,113,126628,6,0,P|289:119|264:139,1,58.0000017700196,2|0,3:2|0:0,0:0:0:0:
210,34,126863,2,0,P|240:38|265:53,1,58.0000017700196
458,18,127097,6,0,P|434:36|398:46,1,58.0000017700196,2|0,3:2|0:0,0:0:0:0:
372,112,127332,2,0,P|394:130|439:143,1,58.0000017700196,2|0,0:0|0:0,0:0:0:0:
348,197,127566,6,0,B|316:159|188:188|241:216|289:169|315:141|293:89,1,172.000002624512,6|2,1:2|0:0,0:0:0:0:
335,12,127917,1,0,0:0:0:0:
327,24,128035,6,0,B|271:29|271:29|265:33|265:33|221:36,1,96,2|0,3:2|0:0,0:0:0:0:
114,48,128503,5,2,3:2:0:0:
88,43,128620,1,0,0:0:0:0:
64,53,128738,1,0,0:0:0:0:
52,75,128855,1,0,0:0:0:0:
50,100,128972,6,0,L|55:148,1,32,2|0,3:2|0:0,0:0:0:0:
31,242,129206,2,0,L|72:214,1,32,2|2,0:0|0:0,0:0:0:0:
178,262,129441,5,0,0:0:0:0:
158,276,129558,2,0,L|143:328,2,32,0|2|0,0:0|0:0|0:0,0:0:0:0:
299,300,129910,5,2,3:2:0:0:
304,265,130027,1,0,0:0:0:0:
290,232,130144,1,0,0:0:0:0:
294,197,130261,1,0,0:0:0:0:
324,214,130378,1,2,3:2:0:0:
358,210,130495,1,0,0:0:0:0:
388,192,130613,1,0,0:0:0:0:
405,161,130730,1,0,0:0:0:0:
396,126,130847,6,0,P|387:101|384:77,1,32,2|0,3:2|0:0,0:0:0:0:
460,36,131082,2,0,P|479:32|500:25,1,32,2|2,0:0|0:0,0:0:0:0:
312,24,131316,5,0,0:0:0:0:
281,23,131433,2,0,B|263:22|263:22|235:30,2,32,0|2|0,0:0|0:0|0:0,0:0:0:0:
281,123,131785,5,2,3:2:0:0:
296,154,131902,1,0,0:0:0:0:
273,181,132019,1,0,0:0:0:0:
264,214,132136,1,0,0:0:0:0:
293,233,132253,1,2,3:2:0:0:
316,259,132370,1,0,0:0:0:0:
308,293,132488,1,0,0:0:0:0:
312,327,132605,1,0,0:0:0:0:
287,351,132722,6,0,P|262:354|239:349,1,32,2|0,3:2|0:0,0:0:0:0:
142,354,132956,2,0,P|158:337|168:321,1,32,2|2,0:0|0:0,0:0:0:0:
125,202,133191,5,0,0:0:0:0:
154,183,133308,2,0,P|174:190|199:193,2,32,0|2|0,0:0|0:0|0:0,0:0:0:0:
29,148,133660,6,0,P|9:202|50:270,1,120,6|0,3:2|0:0,0:0:0:0:
162,329,134128,6,0,L|217:337,1,32,2|0,3:2|0:0,0:0:0:0:
230,304,134363,2,0,L|266:324,1,32,0|0,0:0|0:0,0:0:0:0:
391,232,134597,6,0,B|381:234|375:243|375:243|377:255|388:257|388:257|443:242|472:191|430:136|386:124,1,186.000001419067,6|0,3:2|0:0,0:0:0:0:
305,54,135066,5,8,3:0:0:0:
283,64,135183,1,0,3:0:0:0:
231,47,135300,1,8,3:0:0:0:
206,49,135417,1,8,3:0:0:0:
159,32,135535,6,0,B|89:133|329:145|209:245,1,227.999993911743,6|0,1:2|0:0,0:0:0:0:
205,356,136003,5,0,1:0:0:0:
231,338,136120,1,0,0:0:0:0:
263,336,136238,1,0,0:0:0:0:
291,349,136355,1,0,0:0:0:0:
308,375,136472,6,0,P|328:364|356:358,1,32,0|0,1:0|0:0,0:0:0:0:
470,337,136706,2,0,P|467:318|454:297,1,32,0|0,0:0|0:0,0:0:0:0:
382,211,136941,5,0,1:0:0:0:
400,184,137058,2,0,B|416:171|416:171|444:175,2,32,0|0|0,0:0|0:0|0:0,0:0:0:0:
308,75,137410,5,0,1:0:0:0:
290,97,137527,1,0,0:0:0:0:
289,68,137644,1,0,0:0:0:0:
285,39,137761,1,0,0:0:0:0:
248,27,137878,1,0,1:0:0:0:
210,35,137995,1,0,0:0:0:0:
188,66,138113,1,0,0:0:0:0:
189,104,138230,1,0,0:0:0:0:
211,134,138347,6,0,B|256:186|186:273|285:276,1,162.000000617981,6|0,1:2|0:0,0:0:0:0:
200,178,138816,6,0,B|200:214|226:235|226:235|184:282|117:257|102:213,1,210.000002002716,6|0,1:2|0:0,0:0:0:0:
51,123,139285,6,0,L|-10:146,1,54.0000002059937,6|0,1:2|0:0,0:0:0:0:
65,84,139519,2,0,L|3:106,1,54.0000002059937,0|0,1:0|0:0,0:0:0:0:
86,44,139753,2,0,L|31:60,1,54.0000002059937,0|0,1:0|0:0,0:0:0:0:
106,8,139988,2,0,L|46:27,1,54.0000002059937,0|0,1:0|0:0,0:0:0:0:
206,61,140222,6,0,P|240:57|268:56,1,54.0000002059937,0|0,1:0|0:0,0:0:0:0:
285,208,140456,2,0,P|251:206|217:205,1,54.0000002059937,0|0,1:0|0:0,0:0:0:0:
363,123,140691,5,0,1:0:0:0:
391,113,140808,2,0,P|405:98|380:101,2,54.0000002059937,0|0|0,0:0|1:0|0:0,0:0:0:0:
296,227,141160,5,6,1:2:0:0:
285,255,141277,1,0,1:0:0:0:
290,293,141394,1,0,1:0:0:0:
318,314,141511,1,0,1:0:0:0:
373,320,141628,5,0,0:0:0:0:
433,272,141745,1,0,0:0:0:0:
374,220,141863,1,0,0:0:0:0:
414,152,141980,1,0,0:0:0:0:
338,134,142097,6,0,L|354:113,7,20,6|0|0|0|0|0|0|0,1:2|1:0|1:0|1:0|1:0|1:0|1:0|1:0,0:0:0:0:
302,70,142566,5,0,0:0:0:0:
302,70,142683,1,8,3:0:0:0:
302,70,142800,1,8,3:0:0:0:
121,57,143035,6,8,B|102:29|83:50|83:50|54:29|47:66|47:66|11:76|35:103|35:103|16:124|46:140,1,198.000001888275,4|0,3:0|0:0,0:0:0:0:
126,136,143503,1,0,1:0:0:0:
238,248,143855,1,0,3:0:0:0:
348,360,144206,5,0,3:0:0:0:
348,360,144441,2,0,B|348:323|348:323|352:318|352:318|363:269|363:269|368:263|368:263|369:231,1,132.00000125885,2|0,1:2|0:0,0:0:0:0:
382,85,144910,5,2,3:2:0:0:
367,74,145027,1,0,0:0:0:0:
349,77,145144,1,2,0:0:0:0:
338,63,145261,1,2,0:0:0:0:
324,39,145378,6,0,P|306:99|236:108,1,132.00000125885,0|2,1:0|0:0,0:0:0:0:
145,265,145730,2,0,B|143:219|139:164|139:164|169:177|139:206,1,132.00000125885,2|0,3:2|0:0,0:0:0:0:
298,283,146081,2,0,B|280:299|303:314|303:314|302:258|307:221,1,132.00000125885,2|0,3:2|1:0,0:0:0:0:
388,26,146550,1,2,3:2:0:0:
413,105,146785,6,0,B|410:141|410:141|414:144|414:144|410:146|410:146|407:184|407:184|403:186|403:186|407:190|407:190|403:240,1,132.00000125885,2|2,3:2|0:0,0:0:0:0:
440,266,147136,1,2,0:0:0:0:
461,314,147253,6,0,B|408:288|346:300|346:300|364:304|379:317,1,132.00000125885,0|2,1:0|0:0,0:0:0:0:
265,346,147605,2,0,B|277:345|284:354|284:354|226:369|176:342|176:342|156:354,1,143.999995605469,2|0,3:2|0:0,0:0:0:0:
47,283,147956,6,0,P|90:270|51:297,1,132.00000125885,2|2,3:2|1:2,0:0:0:0:
150,59,148425,2,0,P|129:69|143:55,1,66.0000006294251,2|2,0:0|0:0,0:0:0:0:
56,74,148660,6,0,B|52:153|155:175|152:142|91:158|45:199|36:171|157:165|171:263,1,264.0000025177,2|0,3:2|1:0,0:0:0:0:
286,373,149363,2,0,P|303:344|302:311,1,66.0000006294251,0|0,3:0|0:0,0:0:0:0:
269,228,149597,6,0,P|248:184|288:213,1,132.00000125885,2|0,1:2|3:0,0:0:0:0:
259,227,149949,6,0,P|246:170|288:211,1,156.000000595093,2|0,1:2|3:0,0:0:0:0:
247,228,150300,6,0,P|224:205|249:160,1,90.0000034332277,2|0,1:2|0:0,0:0:0:0:
288,210,150535,6,0,B|380:206|365:114|465:140,1,198.000001888275,4|0,3:0|0:0,0:0:0:0:
510,207,151003,1,0,1:0:0:0:
334,35,151355,1,0,3:0:0:0:
100,84,151706,6,0,B|90:90|90:90|83:79|95:72|180:63|176:141,1,132.00000125885,0|0,3:0|1:0,0:0:0:0:
186,238,152175,1,2,0:0:0:0:
61,324,152410,5,2,3:2:0:0:
80,350,152527,1,0,0:0:0:0:
111,359,152644,1,2,0:0:0:0:
142,350,152761,1,2,0:0:0:0:
164,326,152878,6,0,P|211:287|282:301,1,132.00000125885,2|2,1:2|0:0,0:0:0:0:
388,318,153230,2,0,B|406:328|413:344|413:344|380:307|386:253,1,132.00000125885,2|0,3:2|0:0,0:0:0:0:
458,138,153581,2,0,B|440:128|433:112|433:112|466:149|460:203,1,132.00000125885,2|0,3:2|1:0,0:0:0:0:
319,94,154050,1,0,3:0:0:0:
458,138,154285,6,0,P|396:151|336:113,1,132.00000125885,0|2,3:0|0:0,0:0:0:0:
230,93,154636,1,2,0:0:0:0:
214,63,154753,2,0,P|241:39|254:9,2,66.0000006294251,0|0|2,1:0|0:0|0:0,0:0:0:0:
85,106,155105,6,0,B|111:100|134:81|134:81|138:120|94:151,1,132.00000125885,4|0,3:0|0:0,0:0:0:0:
221,205,155456,2,0,B|195:199|172:180|172:180|168:219|212:249,1,132.00000125885,2|2,3:2|1:2,0:0:0:0:
237,255,155808,1,0,0:0:0:0:
269,254,155925,1,2,0:0:0:0:
296,235,156042,1,2,0:0:0:0:
315,208,156160,6,0,P|296:128|188:149,1,198.000001888275,4|0,3:0|0:0,0:0:0:0:
126,93,156628,1,0,1:0:0:0:
96,107,156745,1,2,0:0:0:0:
78,135,156863,2,0,P|71:170|83:203,1,66.0000006294251,2|0,3:2|0:0,0:0:0:0:
39,287,157097,6,0,P|112:277|193:273,1,147.999999435425,2|0,1:2|3:0,0:0:0:0:
353,239,157449,6,0,P|289:228|231:226,1,116.000003540039,2|0,1:2|3:0,0:0:0:0:
149,165,157800,6,0,P|191:160|250:156,1,83.9999974365235,2|4,1:2|3:0,0:0:0:0:
481,104,158269,5,2,0:0:0:0:
481,104,158386,1,0,0:0:0:0:
481,104,158503,2,0,P|455:43|394:32,1,132.00000125885,2|2,1:2|0:0,0:0:0:0:
312,100,158855,6,0,B|282:80|288:45|288:45|258:67|212:53,1,132.00000125885,2|2,3:2|0:0,0:0:0:0:
215,165,159206,6,0,B|168:231|239:239|223:296,1,132.00000125885,2|2,3:2|1:2,0:0:0:0:
418,354,159675,6,0,P|424:320|439:292,1,66.0000006294251,2|0,0:0|0:0,0:0:0:0:
326,319,159910,5,0,3:0:0:0:
326,319,160027,1,0,0:0:0:0:
326,319,160144,2,0,P|326:281|314:248,1,66.0000006294251,2|2,0:0|0:0,0:0:0:0:
395,228,160378,2,0,P|392:163|429:104,1,132.00000125885,2|2,1:2|0:0,0:0:0:0:
253,82,160730,6,0,B|268:55|308:48|332:54|332:54|340:69|340:69|352:66|352:66|357:76|372:75,1,132.00000125885,2|2,3:2|0:0,0:0:0:0:
259,158,161081,2,0,B|279:181|319:179|342:168|342:168|346:152|346:152|359:153|359:153|361:142|376:140,1,132.00000125885,2|2,3:2|1:2,0:0:0:0:
496,104,161550,1,2,3:2:0:0:
328,15,161785,5,2,3:2:0:0:
179,105,162019,1,2,0:0:0:0:
189,113,162136,1,0,0:0:0:0:
192,125,162253,1,2,1:2:0:0:
329,198,162488,5,2,0:0:0:0:
327,224,162605,1,0,3:0:0:0:
187,285,162839,5,0,0:0:0:0:
192,310,162956,1,0,3:0:0:0:
345,353,163191,5,2,1:2:0:0:
459,314,163425,1,2,0:0:0:0:
464,289,163542,1,0,0:0:0:0:
490,267,163660,6,0,B|496:160|427:207|441:69,1,198.000001888275,2|0,3:2|0:0,0:0:0:0:
362,29,164128,2,0,P|300:15|263:69,1,132.00000125885,2|0,1:2|3:0,0:0:0:0:
26,144,164597,6,0,P|99:141|111:193,1,132.00000125885,2|2,1:2|3:2,0:0:0:0:
174,258,164949,2,0,P|226:263|265:199,1,132.00000125885,0|0,1:0|3:0,0:0:0:0:
342,134,165300,1,2,1:2:0:0:
441,334,165535,6,0,B|381:328|381:328|380:320|380:320|316:314,1,132.00000125885,4|2,3:0|0:0,0:0:0:0:
239,342,165886,1,0,0:0:0:0:
204,337,166003,1,2,1:2:0:0:
40,257,166238,1,2,0:0:0:0:
51,290,166355,1,2,3:2:0:0:
114,140,166589,5,2,0:0:0:0:
105,106,166706,2,0,B|155:73|197:135|244:103,1,132.00000125885,2|2,3:2|1:2,0:0:0:0:
309,42,167175,2,0,P|316:106|326:180,1,132.00000125885,2|0,0:0|3:0,0:0:0:0:
324,318,167644,5,2,0:0:0:0:
324,318,167761,1,2,0:0:0:0:
324,318,167878,2,0,P|361:364|441:346,1,132.00000125885,2|2,1:2|0:0,0:0:0:0:
423,306,168230,6,0,B|427:328|427:328|344:297|344:297|361:284,1,132.00000125885,2|2,3:2|0:0,0:0:0:0:
322,202,168581,5,2,3:2:0:0:
309,188,168699,1,0,0:0:0:0:
288,180,168816,2,0,B|340:151|340:151|406:180,1,132.00000125885,2|2,1:2|3:2,0:0:0:0:
463,75,169285,1,2,3:2:0:0:
282,60,169519,5,0,0:0:0:0:
282,60,169636,1,0,0:0:0:0:
282,60,169753,2,0,B|256:88|222:80|222:80|195:100|211:146,1,132.00000125885,2|2,1:2|0:0,0:0:0:0:
390,231,170105,2,0,B|378:194|402:169|402:169|398:135|351:126,1,132.00000125885,2|0,3:2|0:0,0:0:0:0:
189,233,170456,2,0,B|226:241|236:274|236:274|267:288|294:255,2,132.00000125885,2|0|2,3:2|1:0|0:0,0:0:0:0:
288,180,171042,5,0,0:0:0:0:
288,180,171160,2,0,B|213:166|171:249|99:227,1,198.000001888275,6|0,3:2|0:0,0:0:0:0:
42,159,171628,6,0,B|26:131|26:92|26:92|38:60|66:43,1,132.00000125885,4|0,3:0|0:0,0:0:0:0:
333,56,172097,6,0,B|348:86|349:123|349:123|336:151|309:172,1,132.00000125885,4|0,3:0|0:0,0:0:0:0:
133,299,172566,6,0,B|160:242|160:242|164:169|164:169|194:104,1,198.000001888275,4|0,1:2|0:0,0:0:0:0:
197,139,173035,6,0,B|219:153|247:153|247:153|246:159|246:159|276:161|294:178,1,103.999995239258,4|0,0:0|0:0,0:0:0:0:
407,218,173738,1,0,0:0:0:0:
474,135,173972,6,0,B|445:111|445:111|407:124|407:124|401:123|401:123|368:138|368:138|362:139|362:139|335:154|335:154|328:155|328:155|281:175,1,207.999990478516,2|2,0:0|0:0,0:0:0:0:
130,211,175378,1,2,0:0:0:0:
51,157,175847,5,2,0:0:0:0:
188,116,176316,2,0,P|160:117|128:124,1,51.999997619629,2|0,0:0|0:0,0:0:0:0:
242,70,176785,6,0,L|232:189,1,103.999995239258,0|2,0:0|0:0,0:0:0:0:
317,346,177722,2,0,L|327:227,1,103.999995239258,2|2,0:0|0:0,0:0:0:0:
406,200,178660,5,2,0:0:0:0:
347,124,179128,1,2,0:0:0:0:
265,170,179480,6,0,L|249:158,2,12.9999994049073,8|8|2,3:0|3:0|0:0,0:0:0:0:
102,206,179988,1,0,0:0:0:0:
182,310,180183,1,8,3:0:0:0:
205,319,180300,1,8,3:0:0:0:
230,314,180417,1,8,3:0:0:0:
267,333,180535,6,0,P|247:299|251:255,1,83.9999974365235,4|0,3:2|0:0,0:0:0:0:
245,228,181003,2,0,L|304:237,1,55.9999982910157,2|0,3:2|0:0,0:0:0:0:
399,223,181355,1,0,0:0:0:0:
425,233,181472,6,0,P|418:208|420:172,1,55.9999982910157,2|0,3:2|0:0,0:0:0:0:
457,93,181824,1,0,0:0:0:0:
474,70,181941,2,0,L|415:79,1,55.9999982910157,2|0,3:2|0:0,0:0:0:0:
271,49,182410,6,0,L|184:61,1,75.9999979705811,6|0,3:2|0:0,0:0:0:0:
99,58,182761,1,0,0:0:0:0:
70,38,182878,2,0,P|76:78|79:134,1,75.9999979705811,2|0,3:2|0:0,0:0:0:0:
31,197,183230,1,0,0:0:0:0:
11,225,183347,6,0,P|66:210|114:238,1,113.999996955872,2|0,3:2|0:0,0:0:0:0:
147,231,183816,2,0,P|141:271|138:327,1,75.9999979705811,2|0,3:2|0:0,0:0:0:0:
247,346,184167,1,0,0:0:0:0:
280,317,184285,6,0,P|277:270|271:213,1,95.9999970703126,6|0,3:2|0:0,0:0:0:0:
412,10,184753,6,0,P|409:57|403:114,1,95.9999970703126,2|0,3:2|0:0,0:0:0:0:
396,190,185105,1,0,0:0:0:0:
424,222,185222,6,0,P|467:235|509:209,1,95.9999970703126,2|0,3:2|0:0,0:0:0:0:
427,321,185574,1,0,0:0:0:0:
398,353,185691,6,0,P|355:366|313:340,1,95.9999970703126,2|0,3:2|0:0,0:0:0:0:
233,276,186042,1,0,0:0:0:0:
197,287,186160,6,0,B|123:256|146:171|146:171|145:193|159:205,1,174.000005310059,6|0,3:2|0:0,0:0:0:0:
75,269,186628,6,0,B|87:179|186:179|186:179|162:185|153:203,1,198.000001888275,2|0,3:2|0:0,0:0:0:0:
55,133,187097,6,0,B|155:120|184:228|184:228|171:203|148:199,1,221.999999153137,2|0,3:2|0:0,0:0:0:0:
196,82,187566,6,0,B|237:184|132:244|132:244|155:224|153:199,1,246.000003753662,0|0,1:0|0:0,0:0:0:0:
307,48,188035,5,2,3:2:0:0:
422,41,188738,5,2,0:0:0:0:
431,153,188972,5,8,3:0:0:0:
415,171,189089,1,8,3:0:0:0:
416,194,189206,1,0,1:0:0:0:
455,236,189324,5,8,3:0:0:0:
463,258,189441,1,8,3:0:0:0:
454,280,189558,1,8,3:0:0:0:
414,316,189675,5,8,3:0:0:0:
407,339,189792,1,8,3:0:0:0:
415,362,189910,2,0,P|365:325|299:337,1,132.00000125885,4|0,3:2|0:0,0:0:0:0:
220,214,190261,1,0,0:0:0:0:
206,240,190378,2,0,P|201:276|225:325,1,66.0000006294251,2|0,1:2|0:0,0:0:0:0:
347,214,190613,2,0,P|379:213|409:189,1,66.0000006294251,2|0,0:0|0:0,0:0:0:0:
263,118,190847,6,0,P|264:49|215:15,1,132.00000125885,2|2,3:2|0:0,0:0:0:0:
85,110,191199,1,2,0:0:0:0:
69,135,191316,2,0,P|108:194|178:192,1,132.00000125885,0|2,1:0|0:0,0:0:0:0:
253,318,191667,1,0,0:0:0:0:
279,331,191785,6,0,P|296:268|343:220,1,132.00000125885,2|2,3:2|0:0,0:0:0:0:
457,183,192136,1,2,0:0:0:0:
484,197,192253,2,0,B|460:121|482:130|466:62,1,132.00000125885,0|2,1:0|0:0,0:0:0:0:
357,25,192605,1,0,0:0:0:0:
370,51,192722,6,0,P|395:75|435:80,1,66.0000006294251,2|0,3:2|0:0,0:0:0:0:
340,162,192956,2,0,P|308:165|273:192,1,66.0000006294251,2|0,0:0|0:0,0:0:0:0:
195,42,193191,2,0,P|229:41|263:17,1,66.0000006294251,2|2,1:2|0:0,0:0:0:0:
115,191,193425,2,0,P|94:217|94:262,1,66.0000006294251,2|2,0:0|0:0,0:0:0:0:
101,94,193660,6,0,B|108:72|101:35|101:35|122:136|218:139,1,221.999999153137,4|0,3:2|0:0,0:0:0:0:
272,231,194128,2,0,B|289:213|288:178|288:178|311:171|330:180|330:180|311:202,1,116.000003540039,2|0,1:2|0:0,0:0:0:0:
409,127,194480,1,2,0:0:0:0:
438,142,194597,6,0,B|491:210|438:286|490:275|427:214|487:122,1,221.999999153137,4|0,3:2|0:0,0:0:0:0:
414,312,195066,2,0,B|393:297|387:263|387:263|363:261|346:274|346:274|369:291,1,116.000003540039,2|0,1:2|0:0,0:0:0:0:
276,365,195417,1,2,0:0:0:0:
243,372,195535,6,0,P|263:284|193:343,1,221.999999153137,4|0,3:2|0:0,0:0:0:0:
58,311,196003,6,0,P|72:341|100:361,1,66.0000006294251,2|0,1:2|0:0,0:0:0:0:
255,220,196238,2,0,P|267:251|259:289,1,66.0000006294251,2|2,0:0|0:0,0:0:0:0:
104,198,196472,6,0,P|131:180|162:168,1,66.0000006294251,6|0,3:2|0:0,0:0:0:0:
398,189,196706,2,0,P|371:175|333:165,1,66.0000006294251,2|0,0:0|0:0,0:0:0:0:
317,27,196941,6,0,P|301:54|297:90,1,66.0000006294251,6|0,1:2|0:0,0:0:0:0:
503,116,197175,1,2,0:0:0:0:
481,80,197292,1,0,0:0:0:0:
488,38,197410,6,0,B|381:133|396:18|287:103,1,221.999999153137,6|0,3:2|0:0,0:0:0:0:
113,13,197878,6,0,B|166:21|150:68|207:80,1,116.000003540039,2|2,1:2|0:0,0:0:0:0:
29,250,198347,6,0,P|39:283|44:323,1,66.0000006294251,2|2,3:2|0:0,0:0:0:0:
101,251,198523,1,2,0:0:0:0:
101,251,198581,2,0,P|88:282|67:313,1,66.0000006294251,2|2,0:0|0:0,0:0:0:0:
214,257,198816,2,0,P|160:290|91:321,1,132.00000125885,0|2,1:0|0:0,0:0:0:0:
316,92,199285,6,0,P|302:123|293:158,1,66.0000006294251,2|0,3:2|0:0,0:0:0:0:
454,150,199519,2,0,P|445:118|426:86,1,66.0000006294251,2|2,0:0|0:0,0:0:0:0:
316,229,199753,2,0,B|351:226|376:200|376:200|406:224|444:226,1,132.00000125885,0|2,1:0|0:0,0:0:0:0:
469,299,200105,1,0,0:0:0:0:
451,307,200222,6,0,P|418:304|386:291,1,66.0000006294251,6|0,3:2|0:0,0:0:0:0:
249,278,200456,2,0,P|237:246|237:205,1,66.0000006294251,0|0,0:0|0:0,0:0:0:0:
200,78,200691,6,0,P|245:29|320:38,1,132.00000125885,6|0,1:2|0:0,0:0:0:0:
459,64,201042,1,0,0:0:0:0:
439,74,201160,2,0,B|392:58|392:58|367:67|367:67|316:47,1,132.00000125885,6|0,3:2|0:0,0:0:0:0:
84,25,201628,6,0,B|45:16|16:37|12:55|12:55|8:58|8:58|11:62|11:62|8:85|29:100,1,132.00000125885,2|0,1:2|0:0,0:0:0:0:
133,187,201980,1,0,0:0:0:0:
135,162,202097,6,0,P|43:164|87:204,1,198.000001888275,6|2,3:2|0:0,0:0:0:0:
161,291,202566,6,0,P|214:272|199:319,1,132.00000125885,0|2,1:0|0:0,0:0:0:0:
180,328,202917,1,0,0:0:0:0:
160,342,203035,5,6,3:2:0:0:
198,334,203152,1,0,0:0:0:0:
229,357,203269,1,0,0:0:0:0:
268,354,203386,1,0,0:0:0:0:
284,342,203503,6,0,B|359:337|314:319|399:321,1,102.000001945496,2|0,1:2|0:0,0:0:0:0:
466,247,203972,6,0,P|442:224|410:214,3,66.0000006294251,6|0|0|2,3:2|0:0|0:0|0:0,0:0:0:0:
282,117,204441,2,0,P|250:128|225:158,3,66.0000006294251,0|0|2|0,1:0|0:0|0:0|0:0,0:0:0:0:
63,13,204910,5,8,3:0:0:0:
50,66,205027,1,8,3:0:0:0:
69,96,205144,5,8,3:0:0:0:
77,150,205261,1,8,3:0:0:0:
57,180,205378,6,0,P|123:180|160:129,1,132.00000125885,2|2,1:2|0:0,0:0:0:0:
295,251,205730,1,0,0:0:0:0:
269,242,205847,2,0,P|246:216|247:181,1,66.0000006294251,2|0,3:2|0:0,0:0:0:0:
400,325,206081,5,2,0:0:0:0:
427,331,206199,1,2,0:0:0:0:
454,324,206316,2,0,P|478:299|485:267,1,66.0000006294251,0|0,1:0|0:0,0:0:0:0:
387,154,206550,2,0,B|369:141|343:143|343:143|365:147|376:141,1,66.0000006294251,2|0,0:0|0:0,0:0:0:0:
509,32,206785,5,2,3:2:0:0:
486,22,206902,1,0,0:0:0:0:
451,36,207019,1,2,0:0:0:0:
424,7,207136,1,2,0:0:0:0:
388,27,207253,6,0,P|361:44|316:45,1,66.0000006294251,0|0,1:0|0:0,0:0:0:0:
138,16,207488,2,0,P|112:37|100:80,1,66.0000006294251,2|0,0:0|0:0,0:0:0:0:
12,230,207722,6,0,P|29:294|106:313,1,132.00000125885,2|2,3:2|0:0,0:0:0:0:
172,262,208074,1,0,0:0:0:0:
184,234,208191,2,0,P|167:170|90:151,1,132.00000125885,2|2,1:2|0:0,0:0:0:0:
139,263,208542,1,0,0:0:0:0:
172,262,208660,6,0,B|192:292|184:316|184:316|213:252|275:249|275:249|272:272|288:298,1,221.999999153137,6|0,3:2|0:0,0:0:0:0:
460,367,209128,2,0,P|497:316|500:263,1,116.000003540039,2|0,1:2|0:0,0:0:0:0:
472,197,209480,1,2,0:0:0:0:
483,164,209597,6,0,P|386:153|416:236,1,221.999999153137,4|0,3:2|0:0,0:0:0:0:
241,162,210066,2,0,B|235:139|267:111|292:121|292:121|280:141|277:169,1,116.000003540039,2|0,1:2|0:0,0:0:0:0:
262,235,210417,1,2,0:0:0:0:
295,228,210535,6,0,B|242:140|354:91|297:35|297:35|285:50,1,221.999999153137,6|0,3:2|0:0,0:0:0:0:
168,94,211003,2,0,B|148:126|148:158|148:158|120:160|95:189,1,116.000003540039,2|2,1:2|0:0,0:0:0:0:
157,231,211355,1,2,0:0:0:0:
185,221,211472,6,0,P|131:192|91:250,1,132.00000125885,6|2,3:2|0:0,0:0:0:0:
32,378,211824,1,0,0:0:0:0:
55,358,211941,2,0,B|110:316|131:380|184:363,1,132.00000125885,6|2,1:2|0:0,0:0:0:0:
319,280,212292,1,0,0:0:0:0:
304,308,212410,6,0,B|306:362|441:348|276:255|363:178,1,221.999999153137,6|0,3:2|0:0,0:0:0:0:
502,206,212878,2,0,P|477:183|481:139,1,66.0000006294251,2|0,1:2|0:0,0:0:0:0:
382,56,213113,2,0,P|357:76|306:62,1,66.0000006294251,2|0,0:0|0:0,0:0:0:0:
195,52,213347,5,2,3:2:0:0:
171,35,213464,2,0,P|177:69|185:115,2,66.0000006294251,2|2|0,0:0|0:0|0:0,0:0:0:0:
65,228,213816,1,2,1:2:0:0:
57,223,213933,1,0,0:0:0:0:
48,216,214050,2,0,P|54:179|59:138,1,66.0000006294251,2|0,0:0|0:0,0:0:0:0:
268,216,214285,5,6,3:2:0:0:
298,235,214402,1,0,0:0:0:0:
307,263,214519,1,2,0:0:0:0:
305,285,214636,1,0,0:0:0:0:
295,302,214753,2,0,B|268:324|268:324|256:311|236:308,1,66.0000006294251,0|0,1:2|0:0,0:0:0:0:
133,221,214988,2,0,B|160:199|160:199|172:212|192:215,1,66.0000006294251,2|0,0:0|0:0,0:0:0:0:
342,194,215222,6,0,P|343:255|292:303,1,132.00000125885,6|0,3:2|0:0,0:0:0:0:
133,221,215574,2,0,P|132:160|183:112,1,132.00000125885,6|0,0:0|0:0,0:0:0:0:
379,29,215925,5,6,0:0:0:0:
393,58,216042,1,0,0:0:0:0:
425,64,216160,2,0,P|412:95|406:132,1,66.0000006294251,6|0,3:2|0:0,0:0:0:0:
289,230,216394,2,0,P|299:193|303:142,1,66.0000006294251,0|0,0:0|0:0,0:0:0:0:
172,227,216628,5,0,1:0:0:0:
161,265,216745,1,0,0:0:0:0:
79,277,216863,5,2,0:0:0:0:
92,240,216980,1,2,0:0:0:0:
6,293,217097,6,0,B|18:332|51:336|51:336|-2:375|73:400|132:360,1,198.000001888275,0|0,3:0|0:0,0:0:0:0:
217,374,217566,2,0,P|246:318|313:318,1,132.00000125885,2|2,1:2|0:0,0:0:0:0:
339,340,217917,1,2,0:0:0:0:
378,345,218035,6,0,B|365:259|360:192|360:192|374:172|367:129,1,198.000001888275,4|0,3:2|0:0,0:0:0:0:
457,111,218503,6,0,P|400:110|374:72,1,102.000001945496,2|0,1:2|0:0,0:0:0:0:
270,10,218972,6,0,P|303:58|247:101,1,132.00000125885,6|0,3:2|0:0,0:0:0:0:
177,109,219324,1,2,0:0:0:0:
104,75,219441,2,0,P|116:146|120:226,1,132.00000125885,0|2,1:0|0:0,0:0:0:0:
43,241,219792,1,0,0:0:0:0:
43,241,219910,6,0,B|112:355|131:259|193:369,1,198.000001888275,6|0,3:2|0:0,0:0:0:0:
359,333,220378,2,0,P|354:301|335:270,1,66.0000006294251,2|0,1:2|0:0,0:0:0:0:
320,279,220613,2,0,P|324:310|343:341,1,66.0000006294251,2|2,0:0|0:0,0:0:0:0:
386,190,220847,5,0,3:0:0:0:
413,179,220964,2,0,P|446:174|481:183,2,66.0000006294251,0|0|0,0:0|0:0|0:0,0:0:0:0:
306,113,221316,5,2,1:2:0:0:
314,85,221433,2,0,P|334:62|373:46,2,66.0000006294251,0|2|2,0:0|0:0|0:0,0:0:0:0:
201,143,221785,5,0,3:0:0:0:
173,141,221902,1,0,0:0:0:0:
152,128,222019,1,0,0:0:0:0:
140,104,222136,1,0,0:0:0:0:
121,65,222253,2,0,P|137:135|149:225,1,132.00000125885,2|0,1:2|0:0,0:0:0:0:
116,322,222605,1,0,0:0:0:0:
131,347,222722,6,0,P|100:330|70:320,1,66.0000006294251,2|0,3:2|0:0,0:0:0:0:
242,285,222956,2,0,P|273:271|316:264,1,66.0000006294251,2|2,0:0|0:0,0:0:0:0:
443,329,223191,5,2,1:2:0:0:
466,297,223308,1,0,0:0:0:0:
472,258,223425,1,2,0:0:0:0:
472,218,223542,1,2,0:0:0:0:
489,187,223660,6,0,P|416:166|308:188,1,174.000005310059,6|0,3:2|0:0,0:0:0:0:
174,156,224128,2,0,L|181:107,1,34.0000006484985,0|0,1:0|0:0,0:0:0:0:
259,43,224363,2,0,L|265:88,1,34.0000006484985,0|0,0:0|0:0,0:0:0:0:
473,190,224597,6,0,P|374:204|276:198,1,198.000001888275,6|0,3:2|0:0,0:0:0:0:
145,157,225066,2,0,P|147:132|155:109,1,41.9999987182618,2|0,1:2|0:0,0:0:0:0:
242,31,225300,2,0,P|249:56|253:84,1,41.9999987182618,2|2,0:0|0:0,0:0:0:0:
485,181,225535,6,0,B|398:145|374:207|255:193,1,221.999999153137,6|0,3:2|0:0,0:0:0:0:
109,156,226003,1,2,1:2:0:0:
215,25,226238,2,0,P|211:55|210:93,1,50
470,163,226472,6,0,P|397:188|285:182,1,164.000002502441,6|0,3:2|0:0,0:0:0:0:
326,177,226824,2,0,P|250:155|165:173,1,164.000002502441,2|0,3:2|0:0,0:0:0:0:
185,179,227175,2,0,P|146:165|121:128,1,82.0000012512207,2|0,3:2|0:0,0:0:0:0:
29,255,227410,5,6,3:2:0:0:
22,287,227527,1,0,0:0:0:0:
27,319,227644,1,0,0:0:0:0:
48,343,227761,1,0,0:0:0:0:
97,360,227878,1,2,1:2:0:0:
144,336,227995,1,0,0:0:0:0:
164,286,228113,2,0,L|230:301,1,66.0000006294251,2|0,0:0|0:0,0:0:0:0:
321,222,228347,5,2,3:2:0:0:
344,204,228464,2,0,L|390:199,2,33.0000003147125,2|2|2,0:0|0:0|0:0,0:0:0:0:
269,139,228699,5,0,0:0:0:0:
250,114,228816,2,0,P|218:110|181:104,1,66.0000006294251,2|0,1:2|0:0,0:0:0:0:
209,31,229050,2,0,P|173:34|131:37,1,66.0000006294251,2|0,0:0|0:0,0:0:0:0:
60,93,229285,5,2,3:2:0:0:
69,124,229402,1,0,0:0:0:0:
27,124,229519,1,2,0:0:0:0:
27,155,229636,1,2,0:0:0:0:
49,190,229753,6,0,P|87:184|128:177,1,66.0000006294251,2|0,1:2|0:0,0:0:0:0:
124,172,229988,2,0,P|163:177|209:185,1,66.0000006294251,2|0,0:0|0:0,0:0:0:0:
72,259,230222,6,0,P|137:246|216:234,1,132.00000125885,6|0,3:2|0:0,0:0:0:0:
77,97,230574,2,0,P|145:107|229:119,1,132.00000125885,2|0,3:2|0:0,0:0:0:0:
365,194,230925,5,2,3:2:0:0:
325,190,231042,1,0,0:0:0:0:
285,186,231160,2,0,P|312:118|362:119,1,132.00000125885,6|0,3:2|0:0,0:0:0:0:
452,146,231511,1,0,0:0:0:0:
426,111,231628,5,2,1:2:0:0:
435,79,231745,1,0,0:0:0:0:
428,46,231863,1,2,0:0:0:0:
402,24,231980,1,2,0:0:0:0:
369,22,232097,2,0,B|287:46|330:8|238:36,1,132.00000125885,6|0,3:2|0:0,0:0:0:0:
160,63,232449,1,0,0:0:0:0:
111,42,232566,5,2,1:2:0:0:
75,99,232683,1,0,0:0:0:0:
115,170,232800,1,2,0:0:0:0:
203,163,232917,1,2,0:0:0:0:
317,149,233503,6,0,P|277:233|314:301,1,174.000005310059,2|0,0:0|0:0,0:0:0:0:
390,327,233972,54,0,P|435:303|456:269,1,92.0000017547608,2|0,0:0|0:0,0:0:0:0:
440,184,234324,54,0,P|413:164|374:155,1,68.0000012969971,2|0,0:0|0:0,0:0:0:0:
372,234,234675,54,0,P|379:246|378:236,1,38.9999982147218,2|0,0:0|0:0,0:0:0:0:
